osu file format v9

[General]
AudioFilename: Arbelge no Tatakai.mp3
AudioLeadIn: 0
PreviewTime: 19874
Countdown: 0
SampleSet: Normal
StackLeniency: 0.5
Mode: 1
LetterboxInBreaks: 0

[Editor]
Bookmarks: 19877,27041,41369,55698,70026,83011,97339,111667
DistanceSpacing: 0.7
BeatDivisor: 6
GridSize: 8

[Metadata]
Title:Arbelge no Tatakai
Artist:Sound Horizon
Creator:Sandpig
Version:lepidon! - Taiko Oni
Source:Chonicle 2nd
Tags:1st Story CD lepidopodus selee

[Difficulty]
HPDrainRate:5
CircleSize:5
OverallDifficulty:5
ApproachRate:5
SliderMultiplier:1.4
SliderTickRate:1

[Events]
//Background and Video events
0,0,"Taiko BG.jpg"
//Break Periods
//Storyboard Layer 0 (Background)
//Storyboard Layer 1 (Fail)
//Storyboard Layer 2 (Pass)
//Storyboard Layer 3 (Foreground)
//Storyboard Sound Samples
//Background Colour Transformations
3,100,0,0,0

[TimingPoints]
3757,447.794611538174,4,1,1,70,1,0
19765,-100,4,1,1,80,0,0
26930,-100,4,1,1,70,0,0
40364,-100,4,1,1,80,0,0
41371,-100,4,1,1,80,0,1
55701,-100,4,1,1,80,0,0
70030,447.794611538174,7,1,1,70,1,0
76075,-100,7,1,1,80,0,0
79433,447.794611538174,4,1,1,80,1,0
83015,-100,4,1,1,80,0,1
97344,-100,4,1,1,70,0,0
111674,-100,4,1,1,80,0,1
119734,-100,4,1,1,80,0,0

[Colours]
Combo1 : 224,174,150
Combo2 : 150,35,35

[HitObjects]
152,200,5548,1,0
248,215,5995,1,0
317,191,6443,1,8
356,161,6667,1,8
399,183,6891,1,0
386,280,7339,1,8
342,302,7563,1,8
293,304,7787,1,0
203,265,8234,1,0
291,223,8682,1,8
377,177,9130,1,0
370,79,9578,1,0
412,167,10026,1,8
424,214,10250,1,8
394,252,10473,1,0
297,232,10921,1,8
263,196,11145,1,8
282,151,11369,1,0
379,157,11817,1,0
369,229,12265,1,8
276,261,12712,5,4
342,333,13160,1,0
352,235,13608,1,8
364,187,13832,1,8
410,202,14056,1,0
371,112,14504,1,8
408,81,14727,1,8
422,127,14951,1,0
380,215,15399,1,0
282,219,15847,1,8
195,173,16295,1,0
287,140,16743,1,0
381,165,17190,1,8
402,260,17638,1,0
313,217,18086,1,8
276,250,18310,1,8
322,234,18534,1,0
296,139,18982,1,0
278,122,19093,1,0
253,117,19205,1,0
228,116,19317,1,0
203,116,19429,1,0
298,140,19877,5,12
343,159,20101,1,4
336,208,20549,1,0
228,292,20997,1,0
206,302,21109,1,0
227,289,21220,1,8
273,272,21444,1,0
317,250,21668,1,12
333,203,21892,1,4
235,199,22340,1,0
277,221,22564,1,0
325,214,22788,1,8
369,194,23012,1,0
412,171,23236,1,8
406,122,23459,1,12
422,168,23683,1,4
331,204,24131,1,0
364,296,24579,1,0
388,297,24691,1,0
393,256,24803,1,8
419,214,25027,1,0
370,204,25251,1,8
321,202,25475,1,8
296,203,25586,1,8
271,205,25698,1,8
264,253,25922,1,8
257,276,26034,1,8
280,283,26146,1,0
303,291,26258,1,0
326,298,26370,1,0
367,272,26594,1,12
292,208,27042,5,0
348,128,27490,1,8
371,119,27602,1,8
380,141,27714,1,0
338,166,27937,1,0
299,195,28161,1,0
338,224,28385,1,8
306,261,28609,1,0
411,233,28833,1,0
447,141,29281,1,8
447,165,29393,1,8
463,183,29505,1,0
458,231,29729,1,0
418,202,29952,1,8
372,219,30176,1,0
351,314,30624,1,0
348,128,31072,1,8
371,119,31184,1,8
380,141,31296,1,0
338,166,31520,1,0
299,195,31744,1,0
338,224,31968,1,8
306,261,32191,1,0
352,276,32415,2,0,B|194:302,1,140
183,259,33087,1,0
169,238,33199,1,0
181,217,33311,1,8
226,199,33535,1,0
273,187,33759,1,0
292,208,34207,5,0
348,128,34654,1,8
371,119,34766,1,8
380,141,34878,1,0
338,166,35102,1,0
299,195,35326,1,0
338,224,35550,1,8
306,261,35774,1,0
281,257,35886,1,0
411,233,35998,1,0
447,141,36446,1,8
447,165,36557,1,8
463,183,36669,1,0
458,231,36893,1,0
418,202,37117,1,8
372,219,37341,1,0
328,242,37565,1,0
306,254,37677,1,0
351,314,37789,1,0
348,128,38237,1,8
371,119,38349,1,8
380,141,38461,1,0
338,166,38684,1,0
299,195,38908,1,0
338,224,39132,1,8
306,261,39356,1,0
352,276,39580,2,0,B|194:302,1,140
338,166,40252,1,0
251,208,40476,1,12
299,203,40700,1,8
323,202,40812,1,8
347,202,40923,1,0
393,187,41147,1,8
352,159,41371,5,4
400,149,41595,1,8
439,177,41819,1,0
465,218,42043,1,8
428,250,42267,1,0
379,255,42491,1,8
354,258,42603,1,8
333,244,42715,1,0
306,202,42939,1,8
288,156,43162,1,4
330,131,43386,1,8
378,132,43610,1,0
424,146,43834,1,8
429,194,44058,1,0
433,217,44170,1,0
453,229,44282,1,8
467,182,44506,1,0
420,166,44730,1,8
381,195,44954,1,4
332,189,45178,1,8
311,176,45289,1,8
325,156,45401,1,0
360,122,45625,1,8
408,131,45849,1,0
431,136,45961,1,0
449,152,46073,1,8
424,194,46297,1,0
449,236,46521,1,8
426,192,46745,1,4
445,147,46969,1,8
443,97,47193,1,4
431,136,47416,1,8
479,129,47640,1,4
449,167,47864,1,8
409,137,48088,1,4
352,159,48536,5,4
400,149,48760,1,8
439,177,48984,1,0
465,218,49208,1,8
428,250,49432,1,0
379,255,49655,1,8
354,258,49767,1,8
333,244,49879,1,0
286,227,50103,1,8
311,185,50327,1,4
356,167,50551,1,8
385,128,50775,1,4
432,140,50999,1,8
432,140,51223,1,4
457,182,51447,1,8
412,160,51671,1,4
456,178,51894,1,8
408,166,52118,1,4
366,191,52342,1,8
353,211,52454,1,8
365,232,52566,1,0
382,277,52790,1,8
338,255,53014,1,4
303,220,53238,1,8
303,195,53350,1,0
303,170,53462,1,0
340,138,53686,1,8
366,97,53909,1,4
377,144,54133,1,0
378,168,54245,1,0
382,192,54357,1,0
387,240,54581,1,0
389,264,54693,1,0
412,258,54805,1,8
389,268,54917,1,8
366,276,55029,1,8
318,263,55253,1,12
230,219,55701,5,0
247,173,55925,1,0
316,150,56260,1,0
389,152,56596,1,0
376,224,56932,1,0
390,270,57156,1,0
398,293,57268,1,0
413,274,57380,1,8
411,249,57492,1,0
362,244,57716,1,0
289,256,58052,1,0
341,204,58387,1,0
378,172,58611,1,0
427,172,58835,1,8
230,219,59283,1,0
247,173,59507,1,0
316,150,59843,1,0
389,152,60179,1,0
376,224,60514,1,0
390,270,60738,1,0
398,293,60850,1,0
413,274,60962,1,8
411,249,61074,1,0
362,244,61298,1,0
289,256,61634,1,0
246,195,61970,1,0
238,171,62082,1,0
239,146,62194,1,0
257,130,62306,1,0
280,135,62418,1,8
303,140,62530,1,8
326,145,62641,1,8
370,161,62865,5,0
333,193,63089,1,0
268,227,63425,1,0
335,256,63761,1,0
382,244,63985,1,8
406,240,64097,1,0
361,220,64321,1,0
338,209,64433,1,0
354,190,64545,1,8
366,168,64657,1,0
362,216,64880,1,0
379,287,65216,1,0
396,241,65440,1,8
309,263,65552,1,0
266,239,65776,1,0
288,195,66000,1,8
376,152,66448,1,0
409,187,66672,1,0
375,252,67007,1,0
318,298,67343,1,0
364,281,67567,1,8
387,272,67679,1,0
341,252,67903,1,0
319,240,68015,1,8
326,191,68239,1,12
374,183,68575,1,12
382,256,68911,1,4
392,208,69135,1,12
411,137,69470,1,12
432,207,69806,1,4
387,228,70030,5,0
338,232,70253,1,0
371,267,70477,1,8
386,285,70589,1,8
361,289,70701,1,0
323,256,70925,1,0
337,236,71037,1,8
349,214,71149,1,0
343,165,71373,1,0
391,172,71597,1,8
342,174,71821,1,0
325,174,71895,1,0
308,175,71970,1,0
291,177,72045,1,0
242,171,72268,1,0
274,207,72380,1,8
277,231,72492,1,0
323,246,72716,1,0
345,256,72828,1,0
366,267,72940,1,0
387,255,73052,1,8
401,235,73164,1,0
353,223,73388,1,0
392,193,73612,1,8
412,180,73724,1,8
436,180,73836,1,0
435,229,74060,1,0
456,216,74172,1,8
457,191,74284,1,0
422,225,74507,1,0
395,266,74731,1,8
346,271,74955,1,0
329,272,75030,1,0
312,273,75105,1,0
295,274,75179,1,0
278,227,75403,1,0
270,203,75515,1,0
266,178,75627,1,0
288,169,75739,1,8
312,166,75851,1,0
408,136,76299,5,4
392,184,76523,1,0
432,216,76746,1,8
448,232,76858,1,8
456,208,76970,1,0
432,168,77194,1,4
384,176,77418,1,8
360,216,77642,1,0
344,240,77754,1,0
344,264,77866,1,8
312,232,78090,1,4
272,200,78314,1,8
264,152,78538,1,4
312,144,78761,1,8
360,120,78985,1,4
408,136,79433,1,4
392,184,79656,1,0
368,192,79768,1,0
432,216,79880,1,8
448,232,79992,1,8
456,208,80104,1,0
432,168,80328,1,4
384,176,80552,1,8
400,192,80664,1,8
360,216,80776,1,0
344,240,80888,1,0
344,264,81000,1,8
312,232,81224,1,4
360,248,81448,1,8
424,272,81671,1,4
432,248,81895,1,8
360,120,82119,1,4
288,184,82567,1,12
352,159,83015,5,4
400,149,83239,1,8
439,177,83463,1,0
465,218,83687,1,8
428,250,83910,1,0
379,255,84134,1,8
354,258,84246,1,8
333,244,84358,1,0
312,240,84470,1,0
306,202,84582,1,8
288,156,84806,1,4
330,131,85030,1,8
378,132,85254,1,0
424,146,85478,1,8
429,194,85702,1,0
433,217,85814,1,0
453,229,85926,1,8
432,224,86037,1,8
467,182,86149,1,0
420,166,86373,1,8
381,195,86597,1,4
332,189,86821,1,8
311,176,86933,1,8
325,156,87045,1,0
304,168,87157,1,0
360,122,87269,1,8
408,131,87493,1,0
431,136,87605,1,0
449,152,87717,1,8
448,176,87829,1,8
424,194,87941,1,0
449,236,88164,1,8
408,256,88388,1,0
384,264,88500,1,0
360,272,88612,1,8
312,256,88836,1,0
288,256,88948,1,0
264,240,89060,1,8
224,208,89284,1,0
208,192,89396,1,0
216,168,89508,1,8
256,136,89732,1,4
352,159,90180,5,4
400,149,90403,1,8
439,177,90627,1,0
465,218,90851,1,8
428,250,91075,1,0
379,255,91299,1,8
354,258,91411,1,8
333,244,91523,1,0
312,232,91635,1,0
286,227,91747,1,8
272,176,91971,1,4
320,168,92195,1,8
344,168,92307,1,8
368,168,92419,1,0
416,168,92642,1,8
440,168,92754,1,8
456,184,92866,1,0
424,224,93090,1,8
408,248,93202,1,8
365,232,93314,1,0
344,168,93538,1,8
408,166,93762,1,4
366,191,93986,1,8
353,211,94098,1,8
365,232,94210,1,0
344,232,94322,1,0
382,277,94434,1,8
338,255,94658,1,4
303,220,94881,1,8
303,195,94993,1,0
303,170,95105,1,0
312,192,95217,1,0
340,138,95329,1,8
366,97,95553,1,4
377,144,95777,1,0
378,168,95889,1,0
382,192,96001,1,0
387,240,96225,1,0
389,264,96337,1,0
412,258,96449,1,8
389,268,96561,1,8
366,276,96673,1,8
318,263,96896,1,12
232,224,97344,5,8
424,192,98240,1,8
328,216,98688,1,8
368,240,98912,1,8
312,352,99135,1,8
432,272,99807,1,8
400,176,100031,1,8
352,312,100703,1,8
296,336,100927,1,8
184,176,101822,1,8
272,224,102270,1,8
368,256,102718,1,8
336,336,103390,1,8
336,336,103613,1,8
272,256,104061,1,8
256,240,104173,1,8
248,216,104285,1,8
232,192,104397,1,8
248,176,104509,5,8
432,248,105405,1,8
360,312,105852,1,8
352,264,106076,1,8
264,328,106300,1,8
296,184,106972,1,8
408,200,107196,1,8
352,336,107867,1,8
224,264,108091,1,8
368,224,108763,1,8
400,168,108987,1,8
408,240,109211,1,8
384,240,109323,1,8
328,288,109659,1,8
256,192,109883,12,0,111450
298,140,111674,5,12
343,159,111898,1,4
296,168,112122,1,0
344,184,112345,1,8
248,152,112457,1,0
328,208,112793,1,0
352,224,112905,1,0
376,224,113017,1,8
273,272,113241,1,0
317,250,113465,1,12
333,203,113689,1,4
288,192,113913,1,0
235,199,114137,1,8
257,208,114249,1,0
277,221,114360,1,0
256,216,114472,1,0
325,214,114584,1,8
369,194,114808,1,0
352,208,114920,1,0
412,171,115032,1,8
406,122,115256,1,12
422,168,115480,1,4
376,192,115704,1,0
412,171,115928,1,8
280,216,116040,1,0
364,296,116376,1,0
360,272,116488,1,0
393,256,116599,1,8
419,214,116823,1,0
392,208,116935,1,0
376,192,117047,1,8
360,176,117159,1,8
384,168,117271,1,0
408,160,117383,1,0
432,160,117495,1,0
384,168,117719,1,0
360,168,117831,1,0
352,144,117943,1,8
344,120,118055,1,8
368,112,118167,1,0
392,104,118279,1,0
416,104,118391,1,8
400,200,118838,5,4
