osu file format v9

[General]
AudioFilename: Arbelge no Tatakai.mp3
AudioLeadIn: 0
PreviewTime: 19874
Countdown: 0
SampleSet: Soft
StackLeniency: 0.5
Mode: 0
LetterboxInBreaks: 0

[Editor]
Bookmarks: 16963,19877,27041,41369,55698,70026,83011,97339,111667,118388
DistanceSpacing: 1
BeatDivisor: 4
GridSize: 4

[Metadata]
Title:Arbelge no Tatakai
Artist:Sound Horizon
Creator:Sandpig
Version:Hard
Source:Chonicle 2nd
Tags:1st Story CD lepidopodus selee

[Difficulty]
HPDrainRate:5
CircleSize:4
OverallDifficulty:5
ApproachRate:7
SliderMultiplier:1.8
SliderTickRate:1

[Events]
//Background and Video events
0,0,"BG.jpg" S,0,5545,,0.625 F,0,5545,12262,0,1
//Break Periods
//Storyboard Layer 0 (Background)
//Storyboard Layer 1 (Fail)
//Storyboard Layer 2 (Pass)
//Storyboard Layer 3 (Foreground)
//Storyboard Sound Samples
//Background Colour Transformations
3,100,0,0,0

[TimingPoints]
3757,447.794611538174,4,2,1,54,1,0
5548,-200,4,2,1,41,0,0
12712,-200,4,2,1,50,0,0
19877,-100,4,1,1,63,0,0
21892,-100,4,1,1,73,0,0
23683,-100,4,1,1,82,0,0
25251,-100,4,1,1,92,0,0
26146,-100,4,1,1,100,0,0
27266,-100,4,2,2,56,0,0
34207,-100,4,2,2,59,0,0
37789,-100,4,2,2,65,0,0
40252,-100,4,2,1,65,0,0
41371,-100,4,2,1,65,0,1
55701,-100,4,1,2,87,0,0
62865,-100,4,1,2,91,0,0
66448,-100,4,1,2,100,0,0
70030,447.794611538174,7,1,2,100,1,0
70141,-100,7,2,2,65,0,0
73164,-100,7,2,2,73,0,0
76299,-100,7,2,1,65,0,0
79433,447.794611538174,4,2,1,66,1,0
83015,-100,4,2,1,65,0,1
97344,-200,4,2,1,65,0,0
97568,-200,4,2,1,46,0,0
110778,-200,4,2,1,51,0,0
111226,-200,4,2,1,70,0,0
111674,-100,4,1,1,81,0,1
117047,-100,4,1,1,90,0,1
118167,-100,4,1,1,100,0,1
118838,-100,4,1,2,85,0,0

[Colours]
Combo1 : 224,174,150
Combo2 : 150,35,35

[HitObjects]
136,96,5548,2,0,B|153:98|183:140|207:147,1,90
256,72,6219,1,0
376,96,6443,2,0,B|358:98|328:140|304:147,1,90,8|2
120,248,7339,6,0,B|160:280|208:248,1,90
392,224,8234,2,0,B|352:192|304:224,1,90,8|2
232,272,8906,1,2
152,224,9130,6,0,B|175:220|172:147|196:144,1,90
256,72,9802,1,0
320,146,10026,2,0,B|339:147|336:220|360:224,1,90,8|2
184,312,10921,6,0,B|178:258|218:222,1,90
328,72,11817,2,0,B|333:125|293:161,1,90,8|2
120,280,12712,6,0,B|136:232|192:232,1,90,0|0
280,240,13384,1,0
348,192,13608,2,0,B|332:239|279:239,1,90,8|2
208,176,14280,1,2
208,176,14504,5,0
336,82,14951,1,0
429,211,15399,1,8
301,304,15847,2,0,B|240:288,1,45,2|0
208,272,16295,2,0,B|240:240|232:184,1,90
240,96,16966,2,0,B|236:141|278:178,1,90
320,216,17638,6,0,B|376:216,2,45,2|0|0
256,320,18534,2,0,B|256:368,2,45,2|0|8
192,216,19429,1,0
192,216,19877,5,12
144,144,20101,2,0,B|112:96,2,45,2|0|8
88,216,20549,2,0,B|128:168,2,45,2|0|8
136,296,20997,2,0,B|99:240,2,45,6|0|8
216,336,21444,1,6
216,336,21668,5,8
304,312,21892,2,0,B|360:288,2,45,2|0|8
304,224,22340,2,0,B|368:256,2,45,2|0|12
336,136,22788,1,2
336,136,22900,1,0
336,136,23012,2,4,B|392:248,1,90,12|0
424,144,23459,5,12
368,72,23683,2,0,B|320:16,2,45,2|0|8
320,152,24131,2,0,B|360:104,2,45,2|0|8
360,232,24579,2,0,B|328:192,2,45,6|0|8
288,288,25027,1,6
288,288,25251,5,8
200,264,25475,2,0,B|176:224,2,45,2|0|8
248,192,25922,2,0,B|200:192,2,45,2|0|12
248,104,26370,1,2
248,104,26482,1,0
248,104,26594,2,4,B|152:176,1,90,12|0
128,232,27042,5,4
304,264,27490,1,8
408,120,27937,1,0
400,208,28161,2,0,B|360:304,1,90,0|8
240,160,28833,2,0,B|280:64,2,90,0|0|8
248,248,29505,1,0
248,248,29617,1,0
248,248,29729,2,0,B|208:344,2,90,0|0|12
336,88,30624,5,4
160,112,31072,1,8
184,288,31520,1,0
104,248,31744,2,0,B|72:152,1,90,0|8
248,200,32415,2,0,B|280:296,2,90,0|0|8
176,144,33087,1,0
176,144,33199,1,0
176,144,33311,2,0,B|144:48,1,90
96,136,33759,2,0,B|128:232,1,90,12|4
156,308,34207,5,6
336,256,34654,1,8
304,168,34878,1,0
376,112,35102,2,0,B|424:104|424:104|472:128,2,90,0|0|8
216,192,35998,2,0,B|178:226|178:226|176:280,1,90,2|0
200,352,36446,2,0,B|152:360|152:360|104:336,2,90,8|0|0
264,296,37117,1,0
328,352,37341,1,12
392,184,37789,6,0,B|360:280,1,90,6|0
304,200,38237,1,8
168,80,38684,1,0
192,168,38908,1,0
256,104,39132,1,8
202,176,39356,1,0
202,176,39468,1,0
202,176,39580,2,0,B|178:224|178:224|178:272,2,90,2|8|8
264,256,40252,5,2
264,256,40364,1,0
264,256,40476,2,0,B|312:232|310:165,1,90,6|0
277,99,40923,2,0,B|280:151|315:192,1,90,2|0
392,152,41371,6,0,B|448:184|440:288|376:304,1,180,4|2
328,232,42043,1,2
280,304,42267,2,0,B|192:352|96:288,1,180,0|2
200,80,43162,6,0,B|192:192|88:232,1,180,4|2
56,152,43834,1,2
128,96,44058,2,0,B|184:168|168:272,1,180,0|2
392,80,44954,6,0,B|288:128|288:240,1,180,4|2
344,288,45625,1,2
432,264,45849,2,0,B|400:216|352:208,1,90,0|2
256,288,46297,2,0,B|304:288|328:232,1,90,0|2
224,216,46745,6,0,B|144:224|96:312,1,135,4|2
128,328,47193,2,0,B|144:264|64:192,1,135,4|2
80,160,47640,2,0,B|120:200|176:184,1,90,4|2
144,56,48088,2,0,B|144:104|176:144,1,90,4|2
248,240,48536,6,0,B|288:296|384:272|392:208,1,180,4|2
400,120,49208,1,2
400,32,49432,2,0,B|331:27|289:117|334:164,1,180,0|2
312,248,50103,1,2
256,320,50327,6,0,B|208:360|152:360,1,90,4|2
64,264,50775,2,0,B|104:296|152:296,1,90,4|2
248,192,51223,2,0,B|208:232|152:232,1,90,4|2
48,136,51671,2,0,B|80:184|136:184,1,90,4|2
256,120,52118,6,0,B|352:144|376:240,1,180,4|2
288,240,52790,1,2
272,328,53014,2,0,B|176:296|192:168,1,180,4|2
160,96,53686,1,2
80,144,53909,5,4
104,232,54133,2,0,B|80:272,2,45,2|0|2
184,280,54581,1,2
272,256,54805,1,0
352,296,55029,2,0,B|368:352,2,45,2|0|6
440,264,55477,1,2
456,64,55701,6,0,B|404:135,1,90,8|0
347,212,56148,2,0,B|314:257,1,45
344,216,56596,6,0,B|344:312|248:352,1,135,8|0
248,352,57044,2,0,B|192:336,3,45,2|0|0|0
168,328,57492,6,0,B|84:299,1,90,8|0
56,208,57940,2,0,B|98:222,1,45
152,48,58387,5,8
136,136,58611,1,0
224,104,58835,1,2
261,322,59283,6,0,B|281:236,1,90,8|0
304,144,59731,2,0,B|316:89,1,45
304,144,60179,6,0,B|248:208|160:176,1,135,8|0
160,144,60626,2,0,B|136:88,3,45,2|0|0|0
128,56,61074,6,0,B|215:45,1,90,8|0
280,104,61522,2,0,B|235:110,1,45
136,208,61970,5,8
102,291,62194,1,0
190,315,62418,1,2
224,231,62641,1,0
288,176,62865,6,0,B|348:240,1,90,12|0
411,311,63313,2,0,B|449:351,1,45,2|0
288,176,63761,6,0,B|240:128|160:112,1,135,12|0
144,152,64209,2,0,B|124:204,3,45,2|0|0|0
112,232,64657,6,0,B|78:313,1,90,12|0
168,296,65104,2,0,B|184:254,1,45,2|0
288,112,65552,5,12
360,56,65776,1,0
448,72,66000,1,6
264,224,66448,6,0,B|185:262,1,90,12|0
100,305,66896,2,0,B|50:328,1,45,2|0
264,224,67343,6,0,B|344:184|352:104,1,135,12|0
368,80,67791,2,0,B|336:32,3,45,2|0|0|0
432,80,68239,6,0,B|419:154|362:204,2,135,8|8|12
424,224,69135,2,0,B|400:304|328:336,2,135,12|8|12
280,168,70030,5,8
208,112,70253,1,0
208,112,70365,1,0
208,112,70477,2,0,B|104:112,1,90,8|0
48,168,70925,1,4
48,168,71149,1,8
48,168,71373,1,8
136,256,71597,5,0
136,256,71709,1,0
136,256,71821,2,0,B|184:256|184:256|224:288,1,90,4|0
376,256,72268,2,0,B|328:256|328:256|288:288,1,90,12|0
208,352,72716,1,4
304,352,72940,1,0
208,352,73164,5,4
256,272,73388,1,0
256,272,73500,1,0
256,272,73612,2,0,B|256:176,1,90,8|0
256,88,74060,1,4
256,88,74284,1,8
256,88,74507,1,8
392,48,74731,5,0
392,48,74843,1,0
392,48,74955,2,0,B|392:144,1,90,4|0
304,120,75403,2,0,B|304:222,1,90,12|0
256,288,75851,5,6
256,288,76075,1,2
256,288,76299,5,6
184,336,76523,1,0
184,336,76634,1,0
184,336,76746,2,0,B|128:320|120:272,1,90,2|0
88,192,77194,2,0,B|192:192,2,90,6|2|2
121,105,77866,1,0
121,105,77978,1,0
121,105,78090,2,0,B|128:56|184:48,1,90,6|0
331,48,78538,2,0,B|384:56|391:105,1,90,6|0
388,248,78985,2,0,B|380:300|328:304,1,90,6|0
182,305,79433,5,6
200,216,79656,1,0
200,216,79768,1,0
200,216,79880,2,0,B|256:216|288:256,1,90,2|0
280,144,80328,2,0,B|320:168|328:232,2,90,6|2|2
376,96,81000,1,0
376,96,81112,1,0
376,96,81224,2,0,B|392:144|376:200,1,90,6|0
208,176,81671,2,0,B|192:224|208:280,1,90,6|0
224,360,82119,1,6
224,360,82567,1,4
352,48,83015,6,0,B|408:80|408:168|352:200,1,180,4|2
272,152,83687,1,2
192,112,83910,2,0,B|136:144|136:232|192:264,1,180,0|2
432,272,84806,6,0,B|336:216|264:288,1,180,4|2
184,312,85478,1,2
104,272,85702,2,0,B|200:216|272:288,1,180,0|2
408,88,86597,6,0,B|384:192|288:208,1,180,4|2
232,136,87269,1,2
144,128,87493,2,0,B|136:180|180:208,1,90,0|2
88,240,87941,2,0,B|112:284|168:276,1,90,0|2
120,360,88388,6,0,B|192:360|240:296,1,135,4|2
248,256,88836,2,0,B|296:320|384:264,1,135,4|2
392,240,89284,2,0,B|432:268|480:248,1,90,4|2
344,176,89732,2,0,B|296:152|256:176,1,90,4|2
208,56,90180,6,0,B|112:80|112:200,1,180,4|2
176,256,90851,1,2
200,168,91075,2,0,B|272:184|288:264|256:320,1,180,0|2
176,336,91747,1,2
104,288,91971,6,0,B|176:208,1,90,4|2
208,64,92419,2,0,B|136:144,1,90,4|2
184,296,92866,2,0,B|256:216,1,90,4|2
416,160,93314,2,0,B|344:240,1,90,4|2
232,328,93762,6,0,B|164:302|165:233|98:208,1,180,4|2
48,280,94434,1,2
104,352,94658,2,0,B|171:326|170:257|237:232,1,180,4|2
312,280,95329,1,2
384,336,95553,5,4
448,276,95777,2,0,B|484:252,2,45,2|0|2
372,224,96225,1,2
428,152,96449,1,0
348,108,96673,2,0,B|360:52,2,45,2|0|6
268,144,97120,1,2
256,232,97344,5,12
144,64,98016,5,0
144,64,98240,2,0,B|160:104|232:104|256:64,1,135,0|0
364,152,99135,2,0,B|348:112|276:112|252:152,1,135,0|0
144,244,100031,2,0,B|160:284|232:284|256:244,1,135,0|0
296,184,100927,1,8
396,68,101598,5,0
396,68,101822,2,0,B|352:88|352:160|392:180,1,135
288,124,102718,2,0,B|332:144|332:216|292:236,1,135,0|0
236,280,103613,1,0
68,172,104061,5,0
104,112,104285,1,0
156,160,104509,2,0,B|208:160|232:100|292:100,1,135,8|0
364,204,105405,2,0,B|328:204|308:172|280:172,1,90
212,176,106076,1,0
148,204,106300,2,0,B|144:288|56:296,1,135,0|0
132,300,107196,2,0,B|172:332|240:332,1,90
288,328,107867,5,0
360,312,108091,2,0,B|340:284|372:248|356:220,1,90,8|0
300,104,108763,1,0
300,104,108987,2,0,B|286:127|318:163|298:191,1,90,0|0
272,260,109659,1,0
212,300,109883,1,8
256,192,110106,12,12,111674
184,96,111898,6,0,B|212:132,2,45,2|0|8
144,176,112345,2,0,B|188:184,2,45,2|0|8
144,268,112793,1,6
144,268,112905,1,0
144,268,113017,2,0,B|236:236,1,90,8|6
316,208,113465,5,8
400,176,113689,2,0,B|440:160,2,45,2|0|8
416,264,114137,1,2
416,264,114249,1,0
416,264,114360,2,0,B|330:293,1,90,12|2
264,232,114808,2,0,B|178:261,1,90,12|2
96,220,115256,5,12
68,136,115480,2,0,B|104:168,2,45,2|0|8
136,76,115928,2,0,B|144:120,2,45,2|0|8
228,84,116376,1,6
228,84,116488,1,0
228,84,116599,2,0,B|192:176,1,90,8|4
156,248,117047,5,8
124,332,117271,2,0,B|108:372,2,45,2|0|8
216,336,117719,1,2
216,336,117831,1,0
216,336,117943,2,0,B|252:244,1,90,12|2
392,136,118391,2,0,B|356:228,1,90,12|2
320,324,118838,5,14
