osu file format v9

[General]
AudioFilename: 12 - Aoi to Shiro no Kyoukaisen .mp3
AudioLeadIn: 0
PreviewTime: 49170
Countdown: 0
SampleSet: Soft
StackLeniency: 0.7
Mode: 0
LetterboxInBreaks: 0

[Editor]
Bookmarks: 20358,49758,68958,78558,88158,97758,121758
DistanceSpacing: 0
BeatDivisor: 2
GridSize: 8

[Metadata]
Title:Ao to Shiro no Kyoukaisen
Artist:Sound Horizon
Creator:Selee
Version:Hard
Source:Chonicle 2nd
Tags:1st story cd Sandpig Garven

[Difficulty]
HPDrainRate:5
CircleSize:4
OverallDifficulty:6
ApproachRate:7
SliderMultiplier:1.3
SliderTickRate:1

[Events]
//Background and Video events
0,0,"=w=2.jpg"
//Break Periods
//Storyboard Layer 0 (Background)
//Storyboard Layer 1 (Fail)
//Storyboard Layer 2 (Pass)
//Storyboard Layer 3 (Foreground)
//Storyboard Sound Samples
//Background Colour Transformations
3,100,163,162,255

[TimingPoints]
1768,600,4,2,2,40,1,0
6568,-133.333333333333,4,2,2,40,0,0
20358,-100,4,2,2,50,0,0
20968,-100,4,2,1,50,0,0
21118,-100,4,2,2,50,0,0
22768,-100,4,2,1,50,0,0
22918,-100,4,2,2,50,0,0
23368,-100,4,2,1,50,0,0
23518,-100,4,2,2,50,0,0
25168,-100,4,2,1,50,0,0
25318,-100,4,2,2,50,0,0
25768,-100,4,2,1,50,0,0
25918,-100,4,2,2,50,0,0
27568,-100,4,2,1,50,0,0
27718,-100,4,2,2,50,0,0
28168,-100,4,2,1,50,0,0
28318,-100,4,2,2,50,0,0
29968,-100,4,2,1,50,0,0
30118,-100,4,2,2,50,0,0
30568,-100,4,2,1,50,0,0
30718,-100,4,2,2,50,0,0
32368,-100,4,2,1,50,0,0
32518,-100,4,2,2,50,0,0
32968,-100,4,2,1,50,0,0
33118,-100,4,2,2,50,0,0
34768,-100,4,2,1,50,0,0
34918,-100,4,2,2,50,0,0
35368,-100,4,2,1,50,0,0
35518,-100,4,2,2,50,0,0
37168,-100,4,2,1,50,0,0
37318,-100,4,2,2,50,0,0
37768,-100,4,2,1,50,0,0
37918,-100,4,2,2,50,0,0
39568,-100,4,2,1,50,0,0
40318,-100,4,2,2,50,0,0
41368,-100,4,2,1,50,0,0
41518,-100,4,2,2,50,0,0
42568,-100,4,2,1,50,0,0
42718,-100,4,2,2,50,0,0
43768,-100,4,2,1,50,0,0
44068,-100,4,2,2,50,0,0
44968,-100,4,2,1,50,0,0
45568,-100,4,2,2,50,0,0
46168,-100,4,2,1,50,0,0
46768,-100,4,2,2,50,0,0
46918,-100,4,2,1,50,0,0
48558,-100,4,2,2,50,0,0
49758,-66.6666666666667,4,2,0,50,0,0
68968,-66.6666666666667,4,2,1,50,0,0
70768,-66.6666666666667,4,2,2,50,0,0
70918,-66.6666666666667,4,2,1,50,0,0
73168,-66.6666666666667,4,2,2,50,0,0
73768,-66.6666666666667,4,2,1,50,0,0
75268,-66.6666666666667,4,2,2,50,0,0
77658,-133.333333333333,4,2,1,50,0,0
78568,-100,4,2,1,50,0,0
78718,-100,4,2,2,50,0,0
79468,-100,4,2,1,50,0,0
79618,-100,4,2,2,50,0,0
80068,-100,4,2,1,50,0,0
80218,-100,4,2,2,50,0,0
80668,-100,4,2,1,50,0,0
81118,-100,4,2,2,50,0,0
81868,-100,4,2,1,50,0,0
82018,-100,4,2,2,50,0,0
82468,-100,4,2,1,50,0,0
82618,-100,4,2,2,50,0,0
83068,-100,4,2,1,50,0,0
83518,-100,4,2,2,50,0,0
84268,-100,4,2,1,50,0,0
84418,-100,4,2,2,50,0,0
84868,-100,4,2,1,50,0,0
85018,-100,4,2,2,50,0,0
85468,-100,4,2,1,50,0,0
85618,-100,4,2,2,50,0,0
86668,-100,4,2,1,50,0,0
86818,-100,4,2,2,50,0,0
97168,-100,4,2,1,50,0,0
97768,-66.6666666666667,4,1,1,60,0,1
107368,-66.6666666666667,4,2,0,60,0,1
107668,-66.6666666666667,4,1,1,60,0,1
116368,-66.6666666666667,4,2,0,60,0,1
116668,-66.6666666666667,4,1,1,60,0,1
121168,-66.6666666666667,4,1,1,55,0,1
121318,-66.6666666666667,4,1,1,50,0,1
121468,-66.6666666666667,4,1,1,45,0,1
121618,-66.6666666666667,4,1,1,40,0,1
121758,-66.6666666666667,4,1,1,70,0,0

[Colours]
Combo1 : 193,255,206
Combo2 : 220,155,255
Combo3 : 200,204,255
Combo4 : 179,248,255

[HitObjects]
61,65,8368,1,0
119,90,8668,1,0
159,140,8968,1,4
182,200,9268,1,0
225,247,9568,1,2
282,275,9868,1,8
469,50,10468,1,0
406,69,10768,1,2
361,117,11068,1,0
465,159,11368,5,4
423,207,11668,1,0
393,264,11968,1,4
378,326,12268,1,8
142,321,12868,2,0,B|99:321|81:336,2,48.7499985471368
206,316,13768,5,4
267,298,14068,1,0
321,263,14368,1,2
366,217,14668,1,8
443,44,15268,1,0
384,70,15568,1,8
321,55,15868,1,0
222,97,16168,5,4
173,139,16468,1,0
113,162,16768,1,4
48,160,17068,1,8
77,67,17668,2,0,B|68:40|36:23,2,48.7499985471368
104,124,18568,5,4
169,137,18868,1,0
169,137,19168,1,2
231,139,19468,1,0
255,197,19768,1,4
207,349,20368,6,0,B|166:341|142:315,1,65,4|0
101,277,20968,1,8
54,88,21568,2,0,B|92:104|120:140,1,65,4|0
212,204,22468,1,4
244,204,22618,1,0
280,204,22768,2,0,B|374:203,1,65,8|0
346,80,23368,6,0,B|372:123|442:142,1,97.5,2|0
423,136,23968,2,0,B|412:216,1,65,8|0
229,279,24868,1,0
213,307,25018,1,0
188,331,25168,1,4
127,353,25468,1,0
1,309,25768,6,0,B|24:279|42:234,1,65,2|0
65,196,26368,1,4
62,131,26668,2,0,B|96:80|182:64,1,130,0|4
232,72,27568,1,4
288,104,27868,1,0
428,42,28168,6,0,B|428:100|396:159,1,97.5,8|0
407,136,28768,1,8
368,188,29068,1,0
173,215,29668,1,0
194,240,29818,1,0
216,264,29968,2,0,B|243:299|259:337,1,65,8|0
251,318,30568,5,8
128,342,31168,1,0
83,294,31468,2,0,B|40:251|9:171,1,130,2|4
4,120,32368,1,8
60,48,32668,1,0
84,63,32818,1,0
112,75,32968,6,0,B|146:95|190:96,1,65,8|0
195,183,33568,2,0,B|157:217|158:258,1,65,8|0
256,324,34468,1,0
256,324,34618,1,0
256,324,34768,1,4
308,288,35068,1,0
308,224,35368,6,0,B|368:224|448:268,1,130,2|4
472,208,36268,2,0,B|416:180|371:125,1,130
372,126,37018,1,0
372,126,37168,1,2
332,76,37468,1,0
192,56,37768,6,0,B|148:116|49:108,1,130,8|8
28,150,38668,2,0,B|66:190|93:280,1,130
133,310,39568,1,4
186,273,39868,1,8
212,130,40168,6,8,B|296:96,1,65,8|0
384,144,40768,2,0,B|312:176,1,65,8|0
427,231,41368,2,0,B|461:290,1,65,8|0
392,365,41968,2,0,B|351:289,1,65,8|0
241,350,42568,6,0,B|153:350,1,65,2|0
67,280,43168,2,0,B|152:280,1,65,8|0
233,222,43768,1,2
338,170,44068,2,0,B|411:170,1,65,0|8
462,70,44668,1,4
347,47,44968,6,0,B|324:76|285:91,3,65,4|0|8|0
231,97,46168,2,0,B|184:107|158:150,3,65,4|0|8|0
129,191,47368,5,8
383,191,47968,1,8
169,336,48568,6,0,B|192:305|192:264,1,65,4|8
320,275,49168,2,0,B|320:305|342:335,1,65,4|8
418,274,49768,6,0,B|350:198|341:79,1,194.999994188547,2|8
448,119,50668,2,0,B|381:204|274:208,1,194.999994188547
175,195,51568,1,8
115,105,51868,1,0
115,105,52018,1,0
115,105,52168,6,0,B|70:152|63:220,1,97.4999970942737,2|0
129,277,52768,1,8
129,277,53068,2,0,B|177:202|272:138,1,194.999994188547
381,138,53968,1,8
481,189,54268,1,0
489,301,54568,6,0,B|373:300|264:372,1,194.999994188547,2|8
238,231,55468,2,0,B|146:279|42:294,1,194.999994188547,2|2
3,183,56368,1,8
79,91,56668,1,2
124,72,56818,1,0
169,54,56968,6,0,B|256:26|366:34,1,194.999994188547,2|8
487,157,57868,2,0,B|408:237|386:324,1,194.999994188547
327,220,58768,1,8
234,140,59068,1,0
111,98,59368,5,2
16,343,59968,1,8
129,313,60268,2,0,B|214:270|286:188,1,194.999994188547,0|2
352,104,61168,1,8
375,288,61468,1,2
396,277,61618,1,0
414,260,61768,6,0,B|455:178|467:40,1,194.999994188547,2|8
366,143,62668,2,0,B|318:219|196:302,1,194.999994188547,2|2
130,317,63568,1,8
60,250,63868,1,0
60,250,64018,1,0
60,250,64168,5,2
171,90,64768,1,8
263,58,65068,2,0,B|369:63|457:105,1,194.999994188547,2|0
493,190,65968,1,8
440,272,66268,1,2
393,256,66418,1,0
348,276,66568,6,0,B|273:338|117:311,1,194.999994188547,2|8
64,274,67468,1,2
76,51,68068,5,2
84,57,68218,1,0
92,62,68368,1,8
100,66,68518,1,2
108,70,68668,1,0
116,73,68818,1,0
124,77,68968,6,0,B|230:117|356:103,1,194.999994188547,8|2
471,36,69868,2,0,B|401:103|457:252,1,194.999994188547,4|4
481,320,70768,1,8
375,302,71068,5,4
329,283,71218,1,0
282,267,71368,2,0,B|193:234|77:241,1,194.999994188547,8|2
90,240,72268,1,4
287,120,72868,5,4
339,108,73018,1,0
381,74,73168,1,8
472,178,73468,1,8
444,303,73768,2,0,B|361:266|252:239,1,194.999994188547,8|4
151,224,74668,1,4
385,84,75268,5,0
381,93,75418,1,0
378,102,75568,1,8
375,111,75718,1,8
372,120,75868,1,0
369,129,76018,1,0
365,138,76168,6,0,B|350:192|279:238,1,97.4999970942737,4|4
135,181,76768,2,0,B|82:220|72:274,1,97.4999970942737,4|8
320,327,77668,6,0,B|340:351|376:360,2,48.7499985471368,4|2|8
268,286,78568,5,8
194,312,78868,1,0
163,323,79018,1,0
130,338,79168,1,8
52,319,79468,1,4
65,289,79618,1,0
78,259,79768,1,0
51,179,80068,1,4
55,146,80218,1,0
61,114,80368,2,0,B|72:43,1,65,8|4
168,42,80968,5,8
229,63,81268,1,0
258,75,81418,1,0
288,87,81568,1,8
288,151,81868,1,4
259,166,82018,1,0
230,181,82168,1,0
230,246,82468,1,4
258,260,82618,1,0
286,274,82768,2,0,B|343:308,1,65,8|4
434,343,83368,5,2
458,282,83668,2,0,B|490:282,2,32.5,0|0|8
429,223,84268,2,0,B|396:223,2,32.5,4|0|0
459,165,84868,2,0,B|491:164,2,32.5,4|0|8
424,109,85468,2,0,B|359:109,1,65,4|0
299,83,86068,6,0,B|300:46,2,32.5,0|0|8
245,120,86668,2,0,B|245:152,2,32.5,8|0|0
190,84,87268,2,0,B|191:53,2,32.5,0|0|8
134,118,87868,1,8
66,188,88168,5,2
101,250,88468,1,8
133,249,88618,1,8
165,249,88768,1,4
218,290,89068,1,4
250,290,89218,1,4
282,290,89368,1,8
314,290,89518,1,4
362,338,89818,1,8
394,338,89968,1,4
457,304,90268,5,8
465,274,90418,1,8
455,242,90568,1,2
383,240,90868,1,8
368,210,91018,1,8
383,180,91168,1,2
454,179,91468,1,8
471,151,91618,1,8
455,122,91768,1,2
473,94,91918,1,4
456,66,92068,1,8
478,43,92218,1,8
456,18,92368,1,2
387,38,92668,5,8
369,69,92818,1,8
339,89,92968,1,2
270,108,93268,1,8
236,121,93418,1,8
210,146,93568,1,4
151,186,93868,1,8
139,219,94018,1,8
109,239,94168,2,0,B|75:262,1,32.5,2|4
138,302,94618,2,0,B|149:340,1,32.5,2|12
233,323,95068,5,8
265,323,95218,1,8
297,322,95368,1,2
333,244,95668,1,8
375,244,95818,1,8
418,244,95968,1,4
472,165,96268,1,8
419,164,96418,1,8
368,164,96568,1,4
270,164,96868,6,0,B|244:164,4,16.25,0|0|0|0|4
270,164,97468,1,0
182,86,97768,2,0,B|124:99|90:170,1,97.4999970942737,2|8
49,260,98368,1,2
163,314,98668,2,0,B|190:272|241:240,1,97.4999970942737,8|2
276,284,99118,2,0,B|303:237|356:214,1,97.4999970942737,0|0
394,251,99568,2,0,B|433:226|464:175,1,97.4999970942737,2|10
375,52,100168,5,2
265,92,100468,1,8
148,99,100768,1,2
315,176,101068,2,0,B|272:200,1,48.7499985471368,10|0
439,219,101518,1,0
388,248,101668,1,2
349,291,101818,1,0
316,339,101968,1,2
316,339,102268,1,8
245,263,102568,6,0,B|192:268|145:247,1,97.4999970942737,2|8
49,187,103168,1,2
106,85,103468,2,0,B|134:152,1,48.7499985471368,10|0
242,135,103918,1,0
242,135,104068,2,0,B|271:212,1,48.7499985471368,2|0
279,235,104368,2,0,B|324:359,1,97.4999970942737,2|8
478,296,104968,6,0,B|460:248|396:209,1,97.4999970942737,2|8
454,105,105568,2,0,B|415:135|364:139,1,97.4999970942737,2|2
305,143,106018,1,8
188,136,106318,1,0
130,125,106468,1,10
72,112,106618,1,0
22,80,106768,1,2
36,136,106918,1,2
37,194,107068,1,8
27,251,107218,1,0
70,229,107368,6,0,B|117:208|185:207,2,97.4999970942737,4|8|2
13,352,108268,1,8
13,352,108418,2,0,B|60:356|133:331,1,97.4999970942737,2|2
166,324,108868,1,2
220,303,109018,1,0
269,271,109168,2,0,B|303:252|326:194,1,97.4999970942737,2|8
308,60,109768,5,2
162,41,110068,1,8
36,115,110368,1,2
181,130,110668,2,0,B|201:189,1,48.7499985471368,8|2
312,192,111118,1,0
276,238,111268,1,2
228,272,111418,1,2
171,287,111568,2,0,B|105:288|59:342,1,97.4999970942737,2|8
30,143,112168,5,2
143,116,112468,2,0,B|128:92|96:79,2,48.7499985471368,8|0|2
230,198,113068,1,8
230,198,113218,1,2
275,84,113518,1,2
275,84,113668,1,0
275,84,113818,1,0
275,84,113968,2,0,B|331:96|400:143,1,97.4999970942737,2|8
296,239,114568,6,0,B|321:264|340:335,1,97.4999970942737,2|8
451,354,115168,1,2
477,240,115468,1,8
492,183,115618,1,2
451,73,115918,1,2
429,127,116068,1,0
406,181,116218,1,2
377,231,116368,6,0,B|308:328|167:324,1,194.999994188547,4|2
100,285,117268,1,8
34,188,117568,2,0,B|7:146|-5:78,2,97.4999970942737,2|8|2
91,175,118318,2,0,B|136:141|168:76,1,97.4999970942737,2|2
204,132,118768,2,0,B|241:95|312:78,1,97.4999970942737,2|8
394,117,119368,5,2
488,192,119668,1,8
394,267,119968,1,2
307,192,120268,2,0,B|251:192,1,48.7499985471368,8|2
144,192,120718,5,8
136,192,120868,1,2
128,192,121018,1,2
120,192,121168,1,8
112,192,121318,1,8
104,192,121468,1,8
96,192,121618,1,8
88,192,121768,5,4
