osu file format v13

[General]
AudioFilename: CALEN - Blutz Wave.mp3
AudioLeadIn: 0
PreviewTime: 77398
Countdown: 0
SampleSet: Soft
StackLeniency: 0.7
Mode: 0
LetterboxInBreaks: 0
WidescreenStoryboard: 0

[Editor]
Bookmarks: 25090,52450,52913,64950,140725,153157,165884,216401
DistanceSpacing: 0.9
BeatDivisor: 4
GridSize: 4
TimelineZoom: 1

[Metadata]
Title:Blutz Wave
TitleUnicode:Blutz Wave
Artist:Sound Holic ft. CALEN
ArtistUnicode:Sound Holic ft. CALEN
Creator:-Kyra-
Version:Marathon
Source:Touhou
Tags:imaizumi kagerou double dealing character vocal trance verto
BeatmapID:446123
BeatmapSetID:186836

[Difficulty]
HPDrainRate:7
CircleSize:4
OverallDifficulty:7
ApproachRate:8
SliderMultiplier:1.6
SliderTickRate:1

[Events]
//Background and Video events
0,0,"izumisanxd.png",0,0
//Break Periods
2,118966,120976
2,285545,288345
2,291071,293081
//Storyboard Layer 0 (Background)
//Storyboard Layer 1 (Fail)
//Storyboard Layer 2 (Pass)
//Storyboard Layer 3 (Foreground)
//Storyboard Sound Samples
//Background Colour Transformations
3,100,163,162,255

[TimingPoints]
148,394.736842105263,4,1,0,60,1,0
148,-200,4,2,0,60,0,0
25213,-100,4,1,0,60,0,0
25481,-100,4,1,0,60,0,0
37967,-100,4,2,0,60,0,0
52263,-100,4,3,0,60,0,0
64876,-100,4,1,0,60,0,0
78026,-100,4,2,0,60,0,0
89643,-100,4,1,0,45,0,0
90014,-100,4,1,0,60,0,0
90172,-100,4,1,0,60,0,1
115336,-100,4,1,0,60,0,0
127976,-66.6666666666667,4,1,0,60,0,0
128366,-100,4,1,0,60,0,0
140564,-100,4,3,0,60,0,0
152751,-100,4,3,0,60,0,0
153171,-100,4,1,0,60,0,0
165933,-100,4,2,0,60,0,0
178533,-200,4,2,0,60,0,0
203835,-200,4,2,0,60,0,0
216393,-200,4,2,0,45,0,0
228964,-100,4,2,0,45,0,0
232327,-100,4,1,0,60,0,1
244027,-100,4,1,0,60,0,0
244821,-100,4,1,0,60,0,1
255294,-100,4,1,0,60,0,0
259127,-100,4,1,0,60,0,1
280456,-100,4,1,0,60,0,0

[HitObjects]
84,44,148,6,0,L|128:120,2,80,0|0|0,0:0|0:0|0:0,0:0:0:0:
176,184,1134,1,0,0:0:0:0:
288,192,1332,1,0,0:0:0:0:
228,272,1529,1,0,0:0:0:0:
172,304,1726,2,0,P|132:332|92:336,2,80,0|0|0,0:0|0:0|0:0,0:0:0:0:
128,252,2713,1,0,0:0:0:0:
116,232,2911,1,0,0:0:0:0:
92,168,3108,2,0,L|116:124,2,40,0|0|0,0:0|0:0|0:0,0:0:0:0:
128,116,3700,2,0,L|168:88,2,40,0|0|0,0:0|0:0|0:0,0:0:0:0:
200,76,4292,2,0,L|256:76,2,40,0|0|0,0:0|0:0|0:0,0:0:0:0:
300,108,4884,1,0,0:0:0:0:
320,136,5081,1,0,0:0:0:0:
336,184,5279,2,0,L|276:252,2,80,0|0|0,0:0|0:0|0:0,0:0:0:0:
136,96,6266,5,0,0:0:0:0:
83,196,6463,1,0,0:0:0:0:
242,190,6661,1,0,0:0:0:0:
176,280,6858,2,0,L|129:302,2,40,0|0|0,0:0|0:0|0:0,0:0:0:0:
110,273,7450,2,0,L|58:263,2,40,0|0|0,0:0|0:0|0:0,0:0:0:0:
143,223,8042,2,0,L|187:205,2,40,0|0|0,0:0|0:0|0:0,0:0:0:0:
85,165,8634,1,0,0:0:0:0:
132,109,8832,1,0,0:0:0:0:
186,107,9029,2,0,L|230:108,2,40,0|0|0,0:0|0:0|0:0,0:0:0:0:
347,158,9621,2,2,P|361:199|216:252,1,240
183,174,11003,1,0,0:0:0:0:
79,160,11200,2,2,P|96:81|237:79,1,240
368,96,12779,1,0,0:0:0:0:
280,124,12976,1,0,0:0:0:0:
320,236,13173,1,0,0:0:0:0:
240,232,13371,1,0,0:0:0:0:
184,156,13568,1,0,0:0:0:0:
112,64,13766,2,0,L|64:88,2,40,0|0|0,0:0|0:0|0:0,0:0:0:0:
76,188,14358,2,0,L|120:216,2,40,0|0|0,0:0|0:0|0:0,0:0:0:0:
140,308,14950,2,0,L|104:328,2,40,0|0|0,0:0|0:0|0:0,0:0:0:0:
124,224,15542,1,2,0:0:0:0:
220,40,15739,1,2,0:0:0:0:
340,92,15937,2,0,L|316:144,1,40
400,196,16332,2,0,L|360:236,1,40
396,296,16726,2,0,L|356:308,1,40,0|0,0:0|0:0,0:0:0:0:
284,340,17121,2,0,L|260:296,2,40,0|0|0,0:0|0:0|0:0,0:0:0:0:
180,216,17713,1,0,0:0:0:0:
256,56,17911,1,0,0:0:0:0:
320,212,18108,1,0,0:0:0:0:
128,88,18306,1,0,0:0:0:0:
128,88,18404,1,0,0:0:0:0:
128,88,18503,1,0,0:0:0:0:
68,176,18700,2,0,P|56:208|72:252,2,80,0|0|0,0:0|0:0|0:0,0:0:0:0:
164,208,19687,1,0,0:0:0:0:
164,208,19884,1,0,0:0:0:0:
256,176,20279,2,0,P|268:232|256:256,2,80,0|0|0,0:0|0:0|0:0,0:0:0:0:
120,100,21266,1,0,0:0:0:0:
120,100,21463,1,0,0:0:0:0:
84,188,21858,2,0,L|104:236,2,40,0|0|0,0:0|0:0|0:0,0:0:0:0:
144,304,22450,2,0,P|232:332|328:272,1,200,0|0,0:0|0:0,0:0:0:0:
272,164,23634,1,0,0:0:0:0:
272,164,23733,1,0,0:0:0:0:
184,72,23832,2,0,P|120:72|104:96,1,80,0|0,0:0|0:0,0:0:0:0:
160,184,24621,2,0,L|80:200,1,80
133,91,25411,6,0,L|225:91,1,80
123,190,25805,2,0,L|19:222,1,80
93,322,26200,6,0,L|185:322,1,80
325,286,26595,2,0,L|361:206,1,80
353,89,26990,2,0,L|265:81,1,80
195,154,27384,2,0,L|267:230,1,80
332,320,27779,2,0,L|404:268,1,80
344,188,28174,2,0,L|252:140,1,80,0|0,0:0|0:0,0:0:0:0:
172,204,28569,5,0,0:0:0:0:
172,204,28766,1,0,0:0:0:0:
116,312,28963,1,0,0:0:0:0:
249,347,29161,1,0,0:0:0:0:
381,312,29358,1,0,0:0:0:0:
458,197,29555,1,0,0:0:0:0:
431,59,29753,1,0,0:0:0:0:
299,21,29950,1,0,0:0:0:0:
161,37,30147,2,0,L|189:125,1,80
302,277,30542,2,0,L|264:206,2,80
176,296,31134,2,0,L|145:222,1,80
69,198,31529,1,0,0:0:0:0:
64,288,31726,6,0,L|160:232,1,80
448,288,32121,6,0,L|352:232,1,80
216,248,32516,2,0,L|172:156,1,80
332,344,32911,2,0,L|292:256,1,80
256,84,33305,2,0,L|152:104,1,80
132,216,33700,2,0,L|24:244,1,80
336,112,34095,6,0,L|424:128,1,80
380,244,34490,2,0,L|416:332,1,80
252,296,34884,1,0,0:0:0:0:
176,336,35082,1,0,0:0:0:0:
132,216,35279,1,0,0:0:0:0:
200,136,35476,1,0,0:0:0:0:
164,16,35674,1,0,0:0:0:0:
24,140,35871,1,0,0:0:0:0:
80,312,36069,6,0,L|180:336,1,80
288,180,36463,2,0,L|248:280,3,80
192,264,37253,1,0,0:0:0:0:
160,256,37351,1,0,0:0:0:0:
132,224,37450,1,0,0:0:0:0:
128,188,37549,1,0,0:0:0:0:
136,152,37647,1,0,0:0:0:0:
152,120,37746,1,0,0:0:0:0:
180,96,37845,1,0,0:0:0:0:
208,80,37944,1,0,0:0:0:0:
380,68,38042,6,0,L|328:112,2,40,0|0|0,0:0|0:0|0:0,0:0:0:0:
288,176,38437,2,0,L|320:208,2,40,0|0|0,0:0|0:0|0:0,0:0:0:0:
376,300,38832,2,0,L|336:320,2,40,0|0|0,0:0|0:0|0:0,0:0:0:0:
144,304,39226,1,8,0:0:0:0:
144,304,39325,1,8,0:0:0:0:
144,304,39424,1,8,0:0:0:0:
104,88,39621,6,0,L|64:104,2,40,0|0|0,0:0|0:0|0:0,0:0:0:0:
252,120,40016,2,0,L|304:88,2,40,0|0|0,0:0|0:0|0:0,0:0:0:0:
148,204,40411,2,0,L|144:248,2,40,0|0|0,0:0|0:0|0:0,0:0:0:0:
304,228,40805,1,8,0:0:0:0:
320,228,40904,1,8,0:0:0:0:
336,228,41003,1,8,0:0:0:0:
112,80,41200,5,0,0:0:0:0:
92,112,41299,1,0,0:0:0:0:
92,148,41397,1,0,0:0:0:0:
344,152,41595,1,0,0:0:0:0:
320,148,41694,1,0,0:0:0:0:
288,156,41792,1,0,0:0:0:0:
136,272,41990,1,0,0:0:0:0:
168,264,42088,1,0,0:0:0:0:
204,272,42187,1,0,0:0:0:0:
88,172,42384,2,8,L|64:124,2,40,0|0|0,0:0|0:0|0:0,0:0:0:0:
128,56,42779,5,0,0:0:0:0:
360,68,42976,1,0,0:0:0:0:
160,172,43174,1,0,0:0:0:0:
320,172,43371,1,0,0:0:0:0:
168,264,43569,2,0,P|160:320|188:344,2,80,0|0|0,0:0|0:0|0:0,0:0:0:0:
100,300,44358,5,0,0:0:0:0:
304,188,44555,1,0,0:0:0:0:
104,184,44753,1,0,0:0:0:0:
72,80,45147,6,0,L|124:92,1,40
220,160,45444,2,0,L|148:180,1,40
304,188,45937,5,0,0:0:0:0:
168,292,46134,1,0,0:0:0:0:
340,312,46332,1,0,0:0:0:0:
168,184,46726,6,0,L|104:168,1,40
236,256,47022,2,0,L|280:236,1,40
108,180,47516,5,0,0:0:0:0:
216,56,47713,1,0,0:0:0:0:
108,180,47911,1,0,0:0:0:0:
212,296,48305,5,0,0:0:0:0:
356,124,48503,1,0,0:0:0:0:
256,308,48700,1,0,0:0:0:0:
80,108,49095,5,0,0:0:0:0:
80,108,49292,1,0,0:0:0:0:
128,268,49490,1,0,0:0:0:0:
176,112,49687,6,0,L|200:164,1,40
300,196,49983,2,0,L|264:228,1,40
208,312,50279,2,0,L|232:352,2,40
100,96,52055,1,0,0:0:0:0:
100,176,52253,2,0,L|264:284,1,160,0|0,0:0|0:0,0:0:0:0:
144,300,52845,2,0,L|56:344,2,80,0|0|0,0:0|0:0|0:0,0:0:0:0:
328,200,53437,1,0,0:0:0:0:
248,340,53634,1,0,0:0:0:0:
388,8,53832,1,0,0:0:0:0:
256,64,54029,1,0,0:0:0:0:
400,132,54226,1,0,0:0:0:0:
320,224,54424,2,0,L|300:312,2,80
320,224,55016,1,0,0:0:0:0:
240,220,55213,6,0,L|136:244,1,80
152,136,55608,2,0,L|144:52,1,80
128,104,56003,5,0,0:0:0:0:
48,204,56200,1,0,0:0:0:0:
124,288,56397,1,0,0:0:0:0:
232,304,56595,1,0,0:0:0:0:
232,304,56694,1,0,0:0:0:0:
232,304,56792,1,0,0:0:0:0:
348,304,56990,1,0,0:0:0:0:
344,72,58470,6,0,L|288:64,1,40
248,140,58766,1,0,0:0:0:0:
72,228,58963,1,0,0:0:0:0:
88,72,59161,1,0,0:0:0:0:
72,228,59358,5,0,0:0:0:0:
140,320,59555,1,0,0:0:0:0:
256,340,59753,1,0,0:0:0:0:
320,268,59950,2,0,L|392:216,1,80
328,168,60345,2,0,L|248:140,1,80
356,328,60740,1,0,0:0:0:0:
356,328,60838,1,0,0:0:0:0:
356,328,60937,1,0,0:0:0:0:
356,328,61036,1,0,0:0:0:0:
136,128,61134,1,0,0:0:0:0:
196,40,61332,1,0,0:0:0:0:
300,44,61529,1,0,0:0:0:0:
384,104,61726,2,0,L|436:168,1,80
368,244,63305,5,4,0:0:0:0:
352,272,63404,1,4,0:0:0:0:
324,296,63503,1,4,0:0:0:0:
160,100,63897,1,4,0:0:0:0:
100,220,64292,1,4,0:0:0:0:
48,76,64884,6,0,L|100:168,1,80
36,232,65279,2,0,L|136:192,1,80
148,272,65674,2,0,L|108:344,1,80
236,288,66069,2,0,L|304:228,1,80
360,184,66463,1,0,0:0:0:0:
376,84,66661,1,0,0:0:0:0:
276,44,66858,1,0,0:0:0:0:
172,48,67055,1,0,0:0:0:0:
68,88,67253,1,0,0:0:0:0:
40,200,67450,1,0,0:0:0:0:
68,88,67647,5,0,0:0:0:0:
152,272,67845,1,0,0:0:0:0:
120,76,68042,1,0,0:0:0:0:
200,260,68240,1,0,0:0:0:0:
172,108,68437,6,0,L|236:164,1,80
320,292,68832,2,0,L|252:200,1,80
120,264,69226,2,0,L|208:204,1,80
360,116,69621,2,0,L|272:176,2,80
280,88,70213,1,0,0:0:0:0:
248,80,70312,1,0,0:0:0:0:
208,88,70411,1,0,0:0:0:0:
176,108,70509,1,0,0:0:0:0:
148,132,70608,1,0,0:0:0:0:
128,156,70707,1,0,0:0:0:0:
104,248,71003,5,0,0:0:0:0:
104,248,71200,2,0,L|144:336,1,80
260,352,71595,2,0,L|288:260,1,80
400,184,71990,2,0,P|356:148|300:140,1,80
168,140,72384,2,0,P|112:176|116:188,1,80
64,180,72779,5,0,0:0:0:0:
64,180,72976,1,0,0:0:0:0:
136,112,73174,1,0,0:0:0:0:
136,112,73371,1,0,0:0:0:0:
244,112,73569,1,0,0:0:0:0:
244,112,73766,1,0,0:0:0:0:
304,176,73963,2,0,B|264:292|264:292|152:260|152:260,1,240
256,192,74753,12,0,77121,0:0:0:0:
68,64,77516,5,0,0:0:0:0:
68,64,77713,6,0,L|104:148,1,80
104,256,78108,1,0,0:0:0:0:
122,291,78207,1,0,0:0:0:0:
152,317,78305,1,0,0:0:0:0:
189,332,78404,1,0,0:0:0:0:
229,334,78503,1,0,0:0:0:0:
266,321,78601,1,0,0:0:0:0:
298,297,78700,1,0,0:0:0:0:
344,244,78897,2,0,L|288:152,1,80
180,224,79292,2,0,L|200:136,1,80
260,48,79687,1,0,0:0:0:0:
220,50,79786,1,0,0:0:0:0:
182,63,79884,1,0,0:0:0:0:
149,85,79983,1,0,0:0:0:0:
123,116,80082,1,0,0:0:0:0:
106,152,80180,1,0,0:0:0:0:
100,191,80279,1,0,0:0:0:0:
36,280,80476,6,0,L|132:276,1,80
264,328,80871,2,0,L|160:340,2,80
336,264,81463,5,2,0:0:0:0:
360,240,81562,1,2,0:0:0:0:
380,212,81661,1,2,0:0:0:0:
384,176,81759,1,2,0:0:0:0:
376,140,81858,1,2,0:0:0:0:
356,108,81957,1,2,0:0:0:0:
324,88,82055,1,2,0:0:0:0:
292,76,82154,1,2,0:0:0:0:
212,80,82253,6,0,L|252:136,1,40
204,172,82549,2,0,L|156:216,1,40
96,176,82845,2,0,L|128:212,2,40
80,280,83240,5,0,0:0:0:0:
216,152,83437,1,0,0:0:0:0:
300,312,83634,1,0,0:0:0:0:
380,248,83832,6,0,P|404:200|408:168,1,80
300,60,84226,2,0,P|252:48|216:64,1,80
80,108,84621,2,0,P|48:148|56:184,1,80
80,272,85016,2,0,P|96:312|136:336,1,80
300,324,85411,2,0,P|356:304|376:256,2,80,0|0|0,0:0|0:0|0:0,0:0:0:0:
300,324,86003,1,0,0:0:0:0:
160,216,86200,5,0,0:0:0:0:
320,72,86397,1,0,0:0:0:0:
356,300,86595,1,0,0:0:0:0:
252,184,86792,1,8,0:0:0:0:
252,184,86891,1,8,0:0:0:0:
252,184,86990,1,8,0:0:0:0:
252,184,87088,1,8,0:0:0:0:
252,184,87187,1,8,0:0:0:0:
64,68,87582,1,0,0:0:0:0:
76,68,87680,1,0,0:0:0:0:
92,68,87779,1,0,0:0:0:0:
208,112,88371,1,0,0:0:0:0:
332,268,88569,1,0,0:0:0:0:
324,156,88865,1,0,0:0:0:0:
104,220,89161,1,0,0:0:0:0:
96,40,89358,2,0,L|184:104,1,80,0|0,0:0|0:0,0:0:0:0:
96,32,89753,2,0,L|96:156,1,120.000004577637
48,80,90147,6,0,L|120:152,1,80
48,296,90542,2,0,L|144:256,1,80
352,216,90937,2,0,L|240:216,2,80
344,104,91529,1,0,0:0:0:0:
128,216,91726,1,0,0:0:0:0:
292,88,91924,1,0,0:0:0:0:
188,228,92121,1,0,0:0:0:0:
232,72,92319,6,0,L|144:104,1,80
232,72,92713,2,0,L|264:156,1,80
188,228,93108,5,0,0:0:0:0:
268,228,93305,1,0,0:0:0:0:
272,104,93503,5,0,0:0:0:0:
196,104,93700,1,0,0:0:0:0:
116,88,93897,6,0,L|44:132,1,80
152,172,94292,2,0,L|80:224,1,80
220,240,94687,2,0,L|132:320,2,80
288,172,95279,1,0,0:0:0:0:
344,104,95476,1,0,0:0:0:0:
256,92,95674,5,0,0:0:0:0:
128,112,95871,1,0,0:0:0:0:
36,208,96069,6,0,L|104:272,1,80
180,280,96463,2,0,L|120:348,1,80
100,208,96858,2,0,L|48:136,1,80
244,216,97253,2,0,L|320:140,1,80
144,168,97647,5,0,0:0:0:0:
348,188,97845,1,0,0:0:0:0:
252,64,98042,1,0,0:0:0:0:
248,268,98240,1,0,0:0:0:0:
144,168,98437,6,0,L|72:260,1,80
94,231,98832,2,0,L|172:284,1,80
248,268,99226,5,0,0:0:0:0:
252,64,99424,1,0,0:0:0:0:
248,268,99621,1,0,0:0:0:0:
252,64,99819,1,0,0:0:0:0:
160,88,100016,6,0,L|96:128,1,40
176,192,100312,2,0,L|120:216,1,40
168,264,100608,2,0,L|156:312,1,40
56,296,100904,5,0,0:0:0:0:
40,264,101003,1,0,0:0:0:0:
32,228,101101,1,0,0:0:0:0:
36,192,101200,1,0,0:0:0:0:
52,164,101299,1,0,0:0:0:0:
76,136,101397,1,0,0:0:0:0:
112,124,101496,1,0,0:0:0:0:
144,128,101595,1,0,0:0:0:0:
176,144,101792,6,0,P|232:192|188:268,1,160
156,288,102384,1,0,0:0:0:0:
80,280,102582,5,0,0:0:0:0:
272,128,102779,1,0,0:0:0:0:
68,236,102976,1,0,0:0:0:0:
236,120,103174,1,0,0:0:0:0:
124,292,103371,5,0,0:0:0:0:
200,128,103569,1,0,0:0:0:0:
264,288,103766,1,0,0:0:0:0:
88,188,103963,1,0,0:0:0:0:
264,288,104161,6,0,P|320:316|372:304,1,80
124,292,104555,2,0,P|72:328|32:324,1,80
180,236,104950,5,0,0:0:0:0:
180,180,105147,1,0,0:0:0:0:
180,124,105345,1,0,0:0:0:0:
120,48,105542,2,0,P|68:80|48:112,1,80
240,44,105937,2,0,P|276:84|272:120,1,80
104,176,106332,5,0,0:0:0:0:
248,176,106529,1,0,0:0:0:0:
168,288,106726,1,0,0:0:0:0:
64,288,106924,5,0,0:0:0:0:
256,288,107121,1,0,0:0:0:0:
256,288,107319,2,0,P|320:256|312:172,1,160
216,160,107911,1,0,0:0:0:0:
176,156,108108,1,0,0:0:0:0:
160,128,108305,1,0,0:0:0:0:
56,128,108503,5,0,0:0:0:0:
56,160,108601,1,0,0:0:0:0:
56,192,108700,1,0,0:0:0:0:
56,228,108897,2,0,L|56:316,2,80
56,308,109490,1,0,0:0:0:0:
256,184,109687,1,0,0:0:0:0:
160,128,109884,2,0,P|128:164|128:208,2,80
124,194,110378,1,0,0:0:0:0:
124,194,110476,1,0,0:0:0:0:
124,194,110575,1,0,0:0:0:0:
184,256,110674,6,0,P|240:244|256:200,2,80
188,216,111266,1,0,0:0:0:0:
188,184,111365,1,0,0:0:0:0:
188,152,111463,1,0,0:0:0:0:
104,108,111661,2,0,P|160:64|264:136,1,200
256,192,112253,12,0,113634,0:0:0:0:
256,192,113832,12,0,115312,0:0:0:0:
80,88,115411,5,0,0:0:0:0:
80,88,115509,1,0,0:0:0:0:
80,88,115608,1,0,0:0:0:0:
80,208,115805,1,0,0:0:0:0:
80,208,115904,1,0,0:0:0:0:
80,208,116003,1,0,0:0:0:0:
244,156,116200,1,0,0:0:0:0:
244,156,116299,1,0,0:0:0:0:
244,156,116397,1,0,0:0:0:0:
216,296,116595,1,0,0:0:0:0:
216,296,116694,1,0,0:0:0:0:
216,296,116792,1,0,0:0:0:0:
352,248,116990,1,0,0:0:0:0:
352,248,117088,1,0,0:0:0:0:
352,248,117187,1,0,0:0:0:0:
352,96,117384,1,0,0:0:0:0:
352,96,117483,1,0,0:0:0:0:
352,96,117582,1,0,0:0:0:0:
188,96,117779,2,0,L|100:120,1,80,0|0,0:0|0:0,0:0:0:0:
164,208,118174,2,0,L|252:192,1,80,0|0,0:0|0:0,0:0:0:0:
192,304,118569,2,0,L|112:352,1,80
64,88,121726,6,0,L|144:60,1,80
196,220,122121,2,0,L|116:260,1,80
428,88,122516,2,0,L|340:64,1,80
332,208,122911,2,0,L|420:272,1,80
128,56,123305,1,0,0:0:0:0:
116,304,123503,1,0,0:0:0:0:
168,200,123700,1,0,0:0:0:0:
268,72,123897,2,0,L|332:72,3,40,0|0|0|0,0:0|0:0|0:0|0:0,0:0:0:0:
328,156,124490,1,8,0:0:0:0:
240,268,124687,1,8,0:0:0:0:
84,228,124884,2,0,P|64:168|248:144,1,320
264,136,125871,1,0,0:0:0:0:
264,136,126069,1,0,0:0:0:0:
120,72,126463,5,0,0:0:0:0:
108,84,126562,1,0,0:0:0:0:
96,92,126661,1,0,0:0:0:0:
84,100,126759,1,0,0:0:0:0:
68,108,126858,1,0,0:0:0:0:
52,116,126957,1,0,0:0:0:0:
36,120,127055,1,0,0:0:0:0:
20,124,127154,1,0,0:0:0:0:
8,128,127253,1,0,0:0:0:0:
80,212,127450,2,0,L|96:248,2,40,0|0|0,0:0|0:0|0:0,0:0:0:0:
212,76,127746,2,0,L|272:172,1,80,0|0,0:0|0:0,0:0:0:0:
216,76,128042,6,2,L|144:172,1,120
352,100,128437,1,0,0:0:0:0:
228,296,128634,1,0,0:0:0:0:
252,180,128832,1,0,0:0:0:0:
128,72,129226,2,0,L|176:120,1,40
104,132,129424,2,0,L|72:160,1,40
116,176,129621,2,0,L|140:216,1,40
92,212,129819,2,0,L|60:244,1,40,0|0,0:0|0:0,0:0:0:0:
44,332,130016,1,2,0:0:0:0:
172,336,130213,1,2,0:0:0:0:
44,332,130411,1,2,0:0:0:0:
288,296,130805,2,0,P|380:292|392:232,3,160,0|0|0|0,0:0|0:0|0:0|0:0,0:0:0:0:
384,160,132187,2,2,L|360:112,2,40,0|0|0,0:0|0:0|0:0,0:0:0:0:
336,100,132483,2,2,L|296:96,2,40,0|0|0,0:0|0:0|0:0,0:0:0:0:
256,96,132779,2,2,L|212:108,2,40,0|0|0,0:0|0:0|0:0,0:0:0:0:
88,136,133174,1,8,0:0:0:0:
280,336,133371,1,8,0:0:0:0:
80,332,133569,1,8,0:0:0:0:
356,172,133963,2,0,P|320:116|200:120,1,160
220,324,134753,2,0,P|120:304|92:224,1,160
180,144,135542,2,0,P|280:172|312:220,2,160,0|0|0,0:0|0:0|0:0,0:0:0:0:
128,320,136726,1,4,0:0:0:0:
92,68,137121,5,0,0:0:0:0:
264,256,137319,1,0,0:0:0:0:
240,112,137516,1,0,0:0:0:0:
144,248,137911,2,0,P|92:224|40:168,2,120,0|0|0,0:0|0:0|0:0,0:0:0:0:
240,112,138700,1,0,0:0:0:0:
336,152,139095,6,0,P|304:192|316:220,1,80
404,232,139490,2,0,P|420:264|400:304,1,80
336,328,139786,2,0,L|292:336,3,40,0|0|0|0,0:0|0:0|0:0|0:0,0:0:0:0:
252,336,140180,2,0,L|188:320,3,40,0|0|0|0,0:0|0:0|0:0|0:0,0:0:0:0:
104,96,140674,6,0,L|152:172,1,80
208,252,141069,2,0,L|144:320,1,80,0|0,0:0|0:0,0:0:0:0:
296,240,141463,1,0,0:0:0:0:
344,100,141661,1,0,0:0:0:0:
392,240,141858,1,0,0:0:0:0:
208,252,142055,2,0,P|160:248|112:152,1,160
204,60,142647,1,0,0:0:0:0:
252,192,143042,5,0,0:0:0:0:
196,308,143437,1,0,0:0:0:0:
92,252,143634,2,0,P|68:188|76:176,1,80
152,68,144029,2,0,L|200:56,1,40,0|0,0:0|0:0,0:0:0:0:
288,128,144325,2,0,P|324:168|316:240,1,120
204,304,144819,1,8,0:0:0:0:
188,304,145016,1,8,0:0:0:0:
172,304,145213,1,8,0:0:0:0:
68,64,146990,6,0,L|176:72,1,80
256,176,147384,2,0,L|144:172,1,80,0|0,0:0|0:0,0:0:0:0:
84,284,147779,2,0,L|164:288,1,80
163,287,148174,1,0,0:0:0:0:
416,72,148569,2,0,L|360:136,1,80
216,156,148963,2,0,L|268:224,1,80
176,296,149358,2,0,B|124:280|124:280|24:316|24:316,2,160,0|0|0,0:0|0:0|0:0,0:0:0:0:
24,315,150345,1,0,0:0:0:0:
24,315,150444,1,0,0:0:0:0:
24,315,150542,1,0,0:0:0:0:
24,315,150641,1,0,0:0:0:0:
60,28,150937,1,0,0:0:0:0:
404,260,151134,1,0,0:0:0:0:
168,164,151332,1,0,0:0:0:0:
308,56,151726,5,4,0:0:0:0:
328,60,151825,1,4,0:0:0:0:
344,68,151924,1,4,0:0:0:0:
280,320,152319,1,4,0:0:0:0:
60,152,152713,1,4,0:0:0:0:
160,100,152911,2,0,L|292:188,1,120.000004577637,0|0,0:0|0:0,0:0:0:0:
324,236,153305,5,0,0:0:0:0:
140,324,153503,1,0,0:0:0:0:
300,196,153700,1,0,0:0:0:0:
140,288,153897,1,0,0:0:0:0:
156,132,154095,2,0,P|120:184|80:192,1,80
216,116,154490,2,0,P|252:152|296:140,1,80,0|0,0:0|0:0,0:0:0:0:
136,248,154884,1,0,0:0:0:0:
292,248,155082,1,0,0:0:0:0:
136,264,155279,1,0,0:0:0:0:
292,264,155476,1,0,0:0:0:0:
120,340,155674,6,0,L|24:336,1,80
192,296,156069,2,0,L|272:240,1,80,0|0,0:0|0:0,0:0:0:0:
96,224,156463,2,0,L|32:176,1,80,0|0,0:0|0:0,0:0:0:0:
192,184,156858,2,0,L|240:112,1,80
72,80,157253,1,0,0:0:0:0:
72,80,157450,1,0,0:0:0:0:
192,80,157647,1,0,0:0:0:0:
192,80,157845,1,0,0:0:0:0:
276,132,157944,1,0,0:0:0:0:
288,144,158042,1,0,0:0:0:0:
300,156,158141,1,0,0:0:0:0:
312,168,158240,1,0,0:0:0:0:
324,180,158338,1,0,0:0:0:0:
280,248,158536,2,0,L|232:280,1,40,0|0,0:0|0:0,0:0:0:0:
224,200,158832,2,0,L|172:192,1,40,0|0,0:0|0:0,0:0:0:0:
248,136,159128,2,0,L|224:96,1,40,0|0,0:0|0:0,0:0:0:0:
248,136,159424,5,0,0:0:0:0:
120,120,159621,2,0,L|56:188,1,80,0|0,0:0|0:0,0:0:0:0:
352,120,160016,2,0,L|404:192,1,80
168,288,160411,1,0,0:0:0:0:
248,76,160608,1,0,0:0:0:0:
312,288,160805,1,0,0:0:0:0:
128,176,161003,1,0,0:0:0:0:
344,180,161200,1,0,0:0:0:0:
140,68,161595,2,0,B|68:148|68:148|128:196,1,160
316,228,162384,2,0,B|372:296|372:296|280:312,1,160
256,192,162976,12,0,165937,0:0:0:0:
112,92,166134,5,0,0:0:0:0:
112,88,166332,1,0,0:0:0:0:
96,184,166529,2,8,L|112:240,3,40,0|0|0|0,0:0|0:0|0:0|0:0,0:0:0:0:
116,248,166924,2,8,L|160:300,3,40,0|0|0|0,0:0|0:0|0:0|0:0,0:0:0:0:
172,300,167319,2,8,L|224:316,2,40,0|0|0,0:0|0:0|0:0,0:0:0:0:
360,252,167713,2,0,P|416:196|408:168,1,80
396,96,168108,2,0,P|348:48|316:48,1,80,0|0,0:0|0:0,0:0:0:0:
232,108,168503,5,0,0:0:0:0:
220,116,168601,1,0,0:0:0:0:
208,128,168700,1,0,0:0:0:0:
196,136,168799,1,0,0:0:0:0:
188,144,168897,1,0,0:0:0:0:
176,156,168996,1,0,0:0:0:0:
164,168,169095,1,0,0:0:0:0:
144,244,169292,2,0,P|164:300|216:320,2,80,0|0|0,0:0|0:0|0:0,0:0:0:0:
272,232,169884,1,0,0:0:0:0:
272,232,169983,1,0,0:0:0:0:
272,232,170082,1,0,0:0:0:0:
272,232,170180,1,0,0:0:0:0:
312,92,170279,2,0,L|224:52,1,80
140,96,170674,6,0,L|72:164,1,80
172,256,171069,1,0,0:0:0:0:
180,228,171167,1,0,0:0:0:0:
192,208,171266,1,0,0:0:0:0:
212,188,171365,1,0,0:0:0:0:
232,176,171463,1,0,0:0:0:0:
264,172,171562,1,0,0:0:0:0:
376,216,171858,2,0,B|400:252|400:252|460:120,2,160,0|0|0,0:0|0:0|0:0,0:0:0:0:
232,84,172845,1,0,0:0:0:0:
84,216,173042,1,0,0:0:0:0:
288,124,173240,1,0,0:0:0:0:
132,256,173437,1,0,0:0:0:0:
344,164,173634,1,0,0:0:0:0:
184,296,173832,5,0,0:0:0:0:
172,120,174029,2,0,L|68:120,1,80,0|0,0:0|0:0,0:0:0:0:
104,180,174424,2,0,L|4:180,1,80,0|0,0:0|0:0,0:0:0:0:
104,248,174819,2,0,L|200:248,2,80,0|0|0,0:0|0:0|0:0,0:0:0:0:
280,176,175411,5,4,0:0:0:0:
280,176,175509,1,4,0:0:0:0:
280,176,175608,1,4,0:0:0:0:
56,136,176200,1,4,0:0:0:0:
56,136,176299,1,4,0:0:0:0:
56,136,176397,1,4,0:0:0:0:
112,280,176990,1,0,0:0:0:0:
204,144,177187,1,0,0:0:0:0:
272,280,177384,1,0,0:0:0:0:
104,192,177582,1,0,0:0:0:0:
292,192,177779,1,0,0:0:0:0:
256,192,177976,12,0,178569,0:0:0:0:
188,76,178963,6,0,B|180:144|180:144|180:148|200:168|264:200|216:248|264:292|264:292|260:304,1,240.000009155274,0|0,0:0|0:0,0:0:0:0:
288,80,180147,6,0,B|287:80|287:80|296:144|228:150|256:216|259:244|256:247|256:247|192:261,1,240.000009155274,0|0,0:0|0:0,0:0:0:0:
224,152,181726,2,10,B|324:68|356:168|352:184|352:272|348:284|208:348|208:348|100:272|80:248|80:212|100:156|112:128|148:124|188:160,1,720.000027465821,0|0,0:0|0:0,0:0:0:0:
184,152,184490,1,0,0:0:0:0:
240,80,184884,2,0,P|288:56|360:68,1,120.000004577637
392,188,185674,2,0,P|328:184|264:200,1,120.000004577637,0|0,0:0|0:0,0:0:0:0:
252,316,186463,2,0,P|296:296|364:312,2,120.000004577637,0|0|0,0:0|0:0|0:0,0:0:0:0:
184,292,187647,5,0,0:0:0:0:
276,72,188042,1,0,0:0:0:0:
96,156,188437,1,0,0:0:0:0:
320,216,188832,1,0,0:0:0:0:
184,292,189226,1,0,0:0:0:0:
132,88,189621,1,0,0:0:0:0:
312,280,190016,1,0,0:0:0:0:
64,224,190411,1,0,0:0:0:0:
344,128,190805,1,0,0:0:0:0:
240,76,191200,6,0,P|156:64|120:84,1,120.000004577637
244,216,191990,2,0,P|312:208|372:228,1,120.000004577637,0|0,0:0|0:0,0:0:0:0:
176,296,192779,2,0,P|144:300|56:312,1,120.000004577637
336,296,193569,2,0,L|456:331,1,120.000004577637,0|0,0:0|0:0,0:0:0:0:
204,160,194358,2,0,P|168:128|92:104,1,120.000004577637
292,160,195147,2,0,P|336:120|408:108,1,120.000004577637
184,244,195740,1,8,0:0:0:0:
200,244,195937,1,8,0:0:0:0:
216,244,196134,1,8,0:0:0:0:
232,244,196332,1,8,0:0:0:0:
248,244,196529,1,8,0:0:0:0:
72,124,197516,6,0,B|128:76|148:104|152:120|180:92|180:92|224:128|224:128|272:88|272:88|296:144|296:144|348:104|348:104|388:148|392:156|456:104,2,480.000018310548,0|0|0,0:0|0:0|0:0,0:0:0:0:
108,208,201069,5,0,0:0:0:0:
368,320,201463,1,0,0:0:0:0:
200,256,201858,1,0,0:0:0:0:
200,148,202253,1,8,0:0:0:0:
200,148,202351,1,8,0:0:0:0:
200,148,202450,1,8,0:0:0:0:
356,72,202647,1,0,0:0:0:0:
56,324,203042,1,0,0:0:0:0:
68,84,203437,1,0,0:0:0:0:
264,112,203832,6,0,P|252:152|288:184,2,80,0|0|0,0:0|0:0|0:0,0:0:0:0:
160,204,205411,2,0,P|200:232|196:272,2,80,0|0|0,0:0|0:0|0:0,0:0:0:0:
280,184,206595,1,0,0:0:0:0:
388,64,206990,1,0,0:0:0:0:
408,208,207384,1,0,0:0:0:0:
336,264,207779,2,8,L|308:260,1,20,0|0,0:0|0:0,0:0:0:0:
336,264,208569,2,0,L|304:248,1,20
116,76,208963,1,0,0:0:0:0:
252,200,209358,1,0,0:0:0:0:
252,200,209753,1,0,0:0:0:0:
104,312,210147,2,0,L|96:272,1,40,0|0,0:0|0:0,0:0:0:0:
156,196,210937,2,8,L|188:176,2,20,0|0|0,0:0|0:0|0:0,0:0:0:0:
196,52,211332,1,0,0:0:0:0:
340,264,211726,1,0,0:0:0:0:
132,288,212121,1,0,0:0:0:0:
164,136,212319,2,0,P|128:144|112:152,1,40,0|0,0:0|0:0,0:0:0:0:
348,176,212911,2,0,P|324:144|312:144,1,40
216,232,213305,2,0,L|184:232,2,20,0|0|0,0:0|0:0|0:0,0:0:0:0:
216,232,214095,2,0,L|248:232,2,20,0|0|0,0:0|0:0|0:0,0:0:0:0:
256,192,214490,12,0,216266,0:0:0:0:
136,176,216463,5,8,0:0:0:0:
152,168,216858,1,8,0:0:0:0:
368,260,217253,1,8,0:0:0:0:
352,268,217647,1,8,0:0:0:0:
128,312,218042,1,8,0:0:0:0:
120,296,218437,1,8,0:0:0:0:
216,100,218832,5,8,0:0:0:0:
232,104,219226,1,8,0:0:0:0:
120,176,219621,2,0,L|152:200,1,40
208,264,220411,2,0,L|172:288,2,40,0|0|0,0:0|0:0|0:0,0:0:0:0:
84,88,221200,1,0,0:0:0:0:
160,196,221595,1,0,0:0:0:0:
204,84,221990,1,0,0:0:0:0:
276,188,222384,1,0,0:0:0:0:
316,80,222779,1,0,0:0:0:0:
220,52,223174,2,0,B|128:228|128:228|300:228|300:228|216:44,1,560,0|0,0:0|0:0,0:0:0:0:
84,32,226332,1,0,0:0:0:0:
228,212,226726,1,0,0:0:0:0:
16,284,227121,1,0,0:0:0:0:
220,92,227516,1,0,0:0:0:0:
24,152,227911,1,0,0:0:0:0:
24,152,228305,1,0,0:0:0:0:
144,252,228700,1,0,0:0:0:0:
252,316,229095,1,0,0:0:0:0:
272,316,229194,1,0,0:0:0:0:
296,316,229292,1,0,0:0:0:0:
320,312,229391,1,0,0:0:0:0:
320,312,229490,2,0,L|364:296,5,40,0|0|0|0|0|0,0:0|0:0|0:0|0:0|0:0|0:0,0:0:0:0:
380,280,230082,1,0,0:0:0:0:
396,264,230180,1,0,0:0:0:0:
408,244,230279,1,0,0:0:0:0:
416,220,230378,1,0,0:0:0:0:
420,200,230476,2,0,L|412:152,5,40,0|0|0|0|0|0,0:0|0:0|0:0|0:0|0:0|0:0,0:0:0:0:
400,136,231069,1,0,0:0:0:0:
384,124,231167,1,0,0:0:0:0:
364,116,231266,1,0,0:0:0:0:
344,112,231365,1,0,0:0:0:0:
324,108,231463,2,0,L|264:120,5,40,0|0|0|0|0|0,0:0|0:0|0:0|0:0|0:0|0:0,0:0:0:0:
260,132,232055,1,0,0:0:0:0:
236,148,232154,1,0,0:0:0:0:
88,52,232450,5,0,0:0:0:0:
224,204,232647,1,0,0:0:0:0:
60,232,232845,1,0,0:0:0:0:
208,84,233042,1,0,0:0:0:0:
376,120,233240,2,0,L|436:172,1,80
224,204,233634,2,0,L|140:160,1,80,0|0,0:0|0:0,0:0:0:0:
356,316,234029,2,0,L|264:328,1,82.3999993084717,0|0,0:0|0:0,0:0:0:0:
184,336,234424,1,0,0:0:0:0:
100,128,234621,1,0,0:0:0:0:
32,328,234819,1,0,0:0:0:0:
248,68,235016,5,0,0:0:0:0:
248,68,235213,1,0,0:0:0:0:
356,156,235411,2,0,L|252:200,1,82.3999993084717
432,224,235805,2,0,L|492:296,1,82.3999993084717
344,268,236200,1,0,0:0:0:0:
160,312,236397,1,0,0:0:0:0:
344,284,236595,1,0,0:0:0:0:
160,336,236792,1,0,0:0:0:0:
116,88,236990,2,2,P|108:136|164:232,2,164.799998616943,0|0|0,0:0|0:0|0:0,0:0:0:0:
256,192,238174,1,0,0:0:0:0:
272,180,238371,1,0,0:0:0:0:
172,92,238569,6,0,P|80:124|48:184,1,164.799998616943
168,260,239161,2,0,P|256:256|276:272,1,82.3999993084717,0|0,0:0|0:0,0:0:0:0:
396,56,239555,1,0,0:0:0:0:
260,192,239753,1,0,0:0:0:0:
320,56,239950,1,0,0:0:0:0:
408,212,240147,5,0,0:0:0:0:
192,120,240345,1,0,0:0:0:0:
360,128,240542,2,0,L|408:160,1,41.1999996542358
320,188,240740,2,0,L|276:228,1,41.1999996542358
368,224,240937,2,0,L|392:268,1,41.1999996542358
328,288,241134,2,0,L|276:308,1,41.1999996542358
368,324,241332,2,0,L|412:356,1,41.1999996542358,0|0,0:0|0:0,0:0:0:0:
220,216,241726,5,8,0:0:0:0:
212,224,241924,1,8,0:0:0:0:
204,232,242121,1,8,0:0:0:0:
56,160,242319,1,8,0:0:0:0:
64,172,242516,1,8,0:0:0:0:
72,184,242713,1,8,0:0:0:0:
104,320,242911,1,0,0:0:0:0:
116,320,243009,1,0,0:0:0:0:
132,320,243108,1,0,0:0:0:0:
144,320,243207,1,0,0:0:0:0:
160,312,243305,5,0,0:0:0:0:
168,304,243404,1,0,0:0:0:0:
176,292,243503,1,0,0:0:0:0:
176,276,243601,1,0,0:0:0:0:
168,264,243700,1,0,0:0:0:0:
156,256,243799,1,0,0:0:0:0:
136,248,243897,1,0,0:0:0:0:
116,248,243996,1,0,0:0:0:0:
116,56,244292,1,4,0:0:0:0:
356,224,244490,1,4,0:0:0:0:
120,248,244687,1,4,0:0:0:0:
420,92,244884,6,0,P|356:92|312:120,1,82.3999993084717
80,192,245279,2,0,P|160:176|168:176,1,82.3999993084717
356,296,245674,2,0,B|336:288|304:296|256:304,1,82.3999993084717,0|0,0:0|0:0,0:0:0:0:
144,40,246069,1,0,0:0:0:0:
80,192,246266,1,0,0:0:0:0:
208,200,246463,1,0,0:0:0:0:
40,96,246661,1,0,0:0:0:0:
252,116,246858,1,0,0:0:0:0:
168,264,247055,2,0,P|180:316|168:340,1,82.3999993084717
264,264,247450,2,0,P|250:302|263:340,2,82.3999993084717,0|0|0,0:0|0:0|0:0,0:0:0:0:
248,40,248042,5,0,0:0:0:0:
136,184,248240,1,0,0:0:0:0:
304,200,248437,1,0,0:0:0:0:
104,80,248634,1,0,0:0:0:0:
344,112,248832,1,0,0:0:0:0:
144,184,249029,2,0,P|72:224|60:244,1,82.3999993084717
184,232,249424,2,0,B|160:232|112:260|104:272,1,82.3999993084717
216,284,249819,2,0,P|152:312|136:320,2,82.3999993084717,0|0|0,0:0|0:0|0:0,0:0:0:0:
312,240,250411,1,0,0:0:0:0:
400,96,250608,1,0,0:0:0:0:
88,88,250805,2,0,L|184:96,1,82.3999993084717
160,176,251200,6,0,L|244:120,1,82.3999993084717
128,284,251595,2,0,L|80:208,1,82.3999993084717,0|0,0:0|0:0,0:0:0:0:
88,216,251990,1,0,0:0:0:0:
344,72,252384,2,0,L|416:160,1,82.3999993084717
328,196,252779,2,0,L|236:152,1,82.3999993084717,0|0,0:0|0:0,0:0:0:0:
268,308,253174,2,0,L|380:280,1,82.3999993084717
344,296,253569,1,0,0:0:0:0:
108,120,253766,1,8,0:0:0:0:
108,120,253865,1,8,0:0:0:0:
108,120,253963,1,8,0:0:0:0:
108,120,254062,1,8,0:0:0:0:
256,192,254259,12,0,255937,0:0:0:0:
256,192,256036,12,0,257516,0:0:0:0:
96,72,257911,5,0,0:0:0:0:
332,224,258305,1,0,0:0:0:0:
152,264,258700,1,0,0:0:0:0:
176,168,258799,1,0,0:0:0:0:
176,156,258897,1,0,0:0:0:0:
176,144,258996,1,0,0:0:0:0:
176,132,259095,1,0,0:0:0:0:
341,89,259292,2,0,P|376:112|408:168,1,80
236,248,259687,2,0,P|204:288|232:340,1,80
168,156,260082,2,0,P|104:144|80:152,1,80,0|0,0:0|0:0,0:0:0:0:
300,152,260476,2,0,P|344:144|384:128,1,80
188,64,260871,1,0,0:0:0:0:
56,124,261069,1,0,0:0:0:0:
56,252,261266,1,0,0:0:0:0:
132,336,261463,1,0,0:0:0:0:
240,344,261661,1,0,0:0:0:0:
392,136,261858,5,0,0:0:0:0:
248,228,262055,1,0,0:0:0:0:
400,200,262253,1,0,0:0:0:0:
328,256,262450,1,0,0:0:0:0:
320,144,262647,2,0,L|280:164,1,40
320,144,262845,2,0,L|320:184,1,40,0|0,0:0|0:0,0:0:0:0:
320,144,263042,2,0,L|256:120,1,40
96,56,263437,6,0,P|64:92|68:144,1,80,0|0,0:0|0:0,0:0:0:0:
200,200,263832,2,0,P|184:248|192:280,1,80,0|0,0:0|0:0,0:0:0:0:
368,248,264226,2,0,P|352:304|368:348,2,80,0|0|0,0:0|0:0|0:0,0:0:0:0:
340,40,264819,1,0,0:0:0:0:
116,40,265016,1,0,0:0:0:0:
284,112,265213,1,0,0:0:0:0:
184,112,265411,1,0,0:0:0:0:
216,208,265608,6,0,P|172:208|132:224,1,80
288,208,266003,6,0,P|327:208|367:216,1,80
196,316,266397,1,0,0:0:0:0:
212,316,266496,1,0,0:0:0:0:
224,316,266595,1,0,0:0:0:0:
240,316,266694,1,0,0:0:0:0:
252,316,266792,1,0,0:0:0:0:
264,316,266891,1,0,0:0:0:0:
280,316,266990,1,0,0:0:0:0:
132,152,267384,2,0,P|168:108|208:112,1,80,0|0,0:0|0:0,0:0:0:0:
288,144,267779,2,0,P|232:176|224:208,1,80
288,256,268174,2,0,P|320:228|368:208,1,80
392,104,268569,1,0,0:0:0:0:
384,104,268667,1,0,0:0:0:0:
384,104,268766,1,0,0:0:0:0:
384,104,268865,1,0,0:0:0:0:
192,76,268963,2,0,L|100:108,1,80
192,76,269358,2,0,L|184:168,1,80
152,264,269753,1,0,0:0:0:0:
384,220,269950,1,0,0:0:0:0:
192,76,270147,6,0,P|228:176|172:232,1,160,0|0,0:0|0:0,0:0:0:0:
328,80,270740,2,0,P|299:151|339:217,1,160,0|0,0:0|0:0,0:0:0:0:
184,304,271332,1,4,0:0:0:0:
328,304,271529,1,4,0:0:0:0:
224,212,271726,2,0,P|172:152|160:56,1,160,0|0,0:0|0:0,0:0:0:0:
296,216,272319,2,0,P|346:154|358:76,1,160,0|0,0:0|0:0,0:0:0:0:
196,68,272911,1,0,0:0:0:0:
100,268,273108,1,0,0:0:0:0:
268,152,273305,6,0,L|364:152,1,80,0|0,0:0|0:0,0:0:0:0:
284,236,273700,2,0,L|192:232,1,80,0|0,0:0|0:0,0:0:0:0:
284,312,274095,2,0,L|384:312,2,80,0|0|0,0:0|0:0|0:0,0:0:0:0:
248,248,274687,1,0,0:0:0:0:
252,64,274884,1,0,0:0:0:0:
116,176,275082,1,0,0:0:0:0:
392,180,275279,1,0,0:0:0:0:
252,64,275476,1,0,0:0:0:0:
256,152,275674,2,0,L|256:192,4,40,0|0|0|0|0,0:0|0:0|0:0|0:0|0:0,0:0:0:0:
120,272,276266,6,0,P|136:320|168:340,1,80,0|0,0:0|0:0,0:0:0:0:
240,320,276661,2,0,P|192:332|144:336,1,80,0|0,0:0|0:0,0:0:0:0:
140,100,277055,6,0,P|176:152|196:200,1,80
252,124,277450,6,0,P|216:143|185:167,1,80
124,228,277845,1,0,0:0:0:0:
368,232,278042,1,0,0:0:0:0:
248,228,278240,1,0,0:0:0:0:
96,128,278437,2,0,L|424:128,1,320
248,228,279424,1,0,0:0:0:0:
248,228,279621,1,0,0:0:0:0:
256,192,279819,12,0,281200,0:0:0:0:
256,192,281299,12,0,282779,0:0:0:0:
80,64,282976,5,0,0:0:0:0:
88,76,283174,1,0,0:0:0:0:
92,88,283371,1,0,0:0:0:0:
176,172,283569,1,0,0:0:0:0:
168,184,283766,1,0,0:0:0:0:
168,200,283963,1,0,0:0:0:0:
80,268,284161,1,0,0:0:0:0:
88,276,284358,1,0,0:0:0:0:
92,288,284555,1,0,0:0:0:0:
200,300,284753,1,0,0:0:0:0:
208,312,284950,1,0,0:0:0:0:
216,324,285147,1,0,0:0:0:0:
224,336,285345,1,0,0:0:0:0:
152,52,289095,6,0,L|36:68,1,80
216,88,289490,2,0,L|248:168,1,80,0|0,0:0|0:0,0:0:0:0:
188,224,289884,6,0,L|92:196,1,80,0|0,0:0|0:0,0:0:0:0:
236,312,290279,2,0,L|340:348,1,80,0|0,0:0|0:0,0:0:0:0:
336,88,290674,1,0,0:0:0:0:
288,244,290871,1,0,0:0:0:0:
102,109,293831,5,0,0:0:0:0:
95,148,293930,1,0,0:0:0:0:
97,188,294029,1,0,0:0:0:0:
107,227,294127,1,0,0:0:0:0:
124,263,294226,1,0,0:0:0:0:
148,295,294325,1,0,0:0:0:0:
178,322,294423,1,0,0:0:0:0:
212,342,294522,1,0,0:0:0:0:
250,355,294621,1,0,0:0:0:0:
290,360,294719,1,0,0:0:0:0:
330,357,294818,1,0,0:0:0:0:
368,346,294917,1,0,0:0:0:0:
404,328,295015,1,0,0:0:0:0:
435,303,295114,1,0,0:0:0:0:
461,273,295213,1,0,0:0:0:0:
88,64,295411,5,0,0:0:0:0:
72,240,295608,1,0,0:0:0:0:
148,184,295805,1,0,0:0:0:0:
376,184,296200,5,0,0:0:0:0:
248,292,296397,1,0,0:0:0:0:
272,48,296595,1,0,0:0:0:0:
52,124,296990,2,0,L|88:208,1,80
232,164,297384,2,0,L|320:108,1,80,0|0,0:0|0:0,0:0:0:0:
244,272,297779,2,0,L|140:320,2,80,0|0|0,0:0|0:0|0:0,0:0:0:0:
140,72,298569,1,0,0:0:0:0:
216,156,298766,1,0,0:0:0:0:
112,176,298963,1,0,0:0:0:0:
348,232,299358,5,0,0:0:0:0:
96,292,299555,1,0,0:0:0:0:
256,336,299753,1,0,0:0:0:0:
200,68,300147,2,0,P|120:80|96:96,1,80,0|0,0:0|0:0,0:0:0:0:
200,68,300542,2,0,P|244:64|304:92,1,80
224,176,300937,1,0,0:0:0:0:
224,200,301134,1,0,0:0:0:0:
224,224,301332,1,0,0:0:0:0:
160,240,301726,6,0,L|68:312,1,80
264,168,302121,2,0,L|340:112,1,80,0|0,0:0|0:0,0:0:0:0:
176,160,302516,2,0,L|120:88,1,80,0|0,0:0|0:0,0:0:0:0:
244,248,302911,2,0,L|300:320,1,80,0|0,0:0|0:0,0:0:0:0:
56,68,303305,1,8,0:0:0:0:
68,68,303503,1,8,0:0:0:0:
80,68,303700,1,8,0:0:0:0:
92,68,303897,1,8,0:0:0:0:
180,164,304095,1,2,0:0:0:0:
164,164,304292,1,2,0:0:0:0:
148,164,304490,1,2,0:0:0:0:
132,164,304687,1,2,0:0:0:0:
104,252,304884,2,0,P|104:296|132:336,1,80
80,176,305279,2,0,P|108:128|120:84,1,80,0|0,0:0|0:0,0:0:0:0:
204,200,305674,2,0,L|376:200,2,160,0|0|0,0:0|0:0|0:0,0:0:0:0:
200,92,306661,1,0,0:0:0:0:
196,72,306759,1,0,0:0:0:0:
184,56,306858,1,0,0:0:0:0:
168,48,306957,1,0,0:0:0:0:
152,48,307055,1,0,0:0:0:0:
136,52,307154,1,0,0:0:0:0:
124,60,307253,1,0,0:0:0:0:
256,192,307450,12,0,309621,0:0:0:0:
