osu file format v5

[General]
AudioFilename: optical cellophane.mp3
AudioLeadIn: 0
PreviewTime: -1
Countdown: 1
SampleSet: Normal
StackLeniency: 0.6
Mode: 0
LetterboxInBreaks: 1
EditorBookmarks: 10079,41843,59138,107488,113136,115959,119488
EditorDistanceSpacing: 0.5

[Metadata]
Title:Optical Cellophane
Artist:Sound Holic
Creator:PandaCath
Version:Normal
Source:
Tags:IOSYS Nitori Kawashiro Mountain Faith Touhou Optical Cellophane

[Difficulty]
HPDrainRate:5
CircleSize:4
OverallDifficulty:5
SliderMultiplier:1.4
SliderTickRate:1

[Events]
//Background and Video events
1,-300,"aa28e2ab307f5611108875df6806343f.avi"
0,0,"1030449-nitori_super.jpg"
//Break Periods
2,34291,41361
2,53344,57945
2,87580,92180
2,104173,106303
2,129938,131714
//Storyboard Layer 0 (Background)
//Storyboard Layer 1 (Failing)
//Storyboard Layer 2 (Passing)
//Storyboard Layer 3 (Foreground)
//Storyboard Sound Samples
//Background Colour Transformations
3,100,163,162,255

[TimingPoints]
11505,352.941176470588,4,1,0,91,1,0
113107,-100,4,2,0,84,0,0
115931,-100,4,2,0,100,0,0
117343,-100,4,1,0,93,0,0
138547,-100,4,1,0,100,0,1

[Colours]
Combo1 : 168,255,168
Combo2 : 0,179,0
Combo3 : 55,145,234
Combo4 : 40,255,40

[HitObjects]
64,72,11504,1,0
64,208,12210,1,0
64,312,12740,2,0,B|288:312,2,210,0|0|4
64,208,14328,5,0
200,208,15034,1,0
303,208,15563,2,0,B|144:49,2,210,0|0|4
376,288,17152,6,8,B|312:352|248:288,1,140,8|8
200,248,17857,1,0
256,160,18387,1,4
80,160,19269,1,8
200,88,19975,6,8,B|264:25|323:84,1,140,8|8
376,129,20681,1,0
320,217,21210,1,4
256,192,21563,12,0,22799
256,136,23504,5,0
256,240,24034,1,4
360,240,24563,6,0,B|480:152|344:80,1,210
240,80,25622,5,0
240,224,26328,1,0
344,224,26857,1,4
344,328,27387,6,0,B|272:344|224:352|160:264,1,210
160,160,28446,5,0
232,160,28799,1,0
304,160,29152,1,8
304,264,29681,1,4
408,264,30210,6,0,L|472:168|376:88,1,210
296,104,31269,5,0
152,104,31975,1,0
224,176,32504,1,4
256,192,32857,12,4,34093
96,32,42563,6,2,B|32:64|32:160,1,140
30,218,43269,1,0
30,288,43622,1,8
104,288,43975,6,2,B|136:352|232:320,1,140
221,252,44681,1,0
219,182,45034,1,12
288,184,45387,2,0,B|312:264|400:328|456:344|496:312|488:272|496:224|440:96|400:88,1,420
384,72,46799,5,0
312,72,47152,1,0
240,72,47505,1,12
96,32,48210,6,2,B|32:64|32:160,1,140
32,218,48916,1,0
32,256,49093,1,0
32,288,49269,1,8
104,288,49622,6,2,B|136:352|232:320,1,140
224,248,50328,1,0
224,208,50505,1,0
224,176,50681,1,12
296,184,51034,6,0,L|408:296,1,140
430,283,51563,2,0,L|462:67,1,210,0|4
390,74,52446,5,0
319,75,52799,1,0
284,75,52975,1,0
301,105,53152,1,12
256,192,59152,5,2
328,192,59505,5,0
400,192,59857,2,0,B|400:120|280:120,1,140,0|0
224,120,60563,1,8
152,120,60916,1,0
152,48,61269,1,0
224,48,61622,1,4
296,48,61975,1,8
296,120,62328,6,0,B|296:272,4,140,0|2|0|2|0
368,120,64093,1,0
368,192,64446,1,4
136,64,65152,6,0,B|136:296,1,210,0|8
136,304,65857,2,0,B|352:304,1,210,0|8
347,268,66563,2,0,B|347:47,1,210,0|8
382,59,67269,1,6
232,304,67975,6,0,B|80:304|80:304,3,140,0|8|0|8
92,233,69387,2,0,B|196:233,1,70
200,232,69740,1,8
144,184,70093,1,4
32,112,70799,6,0,B|176:184|184:24,1,210
183,45,71505,1,12
231,175,72210,2,0,B|211:343|79:202,1,210
97,221,72916,1,12
232,336,73622,6,0,C|280:296|216:256|280:224|224:184|216:208,1,280
224,112,74681,1,0
296,112,75034,1,4
368,112,75387,1,0
368,40,75740,5,0
336,40,75916,1,4
304,40,76093,1,6
223,40,76446,6,0,C|143:17|87:81,1,140,0|0
104,128,77152,1,0
104,200,77505,1,8
176,200,77857,6,0,C|248:240|320:208,1,140
370,219,78563,1,0
439,220,78916,1,10
439,290,79269,6,0,C|375:226|407:162,1,140,0|0
344,128,79975,2,0,B|408:128|392:56|320:24|296:56,1,140
248,48,80681,6,2,C|96:48,1,140
152,136,81387,2,6,C|296:136,1,140,6|6
248,224,82093,6,0,C|104:224,1,140
128,152,82799,1,0
200,152,83152,1,0
272,152,83505,2,0,C|424:152,1,140
480,152,84210,1,0
480,224,84563,1,2
408,224,84916,6,0,C|400:320|312:224|224:296,1,280,0|0
201,246,85975,1,0
152,192,86328,1,0
200,136,86681,1,12
152,80,87034,1,0
200,24,87387,1,12
136,32,93387,6,0,C|32:144|104:280,1,280
160,256,94446,1,10
232,248,94799,2,0,C|368:184,1,140
424,160,95505,2,8,C|432:112|360:32,1,140
302,47,96210,5,0
231,47,96563,1,0
160,47,96916,2,2,C|48:159,1,140
56,216,97622,1,4
128,216,97975,1,12
200,216,98328,6,6,C|344:248|472:200,1,280
384,88,99740,6,0,B|384:191,1,70,0|0
384,192,100093,1,0
384,264,100446,1,0
312,264,100799,1,2
240,264,101152,2,0,B|152:208,2,70
195,154,101857,6,2,C|323:234,1,140
317,154,102563,2,6,C|186:237,1,140
196,299,103269,5,8
266,299,103622,1,0
336,299,103975,1,12
64,64,107505,5,0
136,64,107857,1,0
208,64,108210,2,2,C|272:96|240:160,1,140,2|10
168,152,108916,1,0
96,152,109269,1,0
96,224,109622,1,0
96,296,109975,1,12
168,296,110328,6,4,C|312:336|440:288,1,280
432,216,111387,1,8
432,144,111740,2,2,C|496:80|432:48,1,140
384,56,112446,2,2,B|240:56,1,140
244,126,113152,1,2
240,304,114563,5,0
240,232,114916,1,2
128,64,115975,6,4,C|24:144|24:144,1,140,0|0
61,204,116681,2,0,C|117:260|197:260,1,140,2|0
246,262,117387,1,4
315,264,117740,1,0
385,263,118093,2,4,C|385:183,3,70
48,104,119505,6,0,C|104:56|320:56,1,280
376,56,120563,1,8
376,128,120916,2,2,C|360:216|312:160,1,140,2|2
256,184,121622,5,0
184,184,121975,1,8
184,256,122328,2,0,C|168:344|120:288,1,140
64,304,123034,2,6,C|64:136,1,140
64,88,123740,1,8
136,88,124093,1,4
208,88,124446,1,0
208,224,125152,5,8
208,296,125505,1,0
280,296,125857,2,10,C|304:240|384:248,1,140
400,176,126563,1,0
432,176,126740,2,12,C|472:96,1,70
400,80,127269,5,4
328,80,127622,2,2,C|160:104,1,140
120,112,128328,1,0
112,184,128681,2,8,C|144:216|112:312,1,140
192,304,129387,1,0
264,304,129740,1,14
32,64,132916,5,10
104,64,133269,1,0
176,64,133622,1,0
248,64,133975,1,10
320,64,134328,2,6,C|416:96|384:128,1,140
400,192,135034,1,4
328,192,135387,1,0
256,192,135740,1,14
256,192,137152,6,0,B|175:313|80:176,2,210
328,192,138563,1,14
256,192,138740,12,8,140681
256,192,141034,5,6
