osu file format v5

[General]
AudioFilename: optical cellophane.mp3
AudioLeadIn: 0
PreviewTime: -1
Countdown: 1
SampleSet: Normal
StackLeniency: 0.6
Mode: 0
LetterboxInBreaks: 1
EditorBookmarks: 10079,41843,59138,107488,119488
EditorDistanceSpacing: 0.899999976158142

[Metadata]
Title:Optical Cellophane
Artist:Sound Holic
Creator:PandaCath
Version:KIRBY Mix
Source:
Tags:IOSYS Nitori Kawashiro Mountain Faith Touhou Optical Cellophane

[Difficulty]
HPDrainRate:7
CircleSize:5
OverallDifficulty:7
SliderMultiplier:1.6
SliderTickRate:1

[Events]
//Background and Video events
1,-400,"aa28e2ab307f5611108875df6806343f.avi"
0,0,"1030449-nitori_super.jpg"
//Break Periods
2,34114,41661
2,53702,58250
2,70643,75367
2,104168,106597
//Storyboard Layer 0 (Background)
//Storyboard Layer 1 (Failing)
//Storyboard Layer 2 (Passing)
//Storyboard Layer 3 (Foreground)
//Storyboard Sound Samples
//Background Colour Transformations
3,100,163,162,255

[TimingPoints]
11505,352.941176470588,4,1,0,81,1,0
21210,-100,4,1,0,71,0,0
33960,-100,4,1,0,83,0,0
110205,-100,4,1,0,81,0,0
110557,-100,4,2,0,81,0,0
110909,-100,4,1,0,81,0,0
111261,-100,4,2,0,81,0,0
111613,-100,4,1,0,81,0,0
111965,-100,4,2,0,81,0,0
112317,-100,4,1,0,81,0,0
112669,-100,4,2,0,81,0,0
113021,-100,4,2,0,81,0,0
117256,-100,4,1,0,81,0,0
118756,-100,4,1,0,81,0,1
129961,-100,4,1,0,81,0,0

[Colours]
Combo1 : 168,255,168
Combo2 : 0,179,0
Combo3 : 55,145,234
Combo4 : 40,255,40

[HitObjects]
176,96,11504,1,8
336,96,11857,1,8
379,157,12034,1,0
352,224,12210,2,0,B|256:288|160:192,1,160,12|0
128,192,12740,1,4
256,96,13093,5,0
192,160,13269,1,8
256,224,13446,1,0
320,160,13622,1,8
256,320,13975,1,4
336,288,14328,5,8
176,288,14681,1,8
256,320,14857,1,0
256,256,15034,2,0,B|256:64,1,160,12|0
256,96,15563,1,8
384,192,15916,5,10
352,128,16093,1,0
288,96,16269,1,2
224,96,16446,1,0
160,128,16622,1,8
128,192,16799,1,0
128,192,16975,1,6
176,288,17152,5,8
336,288,17504,1,8
379,227,17681,1,0
352,160,17857,2,0,B|256:96|160:192,1,160,12|0
128,192,18387,1,4
256,288,18740,5,0
192,224,18916,1,8
256,160,19093,1,0
320,224,19269,1,8
256,64,19622,1,4
336,96,19975,5,8
176,96,20328,1,8
256,64,20504,1,0
256,128,20681,2,0,B|256:320,1,160,12|0
256,288,21210,1,8
384,192,21563,5,10
352,256,21740,1,0
288,288,21916,1,2
224,288,22093,1,0
160,256,22269,1,8
128,192,22446,1,0
128,192,22622,1,6
256,192,22799,12,0,24034
352,192,24387,5,8
320,128,24563,1,0
256,96,24740,1,8
192,128,24916,1,0
160,192,25093,1,8
192,256,25269,1,0
256,288,25446,1,4
256,192,25622,12,4,26857
160,192,27210,5,8
192,256,27387,1,0
256,288,27563,1,8
320,256,27740,1,0
352,192,27916,1,8
320,128,28093,1,0
256,96,28269,1,4
256,192,28446,12,4,29681
288,160,30034,5,0
232,136,30210,1,8
288,96,30387,1,0
232,72,30563,1,8
288,32,30740,1,0
288,32,30916,1,8
288,32,31093,1,4
256,192,31269,12,0,32504
288,224,32857,5,0
232,248,33034,1,8
288,288,33210,1,0
232,312,33387,1,8
288,352,33563,1,0
288,352,33740,1,8
360,352,33916,1,4
360,352,34004,1,4
416,64,42563,5,8
352,64,42740,1,0
288,96,42916,1,0
256,160,43093,1,0
256,224,43269,5,8
224,288,43446,1,0
160,320,43622,1,0
96,320,43799,1,0
96,224,43975,6,0,B|96:160|160:160,1,80,8|0
224,160,44328,2,0,B|224:224|288:224,1,80,8|0
352,192,44681,1,8
448,192,44857,1,2
448,192,45034,1,6
96,64,45387,5,8
168,64,45563,1,0
224,96,45740,1,0
256,160,45916,1,0
256,224,46093,5,8
288,288,46269,1,0
352,320,46446,1,0
416,320,46622,1,0
416,224,46799,6,0,B|416:160|352:160,1,80,8|0
288,160,47152,2,0,B|288:224|224:224,1,80,8|0
160,192,47505,1,8
64,192,47681,1,2
64,192,47857,1,6
192,128,48210,5,8
256,96,48387,1,0
320,128,48563,1,0
288,192,48740,1,0
320,256,48916,5,8
256,288,49093,1,0
192,256,49269,1,0
224,192,49446,1,0
288,192,49622,5,8
256,128,49799,1,0
192,96,49975,1,8
128,128,50152,2,8,B|128:192|192:192,1,80
128,128,50505,1,2
128,128,50681,1,6
160,288,51034,5,8
224,256,51210,1,0
288,256,51387,1,0
352,288,51563,1,12
288,128,51916,5,8
256,192,52093,1,8
224,128,52269,1,8
256,64,52446,6,0,B|160:64,1,80,0|4
256,192,52799,2,0,B|384:192,1,80,0|4
256,320,53152,1,4
256,192,53328,5,2
256,192,53505,1,6
256,192,59152,5,8
256,192,59240,1,12
416,256,59505,5,8
384,320,59681,1,0
320,352,59857,1,0
256,320,60034,1,0
96,256,60210,5,8
128,320,60387,1,0
192,352,60563,1,0
256,320,60740,1,0
256,256,60916,6,8,B|256:160,1,80
256,96,61269,2,8,B|256:192,1,80
256,176,61622,1,12
160,192,61799,5,2
352,192,61975,1,6
384,128,62152,5,8
320,64,62328,1,0
256,128,62505,1,0
192,64,62681,1,0
128,128,62857,5,8
192,192,63034,1,0
256,256,63210,1,0
320,192,63387,1,0
256,128,63563,1,12
128,128,63740,6,8,B|128:192|64:192,1,80
256,256,64093,2,8,B|256:352,1,80
384,128,64446,2,0,B|384:192|448:192,1,80,8|2
256,128,64799,1,6
352,320,65152,5,8
288,352,65328,1,0
224,352,65505,1,0
160,320,65681,1,0
160,256,65857,5,8
224,224,66034,1,0
288,224,66210,1,0
352,256,66387,1,0
384,192,66563,5,8
352,128,66740,1,0
288,96,66916,1,8
256,160,67093,1,4
224,96,67269,1,8
160,128,67446,1,2
128,192,67622,1,6
352,96,67975,5,8
288,128,68152,1,0
224,128,68328,1,0
160,96,68505,1,12
224,256,68857,5,8
256,192,69034,1,8
288,256,69210,1,8
256,320,69387,6,0,B|352:320,1,80,0|4
256,192,69740,2,0,B|128:192,1,80,0|4
256,64,70093,1,4
256,192,70269,5,2
256,192,70446,1,6
352,192,76269,5,2
352,192,76446,2,8,B|352:128|288:128,1,80
256,64,76799,1,2
160,192,76975,5,2
160,192,77152,2,8,B|160:128|224:128,1,80
256,64,77505,1,2
256,192,77681,5,0
192,256,77857,1,2
256,320,78034,1,0
320,256,78210,1,2
384,192,78387,1,0
320,128,78563,1,2
256,192,78740,1,0
192,128,78916,1,2
128,192,79093,1,0
64,128,79269,6,2,B|32:64|96:96,1,80
160,64,79622,2,2,B|192:0|224:64,1,80
295,51,79975,2,2,B|320:0|360:80,1,80
416,96,80328,2,2,B|480:64|448:128,1,80
384,192,80681,5,0
128,192,81034,1,4
256,256,81387,5,0
288,240,81475,1,0
320,208,81563,1,0
288,176,81652,1,0
256,144,81740,1,0
224,176,81828,1,0
192,208,81916,1,0
224,240,82005,1,0
256,256,82093,5,8
320,288,82269,1,0
384,256,82446,1,0
320,288,82622,1,0
256,256,82799,5,8
192,288,82975,1,0
128,256,83152,1,0
192,288,83328,1,0
64,192,83505,6,8,B|128:128,1,80
200,128,83857,2,8,B|264:64,1,80
312,128,84210,2,8,B|248:64,1,80
448,192,84563,2,8,B|384:128,1,80,8|12
320,192,84916,5,8
352,256,85093,1,0
288,288,85269,1,8
256,224,85446,1,0
192,192,85622,5,8
160,256,85799,1,0
224,288,85975,1,8
256,224,86152,1,0
256,128,86328,6,2,B|192:64,1,80
256,128,86681,2,2,B|320:64,1,80
320,160,87034,5,2
256,192,87210,1,2
192,160,87387,1,2
256,128,87563,1,6
320,256,87740,5,8
256,352,87916,1,0
192,256,88093,1,12
192,256,88446,5,8
96,192,88622,1,0
192,128,88799,1,12
192,128,89152,5,8
256,32,89328,1,0
320,128,89505,1,12
320,128,89857,5,8
416,192,90034,1,0
320,256,90210,1,12
160,192,90563,5,2
224,160,90740,1,0
192,96,90916,1,2
256,64,91093,1,4
352,192,91269,5,2
288,160,91446,1,0
320,96,91622,1,2
256,64,91799,1,4
64,192,91975,5,2
256,336,92328,1,2
448,192,92681,1,2
256,64,93034,1,2
352,192,93387,6,0,B|352:128|288:128,1,80,8|0
256,192,93740,2,0,B|256:96,1,80
160,192,94093,2,0,B|160:128|224:128,1,80,8|0
256,192,94446,2,8,B|256:288,1,80,0|0
320,256,94799,6,2,B|416:288,1,80
192,256,95152,2,2,B|96:288,1,80
192,128,95505,2,2,B|96:96,1,80
320,128,95857,2,2,B|416:96,1,80,2|6
384,224,96210,5,8
352,288,96387,1,0
288,320,96563,1,0
224,320,96740,1,0
160,288,96916,5,8
128,224,97093,1,0
128,160,97269,1,0
160,96,97446,1,0
224,64,97622,5,8
288,64,97799,1,0
352,96,97975,1,8
384,160,98152,1,0
384,224,98328,1,8
128,224,98681,1,12
256,160,99034,5,8
160,64,99210,1,0
352,64,99387,1,4
288,192,99740,5,8
384,96,99916,1,0
384,288,100093,1,4
256,224,100446,5,8
160,320,100622,1,0
352,320,100799,1,4
224,192,101152,5,8
128,96,101328,1,0
128,288,101505,1,4
256,192,101857,12,4,103975
256,192,107505,5,8
224,128,107681,1,0
288,128,107857,1,0
256,64,108034,1,0
256,192,108210,5,8
288,256,108387,1,0
224,256,108563,1,0
256,320,108740,1,0
320,320,108916,5,8
384,288,109093,1,0
352,224,109269,1,0
288,256,109446,1,0
192,320,109622,5,8
128,288,109799,1,0
160,224,109975,1,0
224,256,110152,1,0
256,192,110328,6,8,B|256:96,1,80
256,192,110681,2,0,B|168:136,1,80
256,192,111034,2,8,B|168:256,1,80
256,192,111387,2,0,B|256:288,1,80
256,192,111740,2,8,B|320:256,1,80
256,192,112093,2,0,B|352:192,1,80
256,192,112446,2,8,B|320:128,1,80
256,192,112799,2,8,B|256:96,1,80
256,192,113152,5,2
176,128,113328,1,0
80,192,113505,1,10
256,192,113857,5,2
336,128,114034,1,0
432,192,114210,1,10
256,192,114563,5,2
320,112,114740,1,0
256,16,114916,1,10
256,192,115269,5,2
192,272,115446,1,0
256,368,115622,1,10
256,192,115975,12,4,117034
288,192,117387,5,4
224,192,117563,1,0
352,192,117740,5,4
160,192,117916,1,0
256,160,118093,5,4
256,224,118269,1,0
256,96,118446,5,4
256,288,118622,1,0
256,192,118799,5,0
256,192,118975,1,0
256,192,119152,1,0
256,192,119328,1,0
160,192,119505,5,0
96,256,119681,1,0
160,192,119857,1,0
96,128,120034,1,0
256,192,120210,5,0
256,192,120387,1,0
256,192,120563,1,0
256,192,120740,1,0
352,192,120916,5,0
416,128,121093,1,0
352,192,121269,1,0
416,256,121446,1,0
319,329,121622,6,2,B|256:319|256:255,1,80
260,283,121975,2,2,B|324:283|324:219,1,80
203,328,122328,6,2,B|263:325|263:261,1,80
260,282,122681,2,2,B|196:282|196:218,1,80
128,192,123034,5,8
160,128,123210,1,0
224,96,123387,1,8
288,96,123563,1,0
352,128,123740,1,8
384,192,123916,1,0
256,192,124093,5,8
256,192,124269,1,12
256,320,124446,5,8
256,192,124622,1,0
128,128,124799,1,12
256,64,125152,5,8
256,192,125328,1,0
128,256,125505,1,12
256,320,125857,5,8
256,192,126034,1,0
384,128,126210,1,12
256,64,126563,5,8
256,192,126740,1,0
384,256,126916,1,12
256,288,127269,5,2
192,256,127446,1,0
160,192,127622,1,2
160,128,127799,1,0
256,288,127975,5,2
320,256,128152,1,0
352,192,128328,1,2
352,128,128505,1,0
256,96,128681,5,4
256,288,129034,1,4
256,96,129387,1,4
256,288,129740,1,4
192,128,130093,5,8
256,32,130269,1,0
320,128,130446,1,12
320,128,130799,5,8
416,192,130975,1,0
320,256,131152,1,12
320,256,131505,5,8
256,352,131681,1,0
192,256,131857,1,12
192,256,132210,5,8
96,192,132387,1,0
192,128,132563,1,12
256,192,132916,12,4,135034
416,64,135740,5,8
352,64,135916,1,0
288,96,136093,1,8
224,96,136269,1,0
160,128,136446,1,8
96,128,136622,1,0
32,160,136799,5,8
32,160,136975,1,4
96,192,137152,5,8
160,192,137328,1,0
224,224,137505,1,8
288,224,137681,1,0
352,256,137857,1,8
416,256,138034,1,0
480,288,138210,5,8
480,288,138387,1,4
256,192,138563,5,4
392,96,139269,5,2
256,32,139490,1,2
120,96,139754,1,2
256,192,139975,5,12
320,224,140152,1,0
256,256,140328,1,8
192,224,140505,1,0
256,192,140681,1,8
256,192,141034,5,12
