osu file format v5

[General]
AudioFilename: optical cellophane.mp3
AudioLeadIn: 0
PreviewTime: -1
Countdown: 1
SampleSet: Normal
StackLeniency: 0.5
Mode: 0
LetterboxInBreaks: 1
EditorBookmarks: 10079,41843,59138,70783,76430,82783,93371,101841,107488,115959
EditorDistanceSpacing: 0.899999976158142

[Metadata]
Title:Optical Cellophane
Artist:Sound Holic
Creator:PandaCath
Version:Hard
Source:
Tags:Sound Holic Nitori Kawashiro Mountain Faith Touhou Optical Cellophane

[Difficulty]
HPDrainRate:7
CircleSize:5
OverallDifficulty:7
SliderMultiplier:1.4
SliderTickRate:1

[Events]
//Background and Video events
1,-400,"aa28e2ab307f5611108875df6806343f.avi"
0,0,"1030449-nitori_super.jpg"
//Break Periods
2,34291,41661
2,53350,58250
2,104173,106603
2,113352,115075
//Storyboard Layer 0 (Background)
//Storyboard Layer 1 (Failing)
//Storyboard Layer 2 (Passing)
//Storyboard Layer 3 (Foreground)
//Storyboard Sound Samples
//Background Colour Transformations
3,100,163,162,255

[TimingPoints]
11505,352.941176470588,4,1,0,90,1,0
113107,-100,4,2,0,100,0,0
117343,-100,4,1,0,100,0,0

[Colours]
Combo1 : 168,255,168
Combo2 : 0,179,0
Combo3 : 55,145,234
Combo4 : 40,255,40

[HitObjects]
32,96,11504,2,0,C|192:96,1,140
256,96,12210,1,8
256,224,12740,2,2,C|256:352|256:384,1,140
297,367,13269,1,8
339,367,13446,1,0
340,325,13622,1,0
339,240,13975,1,12
480,96,14328,6,0,C|320:96,1,140
255,96,15034,1,8
255,221,15563,2,2,C|255:349|255:381,1,140
212,362,16093,1,8
170,362,16269,1,0
170,319,16446,1,0
170,234,16799,1,12
128,40,17152,6,0,B|64:104|128:168,1,140
207,167,17857,2,0,B|271:231|207:295,1,140,8|0
177,315,18387,1,6
256,152,19269,5,12
256,232,19622,1,12
384,344,19975,6,0,B|448:280|384:216,1,140
304,215,20681,2,0,B|240:151|304:87,1,140,8|0
333,67,21210,1,6
256,192,21563,12,0,22799
480,192,23504,5,0
352,192,24034,1,4
272,192,24387,5,8
224,224,24563,1,0
176,192,24740,1,0
176,136,24916,1,8
224,168,25093,1,0
272,136,25269,1,0
224,112,25446,1,8
224,56,25622,5,6
32,192,26328,1,0
160,192,26857,1,0
240,192,27210,5,8
288,224,27387,1,0
336,192,27563,1,0
336,136,27740,1,8
288,168,27916,1,0
240,136,28093,1,0
288,112,28269,1,8
288,56,28446,5,6
256,192,29152,1,0
256,192,29681,1,0
224,256,30034,6,0,C|320:256,1,70,8|0
320,224,30387,2,0,C|320:128,1,70,0|8
288,128,30740,2,0,C|192:128,1,70
192,160,31093,1,8
192,208,31269,5,14
256,128,31975,1,0
256,256,32504,1,4
256,192,32857,12,4,34093
95,33,42563,6,0,B|63:33|63:97,1,70,0|0
128,88,42916,1,0
192,88,43093,1,8
241,132,43269,2,0,B|241:164|177:164,1,70,0|0
120,164,43622,1,0
56,164,43799,1,8
56,226,43975,6,0,B|56:258|120:258,1,70
173,256,44328,1,0
175,320,44505,2,4,C|264:320,1,70,12|4
352,320,45387,6,0,C|416:288|288:224,1,210
232,216,46093,2,0,C|136:184|168:152,1,140,0|0
160,32,46799,5,0
256,112,47152,1,0
128,112,47505,1,6
416,32,48210,6,0,B|448:32|448:96,1,70
384,88,48563,1,0
320,88,48740,1,8
271,129,48916,2,0,B|271:161|335:161,1,70,0|0
392,160,49269,1,0
456,160,49446,1,8
456,224,49622,6,0,B|456:256|392:256,1,70
336,256,49975,1,0
336,320,50152,2,4,C|240:320,1,70,12|4
160,320,51034,6,0,C|96:288|224:224,1,210
280,216,51740,2,0,C|376:184|344:152,1,140,0|0
352,32,52446,5,0
256,120,52799,1,0
320,120,52975,1,4
384,120,53152,1,6
256,192,59152,5,12
64,32,59505,6,0,B|160:32,4,70
64,96,60387,1,8
64,160,60563,2,2,C|224:160,1,140
328,160,61269,1,0
456,160,61622,1,4
456,288,61975,5,8
328,288,62328,6,0,B|232:288,4,70
392,288,63210,1,8
392,224,63387,2,2,C|232:224,1,140
256,96,64093,1,0
128,96,64446,1,4
160,64,65152,6,0,B|160:160,1,70
160,200,65505,1,0
160,264,65681,1,2
224,264,65857,2,0,B|224:168,1,70
224,128,66210,1,0
224,64,66387,1,2
288,64,66563,2,0,B|288:160,1,70
288,200,66916,1,0
288,264,67093,1,10
352,264,67269,1,14
96,264,67975,5,0
96,200,68152,1,0
160,200,68328,2,0,C|160:288,1,70,0|8
96,264,68681,1,0
96,200,68857,1,0
96,136,69034,1,0
160,136,69210,1,8
160,200,69387,6,2,B|256:200,1,70
280,240,69740,1,0
328,200,69916,1,0
376,240,70093,1,6
0,32,70799,6,0,B|0:128|96:128,1,140
176,40,71505,1,2
256,136,71857,1,2
128,136,72210,6,0,B|128:232|32:232,1,140
48,360,72916,1,2
104,328,73093,1,0
160,296,73269,1,2
216,264,73446,1,0
288,296,73622,2,0,C|288:200|360:160|248:136|360:80,1,420
352,32,75740,5,0
352,96,75916,1,0
352,160,76093,1,12
160,32,76446,6,0,C|96:160,2,140
256,32,77505,1,8
352,32,77857,6,0,C|416:160,2,140
256,32,78916,1,8
256,160,79269,6,0,C|224:192|224:224|256:224|288:256,1,140,0|8
152,240,79975,2,0,C|120:272|88:272|88:240|56:208,1,140,0|8
64,96,80681,5,0
192,96,81034,1,0
320,96,81387,2,2,C|480:96,1,140
459,222,82093,1,4
224,208,82799,6,0,C|208:240|256:240|224:304,1,140
280,328,83328,1,2
344,320,83505,2,0,C|408:288|456:160,1,210
400,128,84210,1,0
400,64,84387,1,8
336,64,84563,1,14
208,64,84916,6,0,C|160:16|128:16|112:64,1,140
104,112,85446,1,2
96,176,85622,2,0,C|144:224|176:224|192:176,1,140
240,152,86152,1,2
240,216,86328,2,4,C|240:296,2,70
304,200,86857,2,0,C|384:168,1,70
432,160,87210,2,2,C|448:240,1,70
384,248,87563,1,4
384,312,87740,1,6
256,192,88093,12,12,88799
176,160,89152,6,0,C|224:176|224:96|288:96|304:176|304:176,1,280
304,232,90034,1,0
304,296,90210,1,6
176,296,90563,6,0,C|128:280|144:328|64:296|64:344|16:328,1,280
8,272,91446,2,0,C|24:240,1,70,0|2
72,152,91799,2,8,C|56:120,1,70,8|8
112,88,92152,1,10
176,88,92328,1,0
240,88,92505,1,0
240,152,92681,1,14
480,96,93387,6,0,C|456:40|416:32|384:64|416:128,1,210
416,184,94093,1,0
416,248,94269,2,4,C|416:328,1,70
352,312,94622,1,2
352,248,94799,2,8,C|272:248,3,70
352,248,95505,2,0,C|320:184,1,70
352,248,95857,2,4,C|400:184,1,70
400,128,96210,5,2
336,128,96387,2,4,C|287:79,1,70
240,32,96740,1,2
304,24,96916,2,0,C|352:8|448:16|472:104,1,210
464,136,97622,1,2
464,200,97799,2,0,C|400:248,1,70
352,272,98152,2,4,C|320:224,4,70,6|4|6|4|6
313,214,99034,1,0
64,272,99740,5,0
64,208,99916,1,0
64,144,100093,1,0
192,144,100446,6,2,C|224:112|320:144,1,140
312,264,101152,1,0
344,208,101328,1,10
376,264,101505,1,14
176,112,101857,6,2,C|352:272,1,210
336,160,102563,2,2,C|160:320,1,210
120,304,103269,5,0
120,240,103446,2,0,C|120:160,1,70,0|0
184,168,103799,1,0
184,232,103975,1,4
32,160,107505,5,10
96,160,107681,1,0
160,160,107857,1,0
224,160,108034,1,10
288,160,108210,2,0,C|368:160,1,70
424,160,108563,2,4,C|472:176|472:208,1,70
472,256,108916,2,12,C|392:256,3,70
336,256,109622,1,2
272,256,109799,1,8
240,256,109887,1,0
208,256,109975,1,12
144,256,110152,6,4,C|96:240|128:208,1,70
104,160,110505,1,0
104,96,110681,2,0,C|104:48|152:48,1,70
184,48,111034,1,8
216,48,111122,1,0
216,80,111210,1,8
280,80,111387,1,8
336,48,111563,1,0
400,48,111740,2,0,C|400:88,3,35
400,48,112093,2,2,C|416:80|432:112,1,70
432,176,112446,2,8,C|408:224|440:240,1,70
480,232,112799,1,2
480,296,112975,1,0
416,296,113152,1,10
32,48,115975,6,2,C|64:80|144:48,1,140
216,48,116505,1,0
288,48,116681,1,8
360,48,116857,2,8,C|360:96,2,35
432,48,117210,1,2
432,120,117387,2,4,C|448:200,1,70
376,190,117740,1,2
304,190,117916,1,0
304,264,118093,1,6
208,208,118799,6,0,C|224:176|176:176|208:112,1,140
224,64,119328,1,2
152,64,119505,2,0,C|88:96|40:224,1,210
40,296,120210,1,0
112,296,120387,1,8
184,296,120563,1,14
256,296,120740,2,0,C|320:248,1,70
352,304,121093,6,0,C|384:336,2,35
396,248,121446,1,10
440,192,121622,2,0,C|392:144|360:144|328:200,1,140
296,232,122152,1,10
252,178,122328,2,4,C|252:98,2,70
184,192,122857,6,0,C|104:224,1,70
104,152,123210,2,2,C|88:72,1,70
152,48,123563,1,4
216,24,123740,1,14
288,24,123916,2,0,C|288:72,1,70
288,24,124269,1,10
360,24,124446,6,0,C|376:80|368:120,1,70
376,152,124799,1,2
376,152,124975,1,2
368,232,125152,6,0,C|312:216|272:224,1,70
232,216,125505,1,2
232,216,125681,1,2
160,216,125857,5,0
88,216,126034,1,0
88,144,126210,1,12
200,56,126563,6,4,C|264:24|328:56,1,140
392,56,127093,2,0,C|440:56,2,35
392,128,127446,2,2,C|408:160,1,70,2|2
416,256,127799,2,8,C|400:288,1,70,8|8
320,320,128152,1,10
256,320,128328,1,0
256,256,128505,1,0
256,192,128681,1,14
192,192,128857,5,10
128,192,129034,1,0
128,256,129210,1,0
128,320,129387,1,14
64,320,129563,5,0
64,256,129740,1,0
64,192,129916,2,0,C|64:104|64:104,1,70
64,56,130269,5,0
128,56,130446,2,0,C|200:32|264:56,1,140
256,120,130975,1,0
256,184,131152,1,0
320,184,131328,1,0
320,120,131505,6,0,B|320:72|384:80|408:144|408:192,1,140
400,232,132034,1,0
400,296,132210,2,0,B|248:296,1,140
256,32,132916,5,0
416,192,133269,1,8
256,352,133622,1,0
96,192,133975,1,8
208,96,134328,6,4,C|288:96,1,70
352,144,134681,2,4,C|352:224,1,70
304,288,135034,2,4,C|224:288,1,70
160,240,135387,2,4,C|160:160,1,70
160,96,135740,6,0,C|256:48|272:80|304:80|416:64,1,280
432,141,136799,1,2
400,208,137152,2,0,C|352:240|288:208|240:240|176:208|144:208,1,280
240,144,138210,2,0,C|288:144,4,35,0|0|0|0|14
216,152,139269,5,12
216,232,139490,1,12
296,232,139754,1,12
296,152,139975,1,12
256,192,141034,5,6
