osu file format v6

[General]
AudioFilename: Love-Colored Dream.mp3
AudioLeadIn: 0
PreviewTime: 77300
Countdown: 0
SampleSet: Soft
StackLeniency: 0.7
Mode: 0
LetterboxInBreaks: 0

[Editor]
DistanceSpacing: 1
BeatDivisor: 4
GridSize: 8

[Metadata]
Title:Love-Colored Dream
Artist:Sound Holic
Creator:Yes
Version:Easy
Source:Tokoshie
Tags:Touhou Marisa roxkyuubiforever

[Difficulty]
HPDrainRate:1
CircleSize:3
OverallDifficulty:1
SliderMultiplier:1.3
SliderTickRate:0.5

[Events]
//Background and Video events
0,0,"32c7685a802e9fc473892e4565635545.jpg"
Video,320,"a7ce31fa9d3d4a3fd30c87c720139160.avi"
//Break Periods
2,20703,25386
//Storyboard Layer 0 (Background)
//Storyboard Layer 1 (Fail)
//Storyboard Layer 2 (Pass)
//Storyboard Layer 3 (Foreground)
//Storyboard Sound Samples
//Background Colour Transformations
3,100,163,162,255

[TimingPoints]
582,468.75,4,2,1,100,1,0
28452,-100,4,2,1,23,0,0
30562,-100,4,2,1,100,0,0
43452,-200,4,2,1,100,0,0
45327,-100,4,2,1,100,0,0
75796,-100,4,2,1,75,0,0
76499,-100,4,2,1,40,0,0
77437,-100,4,2,1,81,0,0
78412,468.75,4,2,1,100,1,1
78608,-100,4,2,1,100,0,0
108843,-100,4,2,1,100,0,0

[Colours]
Combo1 : 139,202,248
Combo2 : 255,255,128
Combo3 : 205,135,228
Combo4 : 179,255,179
Combo5 : 255,117,117

[HitObjects]
64,48,6910,2,0,B|-32:96|88:152,1,130,2|0
64,208,7613,1,2
176,136,8082,2,0,C|208:104|232:136|264:104|296:136|328:104|360:136|392:104|424:136|456:96,1,390,4|8
488,168,9722,2,0,C|456:200|488:224|456:256|488:288|456:320|488:352,1,260,0|2
232,40,12066,6,0,B|328:40,1,65,2|8
400,112,12769,1,0
400,240,13238,1,8
400,304,13472,2,0,B|272:368|272:192,1,195,2|8
216,200,14410,2,0,B|120:120|24:192,1,195,2|8
256,208,15582,12,0,17457
256,64,17925,5,8
128,64,18394,1,2
128,192,18863,1,8
256,192,19332,1,2
320,192,19566,6,0,B|320:120,4,65,2|2|2|2|2
256,192,27066,6,0,B|256:288,4,65,2|0|0|0|0
256,208,28707,12,0,30347
256,192,30816,6,0,B|352:192,2,65,2|0|0
160,104,31753,2,0,B|72:104,2,65,2|0|0
288,80,32691,6,0,B|376:80,1,65,2|0
480,80,33394,1,0
416,192,33863,1,2
248,288,34566,6,0,B|344:288,1,75,2|0
376,288,35035,1,0
248,288,35503,2,0,B|144:288,1,75,2|0
120,288,35972,1,0
120,96,36675,5,2
248,96,37144,1,0
376,96,37613,2,0,B|456:104,1,65,2|2
432,232,38316,6,0,B|392:320,2,65,2|0|0
312,288,39253,2,0,B|280:216,2,65,2|0|0
344,160,40191,6,0,B|344:48,1,75,2|0
224,88,40894,1,2
96,88,41363,1,2
96,216,41832,6,0,B|248:216,1,130,0|2
224,344,42769,2,0,B|368:344,1,130,0|2
416,344,43472,2,0,B|456:224|376:128,1,227.5,2|8
240,128,45816,6,0,B|240:48,2,65,2|0|0
240,256,46753,2,0,B|240:352,2,65,2|0|0
48,272,47925,5,2
16,144,48394,1,0
48,16,48863,1,2
232,88,49566,6,0,B|200:56|160:88,2,65,2|0|0
344,160,50503,2,0,B|376:184|416:160,2,65,2|0|0
264,288,51675,6,0,B|200:288|200:288|200:208,1,130,2|0
200,88,52613,1,2
320,40,53082,1,0
328,168,53550,6,0,B|456:224,1,130,2|0
408,344,54488,2,0,B|280:288,1,130,2|0
168,256,55425,5,0
168,128,55894,2,0,B|168:56,4,65,2|0|2|2|0
296,128,57300,5,2
232,240,57769,1,0
360,240,58238,1,2
256,208,58472,12,0,60113
464,136,61988,5,2
464,264,62457,2,0,B|328:384|216:256,1,260
104,272,63863,5,2
104,208,64097,2,0,B|240:72|408:224,1,325,2|0
336,352,65738,5,8
288,232,66207,2,0,B|200:192|112:304,1,195
120,168,67378,1,2
192,56,67847,2,0,C|216:32|240:64|272:32|304:64|336:32|368:64|400:32|416:64,1,325,4|2
352,160,69488,5,8
384,216,69722,1,0
352,272,69957,2,0,B|488:352,2,130,2|2|2
224,272,71363,1,8
224,208,71597,2,8,B|72:136|136:48|208:64|256:136|160:192|144:208|96:208,1,325,0|0
112,336,73238,5,2
240,336,73707,2,0,B|240:264|240:264|304:296|304:296|304:224,1,195,2|2
296,112,74878,1,2
256,208,75347,12,0,77222
256,192,77691,5,0
256,256,77925,1,0
360,328,78412,5,4
472,256,78880,2,2,B|512:192|456:120,1,130,8|0
352,64,79818,1,8
288,64,80052,2,0,B|200:144|112:24,1,195,0|2
144,232,81458,6,0,B|200:296,3,65,0|8|0|0
256,176,82630,2,0,B|256:104|264:104|336:104,1,130,8|0
464,104,83568,1,8
464,168,83802,2,8,B|464:224|464:224|408:224|408:224|408:272|408:272|360:272,1,195,0|8
320,312,84740,6,0,B|256:376|184:288,1,130
144,312,85443,1,8
136,184,85912,5,2
136,56,86380,2,0,B|272:56,1,130,8|0
400,56,87318,1,8
424,120,87552,2,0,B|368:168|288:144,2,130,2|2|2
464,240,88958,5,0
400,240,89193,1,8
304,328,89662,1,0
208,240,90130,1,8
304,152,90599,2,0,B|392:120,3,65,2|2|2|2
168,120,92005,5,2
168,248,92474,1,2
264,336,92943,1,8
328,320,93177,1,0
392,336,93412,5,4
472,232,93880,2,0,B|408:176|440:96,1,130,2|0
320,48,94818,1,8
200,104,95287,2,0,B|200:24,2,65,0|2|2
80,160,96224,1,2
128,280,96693,5,8
192,280,96927,1,0
248,256,97162,1,0
320,144,97630,2,0,B|320:96|320:96|416:96,1,130,8|0
464,208,98568,1,8
464,272,98802,2,0,B|368:304|256:232,1,195,0|8
272,176,99740,6,0,B|208:120|128:192,1,130
88,176,100443,1,8
176,272,100912,1,2
304,272,101380,1,8
432,264,101849,2,0,B|512:232|496:144,1,130,0|8
456,120,102552,5,2
336,64,103021,1,2
216,120,103490,1,2
160,232,103958,6,0,B|160:328,3,65,2|8|0|0
272,240,105130,1,8
272,240,105365,2,8,B|320:288|320:288|360:232,1,130,0|2
256,208,106302,12,4,108412
