osu file format v5

[General]
AudioFilename: Souljah Boy - Turn My Swagg On.mp3
AudioLeadIn: 0
PreviewTime: -1
Countdown: 1
SampleSet: Normal
StackLeniency: 0.7
Mode: 0
LetterboxInBreaks: 1
EditorBookmarks: 144435,183230
EditorDistanceSpacing: 1

[Metadata]
Title:Turn My Swag On
Artist:Soulja Boy
Creator:foulcoon
Version:Hard
Source:iSouljaBoyTellem
Tags:soulja boy awful terrible swag on ival

[Difficulty]
HPDrainRate:7
CircleSize:5
OverallDifficulty:7
SliderMultiplier:1.6
SliderTickRate:2

[Events]
//Background and Video events
0,0,"l_d56a7b26f3714f7f97967e9ca8232918.jpg"
//Break Periods
2,29835,41535
2,68237,73737
2,79437,79937
2,132237,143937
//Storyboard Layer 0 (Background)
//Storyboard Layer 1 (Failing)
//Storyboard Layer 2 (Passing)
//Storyboard Layer 3 (Foreground)
//Storyboard Sound Samples
//Background Colour Transformations
3,100,163,162,255

[TimingPoints]
835,400,4,1,0,100,1,0

[Colours]
Combo1 : 0,0,128
Combo2 : 244,230,51
Combo3 : 5,5,240
Combo4 : 204,192,113

[HitObjects]
165,38,4035,1,0
98,82,4235,1,0
64,154,4435,1,0
98,226,4635,1,0
157,279,4835,2,0,B|227:358|334:305,2,160,8|0|0
171,199,5835,1,0
208,128,6035,1,0
276,87,6235,1,0
354,99,6435,2,4,B|371:194|278:242,2,160,12|4|4
476,296,7635,5,0
328,357,8035,1,8
171,324,8435,1,0
100,361,8635,1,0
93,281,8835,1,0
200,160,9235,1,0
136,112,9435,1,0
200,64,9635,1,8
264,112,9835,1,0
200,160,10035,1,8
200,160,10235,1,0
200,160,10435,2,4,B|189:260|315:276,1,160
474,81,11235,5,8
256,192,11635,12,0,12435
352,56,12835,5,8
352,136,13035,1,0
304,200,13235,1,0
352,264,13435,1,0
400,200,13635,2,0,B|220:200,1,160,4|0
240,200,14435,1,8
256,192,14835,12,8,16035
348,44,16835,5,4
410,93,17035,1,0
349,144,17235,2,0,B|351:190|406:190,2,80,0|0|8
287,93,17835,1,0
229,36,18035,2,0,B|164:112|249:209,1,160
39,299,18835,5,0
106,342,19035,1,0
175,301,19235,2,0,B|359:301,1,160,8|0
407,101,20035,6,4,B|308:52|231:124,2,160,4|4|12
166,244,21235,5,0
97,203,21435,1,0
46,141,21635,2,0,B|41:46|176:45,1,160
153,126,22235,1,0
218,79,22435,1,8
218,158,22635,1,0
291,127,22835,1,8
293,206,23035,2,0,B|379:167,1,80,0|4
362,332,23635,1,0
497,246,24035,1,8
256,192,24435,12,8,25635
264,48,26035,5,0
208,104,26235,1,0
264,160,26435,2,0,B|264:257,2,80,4|0|0
384,48,27235,1,8
384,128,27435,1,0
393,209,27635,2,0,B|393:385,2,160
393,209,28835,1,8
393,209,29235,1,8
393,209,29635,1,4
256,64,42435,5,4
328,24,42635,1,0
328,104,42835,1,0
328,184,43035,1,0
328,264,43235,1,8
184,328,43635,2,2,B|520:328,1,320
477,252,44635,1,0
431,186,44835,1,8
322,68,45235,2,2,B|237:17|296:207|87:300,1,320
120,282,46435,1,8
480,32,47635,5,0
480,168,47835,1,0
376,32,48035,1,8
376,168,48235,1,2
272,32,48435,1,8
272,168,48635,1,2
272,328,48835,1,4
256,192,50035,12,4,52035
144,192,52435,5,0
205,140,52635,1,0
217,219,52835,2,0,B|262:315|355:294,1,160,8|0
342,296,53635,1,0
440,168,54035,1,0
472,96,54235,1,0
392,96,54435,1,8
360,168,54635,1,0
320,96,54835,2,4,B|146:96,1,160,12|4
96,207,55435,5,0
58,277,55635,1,0
111,336,55835,1,0
171,283,56035,2,0,B|179:231|217:209,1,80,8|0
260,275,56435,2,0,B|313:239|279:179,3,80
234,149,57235,1,4
182,87,57435,1,0
238,30,57635,1,12
479,348,58635,5,0
414,300,58835,1,0
341,265,59035,1,0
267,232,59235,2,0,B|186:167|107:192,1,160,8|0
167,125,59835,1,0
243,149,60035,2,2,B|248:218|148:265,2,120
243,149,60835,1,10
243,149,61235,1,8
452,43,61635,5,4
476,201,62035,2,0,B|493:260|446:287,1,80
385,251,62435,1,8
365,328,62635,1,0
157,219,63035,5,0
157,219,63235,2,0,B|85:146|169:69,2,160,0|0|8
157,219,64235,1,0
338,80,64635,5,0
338,80,64835,1,4
338,80,65035,1,0
393,137,65235,2,0,B|432:239|348:279,1,160,0|8
277,135,66035,2,0,B|238:237|322:277,1,160
315,273,66835,1,0
465,217,67235,1,8
465,217,67435,1,0
465,217,67635,2,0,B|465:122,2,80,8|0|4
324,171,74635,5,0
324,251,74835,1,0
324,331,75035,1,0
258,284,75235,2,0,B|242:188|161:154,2,160,8|0|4
40,40,76635,5,0
80,112,76835,1,8
128,176,77035,1,0
184,112,77235,1,0
224,40,77435,1,0
264,112,77635,2,2,B|273:206|400:224,1,160,6|2
424,161,78235,1,0
473,224,78435,1,8
421,285,78635,1,0
352,326,78835,2,4,B|182:326,1,160
40,32,80835,5,0
112,64,81035,1,0
112,144,81235,1,0
40,184,81435,1,0
40,104,81635,2,0,B|240:104,1,160,8|0
200,104,82435,1,0
316,298,82835,5,0
391,323,83035,1,0
467,299,83235,2,0,B|409:248|517:212|452:138,1,160,8|0
216,40,84035,5,4
128,176,84435,1,0
296,176,84835,1,8
90,303,85235,5,0
160,265,85435,1,0
157,344,85635,2,0,B|230:377|326:343,1,160
284,272,86235,1,0
362,288,86435,1,8
343,210,86635,1,0
309,137,86835,1,8
384,109,87035,2,0,B|338:37,1,80,0|4
256,192,87635,5,0
256,192,88035,1,8
256,192,88435,12,8,89635
344,120,90035,5,0
330,198,90235,1,0
312,275,90435,2,0,B|145:276,1,160,4|0
152,275,91235,1,8
256,192,91635,12,8,93235
95,331,93635,5,4
126,257,93835,1,0
189,208,94035,1,0
268,201,94235,1,0
346,213,94435,2,0,B|433:242|441:355,1,160,8|0
289,273,95235,2,0,B|384:301|463:241,1,160
412,180,95835,1,0
367,113,96035,2,0,B|340:72|291:85,1,80,8|0
298,83,96435,1,0
82,233,96835,5,4
230,292,97235,1,0
379,235,97635,1,8
165,52,98035,5,0
109,109,98235,1,0
167,163,98435,2,2,B|163:271|284:304,1,160
286,221,99035,1,0
323,291,99235,2,10,B|408:266|401:157,1,160
401,166,99835,1,0
401,166,100035,1,4
401,166,100235,1,0
401,166,100435,1,4
256,192,101235,12,8,102435
204,107,102835,6,0,B|245:73|291:119,2,80,0|0|4
248,173,103435,1,0
302,231,103635,1,0
354,291,103835,2,0,B|261:292,1,80,0|8
256,192,104435,12,4,106435
400,104,107035,5,0
440,32,107235,1,8
360,32,107435,1,0
312,96,107635,2,2,B|304:192|160:88|128:240,1,240
133,221,108435,1,0
261,318,108835,1,8
261,318,109035,1,0
88,32,109635,5,4
32,184,110035,1,0
88,336,110435,1,8
136,272,110635,5,0
184,336,110835,1,0
232,272,111035,1,0
184,208,111235,1,0
128,144,111435,1,0
184,88,111635,1,0
240,144,111835,1,0
184,208,112035,1,8
136,272,112235,1,0
88,336,112435,2,0,B|-8:336,2,80,8|0|4
88,336,113235,1,0
88,336,113635,1,8
256,192,114035,12,0,115635
398,68,116035,5,4
348,131,116235,1,0
348,131,116335,1,0
348,131,116435,1,0
270,151,116635,1,0
193,128,116835,1,8
120,93,117035,1,0
40,85,117235,2,2,B|3:176|122:181|244:171|287:287,1,320
378,136,118435,1,12
421,203,118635,1,0
271,256,119035,1,0
315,322,119235,1,4
157,327,119435,5,0
86,289,119635,1,0
148,239,119835,1,0
74,208,120035,1,8
123,144,120235,1,0
123,144,120335,1,0
123,144,120435,2,0,B|204:69|285:192|438:137,1,320
431,139,121635,1,12
469,208,121835,1,0
320,267,122235,1,0
320,267,122435,5,4
171,327,122835,1,0
101,286,123035,1,0
168,243,123235,2,0,B|191:169|118:158,1,80,8|0
76,192,123635,2,0,B|39:144|105:96,3,80
122,52,124435,1,0
191,12,124635,1,0
195,91,124835,2,0,B|306:91,2,80,8|0|8
195,91,125435,1,0
195,91,125635,1,4
256,192,126035,5,0
256,192,126435,1,8
256,192,126835,12,0,128435
134,71,128835,5,0
88,136,129035,1,0
88,136,129135,1,0
88,136,129235,1,0
165,156,129435,1,0
114,217,129635,1,8
178,265,129835,2,0,B|225:296,2,40
431,63,130635,5,0
431,63,130835,1,0
371,211,131235,1,8
326,277,131435,1,0
255,239,131635,2,0,B|226:183|155:189,1,80,8|0
167,266,132035,1,4
256,40,144835,5,4
136,152,145235,1,0
96,224,145435,1,0
176,224,145635,1,8
336,224,146035,1,0
296,152,146235,1,0
376,152,146435,1,2
256,264,146835,5,4
168,128,147235,1,8
328,128,147635,5,0
288,200,147835,1,0
248,128,148035,1,6
96,334,148435,5,0
34,282,148635,1,0
34,202,148835,2,0,B|2:172|68:154|14:115,1,80,8|0
97,170,149235,2,0,B|129:140|63:122|117:83,1,80
170,137,149635,2,0,B|138:107|204:89|150:50,1,80
231,108,150035,2,0,B|263:78|197:60|251:21,1,80
302,78,150435,2,0,B|270:48|336:30|282:-9,1,80,8|0
363,50,150835,1,8
363,50,151035,1,0
363,50,151235,1,4
256,192,152435,12,4,154435
256,192,154835,5,0
176,192,155035,1,0
256,192,155235,1,8
336,192,155435,1,0
256,192,155635,12,0,157235
104,256,157635,5,4
148,323,157835,1,0
220,357,158035,1,0
292,323,158235,1,0
345,264,158435,2,0,B|424:194|371:87,2,160,8|0|0
265,250,159435,1,0
194,213,159635,1,0
153,145,159835,1,0
165,67,160035,2,0,B|260:50|308:143,2,160,8|0|4
408,32,161235,5,0
336,176,161635,1,8
496,176,162035,5,0
456,104,162235,1,0
416,176,162435,1,0
296,280,162835,1,0
256,344,163035,1,0
208,280,163235,1,8
256,216,163435,1,0
256,216,163635,1,8
256,216,163835,1,0
256,216,164035,2,4,B|356:227|372:101,2,160,4|4|12
256,192,165235,12,0,166035
120,96,166435,5,8
200,96,166635,1,0
264,144,166835,1,0
328,96,167035,1,0
264,48,167235,2,0,B|264:228,1,160,4|0
264,208,168035,1,8
256,192,168435,12,8,169635
108,100,170435,5,4
157,38,170635,1,0
208,99,170835,2,0,B|254:97|254:42,2,80,0|0|8
157,161,171435,1,0
100,219,171635,2,0,B|176:284|273:199,1,160
408,296,172435,5,0
472,248,172635,1,0
408,200,172835,2,0,B|408:16,1,160,8|0
138,38,173635,6,4,B|89:137|161:214,2,160,4|4|12
405,262,174835,5,0
335,301,175035,1,0
327,221,175235,2,2,B|232:226|231:91,1,160,6|2
216,37,175835,1,0
174,105,176035,1,8
174,184,176235,1,0
212,253,176435,1,8
282,291,176635,2,0,B|381:307,1,80,0|4
454,173,177235,1,0
375,33,177635,1,8
256,192,178035,12,8,179235
112,184,179635,5,0
168,240,179835,1,0
224,184,180035,2,0,B|321:184,2,80,4|0|0
112,64,180835,1,8
192,64,181035,1,0
271,65,181235,2,0,B|447:65,2,160
225,260,182435,1,8
225,260,182635,1,0
225,259,182835,1,8
293,300,183035,1,0
293,300,183135,1,0
293,300,183235,1,4
