osu file format v5

[General]
AudioFilename: Souljah Boy - Turn My Swagg On.mp3
AudioLeadIn: 0
PreviewTime: 3935
Countdown: 1
SampleSet: Normal
StackLeniency: 0.7
Mode: 0
LetterboxInBreaks: 1
EditorBookmarks: 80435,106434,183230
EditorDistanceSpacing: 1

[Metadata]
Title:Turn My Swag On
Artist:Soulja Boy
Creator:foulcoon
Version:ASH Normal
Source:iSouljaBoyTellem
Tags:soulja boy terrible awful suck swag on ival

[Difficulty]
HPDrainRate:3
CircleSize:4
OverallDifficulty:4
SliderMultiplier:1.3
SliderTickRate:2

[Events]
//Background and Video events
0,0,"l_d56a7b26f3714f7f97967e9ca8232918.jpg"
//Break Periods
2,29835,41315
2,68235,73315
2,132235,143715
//Storyboard Layer 0 (Background)
//Storyboard Layer 1 (Failing)
//Storyboard Layer 2 (Passing)
//Storyboard Layer 3 (Foreground)
//Storyboard Sound Samples
//Background Colour Transformations
3,100,163,162,255

[TimingPoints]
835,400,4,1,0,100,1,0

[Colours]
Combo1 : 0,0,128
Combo2 : 244,230,51
Combo3 : 5,5,240
Combo4 : 204,192,113

[HitObjects]
72,80,4035,1,0
72,144,4235,1,0
112,192,4435,1,0
240,192,4835,1,4
496,352,6035,5,0
432,352,6235,1,0
368,352,6435,2,2,B|296:296|360:224,1,130,2|6
40,344,8435,6,0,B|88:312|72:248,1,65
136,296,8835,2,0,B|184:280|176:224,1,65
240,256,9235,2,0,B|296:256|304:184,1,65
360,224,9635,2,0,B|408:224|408:160,1,65,8|0
456,224,10035,2,0,B|480:248|488:304,1,65,8|0
424,304,10435,5,0
296,304,10835,1,0
168,304,11235,1,8
168,176,11635,5,4
400,56,12435,5,0
272,56,12835,1,8
208,56,13035,1,0
336,56,13435,1,0
336,120,13635,1,0
336,248,14035,1,0
208,248,14435,1,8
80,248,14835,1,4
80,96,16835,5,0
128,56,17035,1,0
176,96,17235,2,0,B|272:96,1,65,8|0
304,96,17635,1,4
16,352,18835,5,2
144,352,19235,2,2,B|144:192,1,130,2|6
480,32,21235,5,0
432,80,21435,1,0
384,128,21635,1,4
256,128,22035,1,0
128,128,22435,1,8
80,176,22635,1,0
32,224,22835,1,8
96,224,23035,1,0
160,224,23235,5,4
288,224,23635,1,0
288,352,24035,1,8
416,352,24435,1,4
72,56,25835,6,0,B|280:56,2,195,0|4|0
72,120,27235,1,8
72,248,27635,1,0
200,248,28035,1,0
328,248,28435,1,0
456,248,28835,1,8
456,120,29235,1,8
328,120,29635,1,4
96,96,42635,5,0
160,96,42835,1,0
288,96,43235,1,8
224,208,43635,2,0,B|248:328|368:288|472:320,1,260
432,184,44835,5,8
304,184,45235,2,4,B|176:176|184:48,2,195,4|0|8
32,352,47635,5,4
160,352,48035,2,2,B|256:352,1,65
224,288,48435,2,2,B|152:288,1,65
96,288,48835,1,6
256,192,50035,12,4,52035
64,64,53235,5,4
448,64,54035,1,4
256,352,55235,5,0
256,288,55435,1,0
256,160,55835,1,0
256,96,56035,1,8
256,32,56235,1,0
384,32,56635,1,0
384,32,56835,1,0
384,160,57235,1,2
384,288,57635,1,2
256,352,58435,5,0
256,288,58635,1,0
256,160,59035,1,0
256,96,59235,1,8
256,32,59435,1,0
128,32,59835,1,0
128,32,60035,1,0
128,160,60435,1,2
128,288,60835,1,2
256,288,61235,6,2,B|256:104,1,130
256,24,62035,2,0,B|256:160,1,130,0|8
384,152,62835,2,2,B|240:152,1,130,2|2
120,152,63635,2,0,B|272:152,1,130,0|8
56,328,64835,5,0
120,328,65035,1,0
184,328,65235,1,0
264,224,65635,1,4
352,128,66035,1,0
440,224,66435,1,4
352,320,66835,1,0
352,128,67235,5,8
288,128,67435,1,0
224,128,67635,1,8
96,128,68035,1,4
256,192,74635,5,0
256,192,74835,1,0
256,64,75235,1,8
368,128,75635,1,4
368,256,76035,1,2
176,256,76635,5,0
176,256,76835,1,8
256,360,77235,1,8
384,360,77635,1,4
320,248,78035,1,0
192,248,78435,1,4
64,248,78835,1,0
128,136,79235,1,4
440,72,80835,5,0
440,136,81035,1,0
400,184,81235,1,0
272,184,81635,1,4
16,344,82835,5,0
80,344,83035,1,0
144,344,83235,2,2,B|216:288|152:216,1,130,2|6
472,336,85235,6,0,B|424:304|440:240,1,65
376,288,85635,2,0,B|328:272|336:216,1,65
272,248,86035,2,0,B|216:248|208:176,1,65
152,216,86435,2,0,B|104:216|104:152,1,65,8|0
56,216,86835,2,0,B|32:240|24:296,1,65,8|0
88,296,87235,5,0
216,296,87635,1,0
344,296,88035,1,8
344,168,88435,5,4
112,48,89235,5,0
240,48,89635,1,8
304,48,89835,1,0
176,48,90235,1,0
176,112,90435,1,0
176,240,90835,1,0
304,240,91235,1,8
432,240,91635,1,4
432,88,93635,5,0
384,48,93835,1,0
336,88,94035,2,0,B|240:88,1,65,8|0
208,88,94435,1,4
496,344,95635,5,2
368,344,96035,2,2,B|368:184,1,130,2|6
32,24,98035,5,0
80,72,98235,1,0
128,120,98435,1,4
256,120,98835,1,0
384,120,99235,1,8
432,168,99435,1,0
480,216,99635,1,8
416,216,99835,1,0
352,216,100035,5,4
224,216,100435,1,0
224,344,100835,1,8
96,344,101235,1,4
440,48,102635,6,0,B|232:48,2,195
440,112,104035,1,8
440,240,104435,1,8
312,240,104835,1,8
184,240,105235,1,8
56,240,105635,1,8
56,112,106035,1,8
184,112,106435,1,12
248,296,107035,5,0
312,296,107235,1,8
376,296,107435,1,0
256,192,107635,12,8,110435
136,104,110835,5,0
200,104,111035,1,0
200,168,111235,2,2,B|200:312,1,130
264,296,111835,2,2,B|360:160,1,130
272,184,112435,1,2
272,56,112835,5,8
400,56,113235,5,0
400,184,113635,5,0
256,192,114035,12,8,116835
256,192,117235,12,4,119235
256,192,119635,5,0
256,192,119835,1,0
256,192,120035,1,0
184,80,120435,6,2,B|184:-24|256:-24|320:-24|328:88,3,260
256,80,123035,1,0
256,144,123235,1,8
328,224,123635,1,0
288,272,123835,1,0
256,328,124035,1,8
176,224,124435,1,0
216,280,124635,1,0
256,328,124835,1,8
256,200,125235,1,0
256,264,125435,1,8
256,328,125635,1,0
184,80,126835,6,2,B|184:-24|256:-24|320:-24|328:88,3,260
256,192,129635,1,2
256,192,130035,12,4,132035
128,192,145035,5,0
128,192,145235,1,0
256,192,145635,1,8
384,192,146035,1,0
384,320,146435,1,2
256,320,146835,5,0
200,280,147035,1,0
184,216,147235,1,8
184,88,147635,1,8
312,88,148035,1,2
312,216,148435,5,0
368,192,148635,1,0
400,136,148835,1,8
272,136,149235,1,8
144,136,149635,1,2
144,200,149835,1,2
144,264,150035,1,10
256,200,150435,1,10
256,328,150835,1,10
368,264,151235,1,8
256,192,152435,12,14,154435
72,328,155635,5,4
456,56,156435,1,4
72,80,157635,5,0
72,144,157835,1,0
112,192,158035,1,0
176,192,158235,1,0
240,192,158435,1,4
496,352,159635,5,0
432,352,159835,1,0
368,352,160035,2,2,B|296:296|360:224,1,130,2|6
40,344,162035,6,0,B|88:312|72:248,1,65
136,296,162435,2,0,B|184:280|176:224,1,65
240,256,162835,2,0,B|296:256|304:184,1,65
360,224,163235,2,0,B|408:224|408:160,1,65,8|0
456,224,163635,2,0,B|480:248|488:304,1,65,8|0
424,304,164035,5,0
360,304,164235,1,0
296,304,164435,1,0
232,304,164635,1,0
168,304,164835,1,8
168,176,165235,5,4
400,56,166035,5,0
272,56,166435,1,8
208,56,166635,1,0
336,56,167035,1,0
336,120,167235,1,0
336,248,167635,1,0
208,248,168035,1,8
144,248,168235,1,0
80,248,168435,1,4
80,96,170435,5,0
128,56,170635,1,0
176,96,170835,2,0,B|272:96,1,65,8|0
304,96,171235,1,4
16,352,172435,5,2
144,352,172835,2,2,B|144:192,1,130,2|6
480,32,174435,5,0
432,80,174635,1,0
384,128,174835,1,4
256,128,175235,1,0
128,128,175635,1,8
80,176,175835,1,0
32,224,176035,1,8
96,224,176235,1,0
160,224,176435,5,4
288,224,176835,1,0
288,352,177235,1,8
416,352,177635,1,4
72,56,179035,6,0,B|280:56,2,195
72,120,180435,1,8
72,248,180835,1,8
200,248,181235,1,8
328,248,181635,1,8
456,248,182035,1,8
456,120,182435,1,8
328,120,182835,1,14
200,120,183235,1,4
