osu file format v5

[General]
AudioFilename: Soulja Boy feat Sammie - Kiss Me-Thru The Phone BMF.mp3
AudioLeadIn: 0
PreviewTime: -1
Countdown: 1
SampleSet: Normal
StackLeniency: 0.7
Mode: 0
LetterboxInBreaks: 1

[Metadata]
Title:Kiss Me Thru The Phone
Artist:Soulja Boy
Creator:Rolled
Version:Normal
Source:
Tags:featuring Sammie

[Difficulty]
HPDrainRate:4
CircleSize:4
OverallDifficulty:4
SliderMultiplier:1.3
SliderTickRate:2

[Events]
//Background and Video events
0,0,"tellem.jpg"
//Break Periods
2,89878,101158
2,153878,162158
//Storyboard Layer 0 (Background)
//Storyboard Layer 1 (Failing)
//Storyboard Layer 2 (Passing)
//Storyboard Layer 3 (Foreground)
//Storyboard Sound Samples
//Background Colour Transformations
3,100,163,162,255

[TimingPoints]
12875,400,4,1,0,80,1,0
64678,-100,4,2,0,100,0,0
89578,-100,4,1,0,80,0,0
115755,-100,4,2,0,100,0,0
127578,-100,4,2,2,80,0,0
127978,-100,4,2,0,100,0,0
139378,-100,4,1,0,70,0,0
141078,-100,4,2,0,100,0,0
141478,-100,4,2,0,100,0,0
142378,-100,4,1,0,70,0,0
142578,-100,4,2,0,100,0,0
143978,-100,4,1,0,70,0,0
144278,-100,4,2,0,100,0,0
145778,-100,4,1,0,70,0,0
147378,-100,4,2,0,100,0,0
148778,-100,4,1,0,70,0,0
148978,-100,4,2,0,100,0,0
150378,-100,4,1,0,70,0,0
150578,-100,4,2,0,100,0,0
152178,-100,4,1,0,70,0,0
153578,-100,4,2,0,100,0,0
163378,-100,4,1,0,80,0,0
166978,-100,4,2,0,100,0,0
188778,-100,4,2,1,90,0,0
189628,-100,4,2,1,60,0,0
190428,-100,4,2,1,30,0,0
191228,-100,4,2,1,10,0,0

[Colours]
Combo1 : 164,72,4
Combo2 : 3,226,43
Combo3 : 225,225,0

[HitObjects]
144,96,38475,1,4
240,176,38875,1,0
344,96,39275,1,8
408,208,39675,1,0
312,296,40075,1,4
88,168,40875,5,8
168,67,41275,1,0
281,129,41675,1,4
130,338,42475,6,0,B|63:300|72:224,1,130,8|0
149,126,43275,2,2,B|186:265|394:206,1,260,2|0
442,112,44475,1,0
353,16,44875,1,4
279,265,45675,5,8
154,227,46075,1,0
123,104,46475,2,0,B|194:-8|382:37,1,260,4|8
438,131,47675,1,0
379,245,48075,2,0,B|329:304|252:290,1,130,4|0
153,223,48875,5,8
153,223,49275,1,0
84,112,49675,1,8
208,48,50075,1,0
271,58,50275,1,0
323,96,50475,1,8
380,212,50875,1,0
314,324,51275,1,4
200,261,51675,5,2
297,174,52075,1,4
207,80,52475,1,2
85,126,52875,2,0,B|23:189|52:257,1,130,4|0
94,288,53475,1,0
155,308,53675,1,0
416,312,54475,5,8
368,272,54675,1,0
392,216,54875,1,0
336,96,55275,1,4
144,112,55875,1,0
104,160,56075,1,8
120,288,56475,1,0
168,328,56675,1,0
232,336,56875,1,4
336,48,57675,6,0,B|256:40|208:104,1,130,8|0
160,208,58475,2,0,B|240:240|304:152,1,130,8|0
400,128,59275,1,8
400,128,59475,1,0
400,128,59675,1,0
392,256,60075,1,8
280,328,60475,1,0
152,312,60875,1,8
256,192,61075,12,4,64075
144,64,64875,6,0,B|72:112|80:184,1,130,8|8
192,248,65675,1,4
376,160,66475,6,0,B|448:208|440:280,1,130,8|8
320,336,67275,1,4
72,216,68075,6,0,B|96:88|216:32|320:32|288:40,1,260,8|2
344,136,69275,1,2
232,208,69675,1,2
344,280,70075,1,2
464,336,70475,1,4
152,272,71275,6,0,B|104:208|152:152,2,130,8|8|4
352,104,72875,1,8
448,192,73275,1,8
360,288,73675,1,4
104,256,74475,5,8
104,256,74875,1,8
40,144,75275,1,2
152,88,75675,1,0
224,176,76075,1,2
248,64,76475,1,0
112,72,76875,6,0,B|56:168|128:264,1,195,4|0
88,320,77675,2,0,B|176:392|288:312,1,195,2|0
216,272,78475,2,0,B|200:192|296:160|368:192,1,195,2|0
336,256,79275,2,0,B|416:272|464:200|432:104,1,195,2|0
488,80,80075,6,0,B|448:32|376:48|352:96|288:56,1,195,4|0
256,8,80875,2,4,B|200:56|240:120|256:128,2,130,2|2|4
128,64,82075,1,8
32,168,82475,1,2
120,280,82875,1,8
256,328,83275,6,0,B|360:312|384:192,1,195,4|0
448,168,84075,2,0,B|416:104|336:120|320:152|264:104,1,195,2|0
256,40,84875,2,0,B|160:64|240:168|104:176,1,195,2|0
72,128,85675,2,0,B|24:200|96:256,2,130,2|2|4
296,264,87275,1,4
432,40,88075,1,4
176,88,88875,1,2
72,168,89275,1,2
120,288,89675,1,4
144,160,102475,5,4
328,336,103275,1,8
448,280,103675,1,0
416,152,104075,1,4
200,64,104875,5,8
88,96,105275,1,0
96,208,105675,1,4
304,328,106475,1,8
272,96,107275,1,4
464,224,108075,1,8
208,192,108875,5,4
104,272,109275,1,0
48,152,109675,2,0,B|56:64|136:40,1,130,8|0
224,112,110475,1,4
352,88,110875,1,0
440,184,111275,2,0,B|456:280|376:288,1,130,8|0
256,256,112075,1,0
256,192,112475,12,4,115275
440,192,116075,6,8,B|456:120|392:72,1,130
288,144,116875,1,4
56,336,117675,6,8,B|40:264|104:216,1,130
224,248,118475,1,4
480,280,119275,5,8
496,152,119675,1,8
416,48,120075,2,4,B|312:56|272:184|168:168,1,260,4|2
64,152,121275,1,2
104,288,121675,1,4
384,224,122475,5,8
328,88,122875,2,0,B|264:40,1,65,8|0
208,48,123275,1,4
48,216,124075,5,8
192,232,124475,2,0,B|256:280,1,65,8|0
312,272,124875,1,4
408,32,125675,5,8
280,56,126075,1,8
200,160,126475,1,2
96,240,126875,1,0
184,328,127275,1,2
304,280,127675,1,0
416,216,128075,6,0,B|432:120|320:56,1,195,4|0
392,32,128875,2,0,B|400:120|344:152|264:160,1,195,2|0
216,112,129675,2,0,B|152:168|216:240|96:256,1,195,2|0
56,200,130475,2,0,B|0:256|64:328,2,130,2|2|6
200,40,131875,5,0
272,48,132075,2,0,B|320:112|264:176|360:232,1,195,2|0
416,208,132875,1,4
376,344,133275,1,2
240,304,133675,1,0
200,168,134075,1,2
64,136,134475,6,0,B|128:48|256:40,1,195,4|0
296,8,135275,2,0,B|344:96|216:120|248:184,1,195,2|0
184,216,136075,2,0,B|232:280|296:240|368:224,1,195,2|0
408,168,136875,2,0,B|472:216|424:296,2,130,2|2|4
272,48,138475,1,4
72,208,139275,1,4
320,288,140075,5,0
432,216,140475,1,0
392,88,140875,1,4
136,120,141675,5,2
200,232,142075,1,2
88,296,142475,1,4
344,280,143275,5,2
408,168,143675,1,2
328,64,144075,1,4
280,320,144875,5,2
168,256,145275,1,2
136,128,145675,2,0,B|240:40|392:96,1,260,2|8
416,216,146875,1,0
328,312,147275,1,4
192,96,148075,5,2
80,168,148475,1,2
120,296,148875,1,4
376,264,149675,5,2
312,152,150075,1,2
424,88,150475,1,4
168,104,151275,5,2
104,216,151675,1,2
184,320,152075,1,4
424,224,152875,1,0
264,16,153675,1,4
256,192,163475,12,4,166475
160,296,167275,6,8,B|232:352|328:328,1,130
336,304,167875,1,0
336,304,168075,1,4
448,72,168875,6,8,B|376:8|312:16,1,130
288,56,169475,1,0
288,56,169675,1,4
80,216,170475,6,8,B|56:288|128:328,1,130
176,288,171075,1,0
176,288,171275,1,2
248,168,171675,1,0
248,104,171875,1,2
304,80,172075,1,2
408,160,172475,1,2
328,264,172875,1,4
288,72,173675,6,8,B|216:16|120:40,1,130
112,64,174275,1,0
112,64,174475,1,4
48,312,175275,6,8,B|120:376|184:368,1,130
208,328,175875,1,0
208,328,176075,1,4
416,144,176875,6,8,B|440:72|368:32,1,130
320,72,177475,1,0
320,72,177675,1,2
280,200,178075,1,0
248,256,178275,1,2
192,280,178475,1,2
88,200,178875,1,2
168,96,179275,6,0,B|232:32|360:40,1,195,4|0
408,80,180075,2,0,B|416:168|328:208|352:272,1,195,2|0
416,288,180875,2,0,B|368:360|272:336|224:312,1,195,2|0
240,248,181675,2,0,B|160:256|160:336,2,130,2|0|4
344,56,183075,5,0
272,40,183275,2,0,B|176:56|128:184,1,195,2|0
80,216,184075,1,4
192,304,184475,1,0
192,160,184875,1,4
328,200,185275,1,0
352,48,185675,6,0,B|448:88|448:216,1,195,4|0
408,264,186475,2,0,B|344:336|224:336,1,195,2|0
160,320,187275,2,0,B|80:248|128:128,1,195,2|0
192,144,188075,1,2
320,208,188475,1,0
376,72,188875,6,0,B|248:16|112:80,3,260,4|2|2|0
