osu file format v9

[General]
AudioFilename: 11 pressure cooker.mp3
AudioLeadIn: 0
PreviewTime: 42300
Countdown: 0
SampleSet: Normal
StackLeniency: 0.7
Mode: 0
LetterboxInBreaks: 0

[Editor]
Bookmarks: 3900,11580,19260,26940,42300,57660,65340,80700,84540,86460,94140,101820,103740,111420,119100,134460,145980,149820,165180,172860,174780,190140,205500
DistanceSpacing: 0.8
BeatDivisor: 1
GridSize: 4

[Metadata]
Title:Pressure Cooker
Artist:SoulEye
Creator:Xgor
Version:Normal
Source:VVVVVV
Tags:chiptune 8bit pppppp Magnus Palsson Warp Zone

[Difficulty]
HPDrainRate:3
CircleSize:3
OverallDifficulty:3
ApproachRate:4
SliderMultiplier:1.6
SliderTickRate:1

[Events]
//Background and Video events
//Break Periods
2,57868,64028
2,103948,110108
2,146188,148508
//Storyboard Layer 0 (Background)
Sprite,Background,Centre,"Background.png",320,240 F,0,0,,0
//Storyboard Layer 1 (Fail)
//Storyboard Layer 2 (Pass)
//Storyboard Layer 3 (Foreground)
//Storyboard Sound Samples
//Background Colour Transformations
3,100,0,0,0

[TimingPoints]
68,480,4,2,0,70,1,0
3888,-117.647058823529,4,2,0,70,0,0
17328,-117.647058823529,4,1,0,41,0,0
19248,-100,4,1,0,70,0,0
84548,-100,4,1,2,70,0,0
86448,-100,4,1,0,70,0,0
101828,-100,4,1,2,70,0,0
103728,-133.333333333333,4,1,0,70,0,0
149808,-100,4,1,0,70,0,0
172868,-100,4,1,2,70,0,0
174768,-100,4,1,0,70,0,0
205508,-100,4,1,2,70,0,0

[HitObjects]
32,136,3428,1,0
56,32,3908,2,0,L|184:48|328:32|464:48,1,407.999982976914,4|8
456,152,5828,2,0,L|328:136|184:152|48:136,1,407.999982976914,2|8
48,240,7748,2,0,L|176:256|320:240|456:256,1,407.999982976914,0|8
448,360,9668,2,0,L|320:344|176:360|40:344,1,407.999982976914,0|8
112,256,11588,5,4
222,236,12068,1,8
202,126,12548,1,0
92,144,13028,1,8
56,40,13508,2,0,L|184:56|232:40|280:40|328:56|456:40,1,407.999982976914,2|8
432,144,15428,5,2
328,168,15908,1,8
416,224,16388,1,0
312,248,16868,1,8
368,336,17348,2,0,L|272:360|256:328|240:360|136:336,1,271.999988651276
48,288,18788,1,8
88,192,19268,5,4
152,104,19748,1,8
256,56,20228,2,0,L|238:117|254:147|316:164,1,160,0|8
424,192,21188,5,0
360,280,21668,1,8
256,328,22148,2,0,L|273:266|257:236|195:219,1,160,2|8
88,192,23108,5,0
152,104,23588,1,8
256,56,24068,2,0,L|311:27|343:38|372:95,1,160,0|8
424,192,25028,5,0
360,280,25508,1,8
256,328,25988,2,0,L|200:356|168:345|139:288,1,160,2|8
80,192,26948,5,2
80,192,27188,1,0
160,112,27668,2,8,L|200:72|304:72,1,160,0|8
416,192,28868,5,2
416,192,29108,1,0
360,280,29588,2,0,L|320:320|216:320,1,160,0|8
112,192,30788,5,2
112,192,31028,1,0
64,288,31508,2,0,L|8:240|8:144|64:104,1,240,0|8
168,56,32708,5,2
168,56,32948,1,0
152,168,33428,2,0,L|224:160|256:128|272:80,1,160,0|0
280,32,34148,1,8
392,32,34628,5,4
464,112,35108,2,0,L|488:192|464:264,1,160,8|4
400,352,36068,1,8
296,312,36548,5,2
296,312,36788,1,0
192,360,37268,2,0,L|104:336|64:296|48:184,1,240,2|8
88,96,38468,5,2
88,96,38708,1,0
200,80,39188,2,0,L|256:144|256:232|304:288,1,240,0|8
400,328,40388,6,0,L|480:328|408:232|408:152|480:56|392:56,1,480,4|0
296,56,42308,5,4
264,160,42788,1,8
232,272,43268,2,0,L|88:272,2,120,2|8|0
288,272,44228,5,0
320,160,44708,1,8
368,56,45188,2,0,L|496:56,2,120,2|8|2
312,56,46148,5,4
200,56,46628,1,8
144,152,47108,2,0,L|64:248,2,120,2|8|0
200,152,48068,5,0
312,152,48548,1,8
368,248,49028,2,0,L|448:344,2,120,2|8|2
312,248,49988,5,4
200,248,50468,1,8
88,248,50948,2,0,L|104:168|192:136,1,160,2|8
272,88,51908,5,0
384,88,52388,1,8
496,88,52868,2,0,L|480:168|392:200,1,160,2|8
340,285,53828,5,4
228,285,54308,1,8
116,285,54788,2,0,L|28:197,2,120,2|8|0
172,285,55748,5,0
284,285,56228,1,8
396,285,56708,2,0,L|484:197,2,120,2|8|2
360,328,57668,5,4
40,256,65348,5,4
112,344,65828,1,8
184,256,66308,2,0,L|272:256|312:184|384:184,1,240,2|2
440,184,67268,5,0
368,96,67748,1,8
256,96,68228,2,0,L|168:96|128:168|56:168,1,240,2|2
0,168,69188,5,4
56,264,69668,1,8
168,264,70148,2,0,L|256:264|296:336|368:336,1,240,2|8
424,336,71108,5,0
384,224,71588,1,8
344,120,72068,2,0,L|256:120|216:48|144:48,1,240,2|8
88,48,73028,6,0,L|136:136|136:176|176:272,1,240,4|0
200,320,73988,1,2
312,320,74468,1,8
408,264,74948,6,0,L|432:192|408:112,1,160,4|8
312,56,75908,1,2
256,40,76148,1,0
200,56,76388,1,8
104,112,76868,6,0,L|144:192|192:192|232:288,1,240,4|0
256,336,77828,1,2
368,336,78308,1,8
448,240,78788,6,0,L|432:176|392:152|336:144,1,160,4|8
272,248,79748,1,2
216,272,79988,1,2
160,248,80228,1,8
104,128,80708,6,0,L|104:72|136:40|200:40,1,160,4|0
320,40,81668,2,0,L|376:40|408:72|408:136,1,160,0|8
408,256,82628,2,0,L|408:312|376:344|312:344,1,160
192,344,83588,2,0,L|136:344|104:312|104:248,1,160,0|8
256,192,84548,5,2
256,192,85988,1,4
368,128,86468,6,0,L|352:144|384:176|368:192|368:264,1,160,4|8
256,320,87428,1,0
136,376,87908,1,8
136,256,88388,6,0,L|152:240|120:208|136:192|136:120,1,160,0|8
256,64,89348,1,0
376,8,89828,1,8
456,120,90308,6,0,L|440:104|408:136|392:120|320:120,1,160,0|8
200,88,91268,1,0
88,144,91748,1,8
56,256,92228,6,0,L|72:272|104:240|120:256|192:256,1,160,0|8
312,288,93188,1,0
432,240,93668,1,8
368,128,94148,5,0
256,72,94628,1,8
256,192,95108,1,0
256,192,95348,1,0
256,192,95588,1,8
144,128,96068,5,0
144,256,96548,1,8
256,192,97028,1,0
256,192,97268,1,8
256,192,97508,1,8
256,320,97988,5,0
368,256,98468,1,8
256,192,98948,1,0
256,192,99188,1,0
256,192,99428,1,8
128,192,99908,5,0
192,80,100388,1,8
320,80,100868,1,0
368,128,101108,1,8
384,192,101348,1,8
256,192,101828,5,2
256,192,103268,1,4
256,288,103748,5,4
416,112,111428,6,0,B|312:40|184:80,1,239.999992847443,4|0
136,176,112868,1,8
96,272,113348,2,0,B|200:344|328:304,1,239.999992847443
376,208,114788,1,0
368,104,115268,6,0,B|280:0|152:48,1,239.999992847443
88,136,116708,1,8
152,224,117188,2,0,B|239:327|367:280,1,239.999992847443
432,192,118628,1,0
440,96,119108,6,0,B|256:168|256:40|80:104,1,359.999989271164,4|8
128,192,121028,1,0
216,256,121508,1,8
304,192,121988,1,0
392,256,122468,1,8
408,152,122948,6,0,B|336:88|336:88|256:136|176:88|176:88|104:152,1,359.999989271164,4|8
128,256,124868,1,0
200,336,125348,1,8
320,336,125828,1,0
392,256,126308,1,8
420,152,126788,6,0,B|336:264|256:-40|176:264|92:152,1,359.999989271164,0|8
96,64,128708,1,0
200,64,129188,1,8
304,64,129668,1,0
408,64,130148,1,8
368,152,130628,6,0,B|296:112|320:192|256:208|256:104|192:120|224:192|136:152,3,239.999992847443,4|0|4|0
472,272,134468,6,0,B|416:360|240:360,1,239.999992847443
160,312,135908,1,8
120,280,136148,1,0
80,248,136388,2,0,B|136:160|312:160,1,239.999992847443,2|2
392,120,137828,1,8
320,40,138308,6,0,B|256:8|184:48,1,119.999996423721,2|8
144,128,139268,1,2
104,224,139748,1,8
120,272,139988,1,0
160,304,140228,2,0,B|240:320|240:280|344:304,2,179.999994635582,2|8|2
104,224,142148,6,0,B|128:120|224:104,1,179.999994635582,4|8
290,104,143108,2,0,B|384:119|408:223,1,179.999994635582,4|8
256,192,144068,8,4,145988
48,72,149828,5,2
48,72,150068,1,0
176,72,150548,1,0
304,72,151028,1,8
464,184,151748,5,2
464,184,151988,1,0
336,184,152468,1,0
208,184,152948,1,8
48,288,153668,5,2
48,288,153908,1,0
176,288,154388,2,0,L|250:323|320:288,1,160
383,288,155108,1,8
384,160,155588,5,2
384,160,155828,1,0
256,160,156308,1,0
128,160,156788,2,0,B|48:160|48:160|48:240|48:240,1,160,0|8
64,304,157508,5,4
176,360,157988,2,0,L|264:360,1,80,8|0
320,360,158468,1,4
408,272,158948,2,0,L|408:192,1,80,8|0
408,128,159428,5,2
408,128,159668,1,0
304,48,160148,2,0,B|256:96|256:96|256:184|256:184|200:248|200:248,1,240,2|8
80,288,161348,5,2
80,288,161588,1,0
192,352,162068,1,0
320,352,162548,2,0,B|392:352|392:352|440:280|440:280,1,160
448,216,163268,6,0,B|368:116|368:116|144:116|144:116|64:216,1,480,4|0
0,368,165188,5,4
128,368,165668,1,8
256,368,166148,2,0,B|336:376|336:376|336:360|336:360|408:368,1,160,0|8
512,272,167108,5,0
384,272,167588,1,8
264,264,168068,2,0,B|184:272|184:272|184:256|184:256|112:264,1,160,0|8
0,168,169028,5,2
128,168,169508,1,8
256,168,169988,2,0,B|336:176|336:176|336:160|336:160|408:168,1,160,0|8
512,72,170948,5,0
384,72,171428,1,8
256,64,171908,2,0,B|176:72|176:72|176:56|176:56|104:64,1,160,0|8
256,144,172868,5,2
256,144,174308,2,0,B|336:144,1,80,2|4
396,144,174788,5,4
312,244,175268,1,8
232,348,175748,2,0,L|88:348,2,120,2|8|0
284,344,176708,5,4
200,244,177188,1,8
120,140,177668,2,0,L|-24:140,2,120,2|8|0
128,76,178628,5,4
256,76,179108,1,8
384,76,179588,2,0,L|504:76,2,120,2|8|0
320,104,180548,5,0
256,216,181028,1,8
192,328,181508,2,0,L|72:328,2,120,2|8|0
256,328,182468,5,4
368,264,182948,1,8
464,176,183428,2,0,B|448:104|448:104|368:72|368:72,1,160,2|8
256,24,184388,5,0
144,88,184868,1,8
48,176,185348,2,0,B|64:248|64:248|144:280|144:280,1,160,2|8
256,304,186308,5,4
352,224,186788,1,8
256,144,187268,2,0,L|256:0,2,120,2|8|0
256,208,188228,5,0
152,128,188708,1,8
48,208,189188,2,0,L|48:352,2,120,2|8|0
48,144,190148,5,4
152,64,190628,1,8
248,144,191108,2,0,L|344:144|368:80|448:80,1,240,2|8
504,80,192068,5,0
440,192,192548,1,8
320,232,193028,2,0,L|240:232|208:296|112:296,1,240,2|2
56,296,193988,5,4
8,176,194468,1,8
56,56,194948,2,0,B|136:56|136:56|168:120|168:120|256:120|256:120,1,240,2|8
320,120,195908,5,0
432,176,196388,1,8
328,232,196868,2,0,B|240:232|240:232|208:304|208:304|120:304,1,240,2|2
96,248,197828,6,0,B|169:248|169:248|201:176|201:176|289:176,1,240,4|0
352,176,198788,1,2
456,104,199268,1,8
336,64,199748,6,0,B|176:64,1,160,0|8
56,112,200708,1,2
40,176,200948,1,0
56,240,201188,1,8
164,307,201668,6,0,B|204:307|204:307|220:267|220:267|292:267|292:267|308:307|308:307|348:307,1,240,4|0
413,306,202628,1,2
432,176,203108,1,8
416,48,203588,6,0,L|256:48,1,160,0|8
144,120,204548,1,2
112,176,204788,1,0
144,232,205028,1,8
256,176,205508,5,2
256,176,206948,1,6
