osu file format v9

[General]
AudioFilename: 11 pressure cooker.mp3
AudioLeadIn: 0
PreviewTime: 42300
Countdown: 0
SampleSet: Normal
StackLeniency: 0.7
Mode: 0
LetterboxInBreaks: 0

[Editor]
Bookmarks: 3900,11580,19260,26940,42300,57660,65340,80700,84540,86460,94140,101820,103740,111420,119100,134460,145980,149820,165180,172860,174780,190140,205500,207900
DistanceSpacing: 0.8
BeatDivisor: 2
GridSize: 4

[Metadata]
Title:Pressure Cooker
Artist:SoulEye
Creator:Xgor
Version:Easy
Source:VVVVVV
Tags:chiptune 8bit pppppp Magnus Palsson Warp Zone

[Difficulty]
HPDrainRate:2
CircleSize:3
OverallDifficulty:2
ApproachRate:3
SliderMultiplier:1.4
SliderTickRate:1

[Events]
//Background and Video events
//Break Periods
2,57868,63908
2,103948,109988
2,146188,148388
//Storyboard Layer 0 (Background)
Sprite,Background,Centre,"Background.png",320,240 F,0,0,,0
//Storyboard Layer 1 (Fail)
//Storyboard Layer 2 (Pass)
//Storyboard Layer 3 (Foreground)
//Storyboard Sound Samples
//Background Colour Transformations
3,100,0,0,0

[TimingPoints]
68,480,4,2,0,70,1,0
3888,-133.333333333333,4,2,0,70,0,0
18288,-133.333333333333,4,1,0,41,0,0
19248,-100,4,1,0,70,0,0
84548,-100,4,1,2,70,0,0
86448,-100,4,1,0,70,0,0
101828,-100,4,1,2,70,0,0
103728,-133.333333333333,4,1,0,70,0,0
149808,-100,4,1,0,70,0,0
172868,-100,4,1,2,70,0,0
174788,-100,4,1,0,70,0,0
205508,-100,4,1,2,70,0,0

[HitObjects]
32,128,3908,6,0,L|88:216|144:128,1,209.999993741512,2|8
144,272,5828,2,0,L|200:360|256:272,1,209.999993741512,2|8
256,120,7748,6,0,L|312:208|368:120,1,209.999993741512,2|8
368,264,9668,2,0,L|424:352|480:264,1,209.999993741512,2|10
400,112,11588,5,4
256,32,12548,1,8
256,200,13508,5,4
112,112,14468,1,8
96,280,15428,6,0,L|240:328|408:328,1,314.999990612269,2|8
408,240,17348,2,0,B|296:232,1,104.999996870756,2|8
208,224,18308,2,0,B|104:216,1,104.999996870756,0|8
72,136,19268,6,0,L|216:136|256:80|296:136|456:136,1,420,4|8
440,248,21188,2,0,L|296:248|256:304|216:248|56:248,1,420,0|8
72,136,23108,6,0,L|200:72|256:112|312:72|440:136,1,420,4|8
440,248,25028,2,0,L|312:312|256:272|200:312|72:248,1,420,0|8
16,168,26948,5,0
160,40,27908,1,8
352,40,28868,5,0
496,168,29828,1,8
352,304,30788,5,0
160,304,31748,1,8
72,264,32228,1,8
32,176,32708,6,0,L|104:192|168:168|240:184,2,210,2|2|8
104,104,34628,5,4
184,56,35108,2,0,L|232:56|256:48|280:56|320:56,1,140,8|4
408,96,36068,5,8
480,168,36548,2,0,L|480:240|472:256|456:272|440:280|360:280,2,210,2|2|8
384,184,38468,5,0
256,32,39428,1,8
136,184,40388,2,0,L|176:224|136:264|176:304|376:304|416:264,1,420,4|8
472,192,42308,5,4
288,120,43268,2,0,L|288:264,1,140,2|8
368,192,44228,5,0
208,120,45188,2,0,L|208:272,1,140,2|8
288,192,46148,5,4
128,120,47108,2,0,L|128:264,1,140,2|8
208,192,48068,5,0
48,120,49028,2,0,L|48:264,1,140,2|8
144,288,49988,5,4
336,288,50948,1,8
384,96,51908,5,0
192,96,52868,1,8
40,216,53828,5,4
184,344,54788,2,0,L|328:344,1,140,2|8
400,280,55748,5,0
328,96,56708,2,0,L|184:96,1,140,2|8
256,176,57668,5,0
40,48,65348,5,4
232,48,66308,2,0,L|376:48,1,140,2|8
432,128,67268,5,0
240,128,68228,2,0,L|96:128,1,140,2|8
40,208,69188,5,4
176,352,70148,2,0,L|176:208,1,140,2|8
272,208,71108,5,0
408,352,72068,2,0,L|408:208,1,140,2|8
344,144,73028,5,4
168,56,73988,1,2
80,104,74468,1,8
40,192,74948,5,0
160,344,75908,1,8
256,360,76388,1,8
352,344,76868,5,4
472,192,77828,1,2
432,104,78308,1,8
344,56,78788,5,0
168,144,79748,1,8
168,240,80228,1,8
256,272,80708,6,0,L|360:304|448:272|448:192,1,280,4|0
256,112,82628,2,0,L|152:80|64:112|64:192,1,280
256,192,84548,5,2
256,192,85988,1,4
320,120,86468,6,0,L|464:120,1,140,4|8
352,288,87908,1,8
160,288,88868,1,8
56,112,89828,6,0,L|224:112,1,140,8|0
144,192,90788,1,8
256,352,91748,1,8
368,192,92708,1,8
256,32,93668,1,8
160,40,94148,5,4
112,128,94628,1,8
160,320,95588,1,8
352,320,96548,1,8
400,128,97508,1,8
352,40,97988,5,4
256,32,98468,1,8
72,96,99428,1,8
72,288,100388,1,8
256,344,101348,1,8
256,248,101828,5,2
256,248,103268,1,4
256,160,103748,1,4
160,288,111428,6,0,B|256:363|353:287,1,209.999993741512,0|8
448,152,113348,2,0,B|352:77|255:153,1,209.999993741512,0|8
160,288,115268,6,0,B|256:363|353:287,1,209.999993741512,0|8
256,152,117188,2,0,B|160:77|63:153,1,209.999993741512,0|8
160,288,119108,6,0,B|256:363|353:287,1,209.999993741512,0|8
408,224,120548,1,0
352,160,121028,2,0,B|255:84|159:159,1,209.999993741512,0|8
256,288,122948,6,0,B|375:300|427:184,1,209.999993741512,0|8
435,105,124388,1,0
354,79,124868,2,0,B|234:66|182:182,1,209.999993741512
248,336,126788,6,0,B|129:319|106:194,1,209.999993741512,0|8
117,115,128228,1,0
202,109,128708,2,0,B|320:125|343:250,1,209.999993741512
504,296,130628,6,0,B|480:232|520:184|488:88,3,209.999993741512,0|8|0|8
360,192,134468,6,0,B|304:280|176:272,1,209.999993741512,4|8
104,224,135908,1,0
120,144,136388,2,0,B|176:56|304:64,1,209.999993741512,0|8
368,112,137828,1,0
416,184,138308,6,0,B|408:312|288:344,1,209.999993741512,0|8
216,312,139748,1,0
144,272,140228,2,0,L|40:232,1,104.999996870756,0|0
45,149,141188,2,0,L|144:112,1,104.999996870756,8|0
224,80,142148,6,0,B|320:120|344:192|320:272|224:312,1,314.999990612269,2|2
256,192,144068,12,4,145988
112,192,149828,5,0
256,328,150788,1,8
392,192,151748,5,0
256,56,152708,1,8
160,224,153668,6,0,L|88:208|56:176|40:88,2,210,0|8|8
156,128,155588,2,0,L|208:136|256:160|304:136|356:128,1,210,2|2
488,192,157028,1,8
432,272,157508,6,0,L|296:328,1,140,4|8
209,325,158468,2,0,L|80:272,1,140,4|8
112,176,159428,2,0,L|192:144|256:136|256:256|320:248|400:208,1,420,2|8
432,120,161348,5,0
256,32,162308,1,8
160,56,162788,1,0
104,136,163268,2,0,L|104:216|120:264|152:296|200:312|256:312,1,280,4|2
368,144,165188,6,0,L|344:104|272:104|288:144|192:144|176:104|99:104|114:151,1,420,4|8
136,240,167108,2,0,L|160:280|232:280|216:240|312:240|328:280|405:280|390:233,1,420,0|8
416,144,169028,6,0,L|336:72|296:72|272:112|240:112|216:72|176:72|96:144,1,420,4|8
96,240,170948,2,0,L|176:312|216:312|240:272|272:272|296:312|336:312|416:240,1,420,0|8
328,192,172868,5,2
328,192,174308,1,2
400,120,174788,5,4
464,304,175748,2,0,L|320:304,1,140,2|8
224,304,176708,5,0
288,120,177668,2,0,L|144:120,1,140,2|8
80,184,178628,5,4
184,344,179588,2,0,L|328:344,1,140,2|8
384,264,180548,5,0
320,80,181508,2,0,L|168:80,1,140,2|8
88,120,182468,5,4
160,304,183428,1,2
256,328,183908,1,8
352,304,184388,5,0
448,136,185348,1,2
352,104,185828,1,0
256,136,186308,5,4
352,304,187268,1,2
256,328,187748,1,8
160,304,188228,5,0
256,136,189188,1,2
160,104,189668,1,8
64,136,190148,6,0,L|104:216|216:216|256:288,1,280,4|2
336,240,191588,1,8
416,192,192068,6,0,L|376:112|264:112|224:40,1,280,0|2
136,72,193508,1,8
48,120,193988,6,0,L|87:204|170:181|208:273,1,280,4|2
256,360,195428,1,8
303,273,195908,6,0,L|341:181|424:204|464:120,1,280,0|2
408,40,197348,1,8
328,88,197828,6,0,L|184:88,1,140,4|0
128,168,198788,2,0,L|280:168,1,140,2|8
328,248,199748,6,0,L|184:248,1,140,0|0
128,328,200708,2,0,L|272:328,1,140,2|8
368,328,201668,5,4
496,184,202628,2,0,L|496:40,1,140,2|8
400,56,203588,5,0
312,104,204068,1,0
256,184,204548,1,2
200,104,205028,1,8
112,56,205508,5,2
112,56,206948,1,6
