osu file format v7

[General]
AudioFilename: 07 positive force.mp3
AudioLeadIn: 0
PreviewTime: 13694
Countdown: 0
SampleSet: Soft
StackLeniency: 0.7
Mode: 0
LetterboxInBreaks: 0

[Editor]
Bookmarks: 59122
DistanceSpacing: 0.899999976158142
BeatDivisor: 4
GridSize: 8

[Metadata]
Title:Positive force
Artist:SoulEye
Creator:Garven
Version:Hard
Source:VVVVVV
Tags:chiptune 8bit pppppp al2e10 lepidopodus

[Difficulty]
HPDrainRate:6
CircleSize:5
OverallDifficulty:6
SliderMultiplier:1.5
SliderTickRate:1

[Events]
//Background and Video events
0,0,"vvvvvvbg.png"
//Break Periods
2,67894,74358
2,130465,132644
//Storyboard Layer 0 (Background)
//Storyboard Layer 1 (Fail)
//Storyboard Layer 2 (Pass)
//Storyboard Layer 3 (Foreground)
//Storyboard Sound Samples
//Background Colour Transformations
3,100,163,162,255

[TimingPoints]
-20,428.571428571429,4,2,0,56,1,0
5872,-100,4,1,0,56,0,0
6944,-100,4,2,0,56,0,0
12730,-100,4,1,0,56,0,0
54730,-100,4,2,0,81,0,0
54944,-100,4,1,0,56,0,0
75301,-100,4,2,0,56,0,0
75515,-100,4,1,0,56,0,0
87622,-100,4,1,0,50,0,0
88051,-100,4,1,0,46,0,0
88480,-100,4,1,0,40,0,0
89015,-200,4,2,0,56,0,0
94158,-100,4,1,0,40,0,0
94801,-100,4,1,0,46,0,0
95230,-100,4,1,0,50,0,0
95765,-100,4,1,0,56,0,0
95980,-100,4,1,0,56,0,1
98551,-100,4,2,0,81,0,1
99301,-100,4,1,0,56,0,1
101980,-100,4,2,0,81,0,1
102730,-100,4,1,0,56,0,1
105408,-100,4,2,0,80,0,1
106158,-100,4,1,0,56,0,1
109661,-100,4,2,0,56,0,0
136158,-100,4,1,0,56,0,0
150730,-100,4,2,0,56,0,0
153301,-100,4,1,0,56,0,0
166372,-100,4,2,0,56,0,0
167872,-100,4,2,0,0,0,0

[Colours]
Combo1 : 223,142,225
Combo2 : 95,252,95
Combo3 : 133,133,252
Combo4 : 251,60,60
SliderBorder : 0,0,0

[HitObjects]
32,40,3408,2,0,L|96:176|163:32,1,300
288,88,5122,5,0
312,152,5337,1,0
336,216,5551,1,2
360,280,5765,1,2
392,336,5979,5,0
424,280,6194,1,0
448,216,6408,1,4
472,152,6622,1,0
496,88,6837,5,4
448,40,7051,2,0,L|416:96|384:40|336:40,1,150
264,136,7908,1,2
176,32,8337,1,0
112,32,8551,2,0,L|16:96|128:176,1,225
104,296,9622,1,2
240,296,10051,1,0
280,240,10265,5,0
312,176,10479,2,0,L|200:56,1,150,2|0
200,200,11337,1,2
96,120,11765,1,0
144,72,11979,6,4,L|216:144,1,75,4|0
244,172,12408,2,4,L|320:248,1,75,4|0
344,177,12837,2,4,L|416:105,1,75,4|0
397,56,13265,2,4,L|461:56|485:56,1,75,4|0
472,123,13694,6,0,B|397:200,1,75
384,232,14122,1,8
384,296,14337,1,0
248,296,14765,1,0
64,216,15408,6,0,L|128:296|168:256,1,150,0|8
209,216,16051,1,0
343,216,16479,1,0
343,148,16694,2,0,B|343:60|255:20,1,150,8|0
268,162,17551,1,0
200,162,17765,1,0
235,292,18194,1,0
400,216,18837,6,0,B|312:216|304:112,1,150,4|0
304,56,19480,1,4
200,144,19908,1,0
232,88,20122,1,8
264,144,20337,1,0
232,200,20551,5,4
152,312,20980,1,0
104,272,21194,2,0,L|168:228|96:192,1,150,8|0
104,16,22265,2,0,B|224:112,1,150,0|0
184,168,22908,1,0
248,176,23122,1,0
288,120,23337,1,8
256,56,23551,1,8
392,64,23980,6,0,L|480:112|432:160,1,150
392,192,24622,1,12
336,304,25051,1,0
288,256,25265,1,0
240,304,25480,1,0
176,304,25694,2,0,L|120:256|176:200,1,150
240,200,26337,1,0
240,264,26551,1,8
296,304,26765,1,8
352,264,26980,1,8
352,128,27408,5,0
288,128,27622,1,0
240,80,27837,2,0,B|162:146,1,75
48,128,28480,1,8
136,24,28908,1,0
200,24,29122,1,0
136,144,29551,2,0,L|169:164|205:136,1,75
304,96,30194,5,0
304,160,30408,1,8
304,224,30622,1,0
360,192,30837,1,0
360,56,31265,2,0,B|360:136,1,75,0|0
360,264,31908,1,8
160,264,32551,5,4
160,128,32980,1,4
160,195,33194,1,4
288,160,33622,1,8
344,128,33837,1,0
288,96,34051,1,0
256,40,34265,2,0,L|184:40|184:120,1,150
120,120,34908,1,0
24,24,35337,1,8
64,216,35980,5,0
104,272,36194,1,0
144,216,36408,1,8
184,160,36622,2,0,L|272:232|368:152,1,225
312,40,37694,2,4,L|384:112|432:72,1,150,4|0
472,40,38337,1,12
136,40,39408,5,0
184,88,39622,1,0
136,136,39837,1,0
88,88,40051,1,0
40,40,40265,1,4
40,40,40372,1,0
40,40,40480,1,0
40,40,40587,1,0
40,40,40694,1,4
40,176,41122,6,0,L|128:192|158:110,1,150,6|0
160,96,41765,1,2
296,96,42194,1,0
248,144,42408,1,8
200,192,42622,1,0
152,240,42837,6,0,B|264:352,1,150,2|0
320,312,43480,1,2
336,160,44015,1,0
312,184,44122,1,8
288,160,44230,1,0
264,184,44337,1,0
240,160,44444,2,0,L|200:200,1,37.5,0|2
64,144,44979,5,0
64,48,45301,1,2
200,144,45837,1,8
336,144,46265,1,6
336,248,46587,1,0
336,248,46694,1,0
336,312,46908,1,6
469,335,47337,5,0
480,264,47551,1,8
440,208,47765,1,0
376,184,47980,2,0,L|336:248|288:168,1,150,2|0
264,248,48622,1,2
192,136,49051,5,0
232,80,49265,1,8
272,24,49479,1,0
312,80,49694,2,0,L|352:144|400:72,1,150,2|0
424,144,50337,1,2
424,280,50765,1,0
360,280,50979,1,8
360,144,51408,5,2
224,144,51837,1,0
224,80,52051,2,4,L|224:40,1,37.5,0|2
128,80,52479,5,0
168,136,52694,1,8
128,192,52908,1,0
168,248,53122,2,0,B|104:304|24:240,1,150,2|0
32,176,53765,1,0
32,176,53872,1,2
200,136,54408,1,8
112,40,54837,5,4
112,176,55265,1,0
112,176,55479,1,2
64,304,55908,1,0
112,352,56122,1,8
160,304,56337,1,0
224,304,56551,2,0,L|224:232|280:176,1,150,2|0
328,128,57194,1,2
280,288,57729,5,0
304,312,57837,1,8
328,336,57944,1,0
352,312,58051,1,0
376,288,58158,2,0,L|400:256,1,37.5,0|2
398,122,58694,1,0
328,192,59015,1,2
416,48,59551,1,8
280,56,59979,6,4,B|144:56,1,112.5,2|0
168,56,60408,1,0
104,56,60622,1,2
32,168,61051,1,0
32,232,61265,2,0,B|112:304,1,75,8|0
152,280,61694,5,2
152,144,62122,1,0
152,211,62337,2,0,L|240:211|240:251|280:251,1,150,2|0
312,208,62979,1,8
360,256,63194,1,0
312,304,63408,1,2
448,304,63837,1,0
448,240,64051,2,0,L|448:200|400:200|400:152|376:152,1,150,2|0
320,152,64694,1,8
392,40,65122,5,6
256,40,65551,2,4,B|160:40,1,75,4|0
144,40,65872,2,0,L|67:112|163:192|83:264,1,337.5,6|2
216,264,67265,1,2
152,344,67587,1,0
152,344,67694,1,2
96,56,75408,5,4
96,256,76051,1,0
184,152,76479,1,0
224,96,76694,1,8
264,40,76908,1,0
328,40,77122,1,0
280,128,77444,2,0,L|208:232,1,112.5
176,272,77979,1,4
320,264,78408,5,8
360,320,78622,1,0
400,264,78837,2,0,L|400:184|320:184|320:112,1,225
128,56,80122,1,8
128,192,80551,2,4,L|128:272|272:272|272:192,1,300
272,56,81837,1,8
272,196,82265,6,0,L|120:196|120:292,1,225
176,72,83551,1,8
176,208,83980,2,0,L|176:288|96:288,1,150
72,224,84622,1,0
48,200,84729,1,0
72,176,84837,1,0
208,168,85265,5,8
272,168,85479,1,0
240,112,85694,1,0
304,112,85908,2,0,L|384:112|384:208,1,150
288,272,86765,1,0
240,224,86979,1,8
64,144,87408,5,4
216,280,87837,1,4
376,144,88265,1,4
216,8,88694,1,4
152,128,89122,6,4,L|210:224|272:112,1,225,4|0
336,128,90837,1,0
288,80,91265,1,0
264,56,91479,1,0
248,56,91587,1,0
232,56,91694,1,0
168,80,92122,1,0
144,103,92337,1,0
120,128,92551,6,0,L|14:234|128:352,1,300,0|4
208,320,94479,2,4,L|256:256,1,75,4|12
368,320,94908,2,4,L|320:256,1,75,4|4
288,128,95337,2,4,L|288:216,1,75,12|12
160,232,95979,5,4
32,232,96408,1,8
64,176,96622,1,0
96,120,96837,1,0
128,176,97051,1,0
160,232,97265,1,8
296,232,97694,5,4
296,96,98122,1,12
200,232,98658,1,2
200,232,98765,1,2
160,176,98979,1,10
128,232,99194,1,2
88,176,99408,5,4
88,72,99729,1,0
88,72,99837,1,8
88,72,99944,1,0
136,120,100158,1,0
136,24,100479,1,0
176,72,100694,1,8
240,72,100908,1,0
304,72,101122,6,2,L|384:72|384:152,1,150,6|10
312,208,101872,1,0
256,168,102087,1,2
256,168,102194,1,2
200,208,102408,1,10
144,168,102622,1,2
88,128,102837,6,0,L|52:201|94:267,1,150,4|8
144,304,103479,1,0
272,264,103908,1,0
328,304,104122,1,8
384,264,104337,1,0
328,224,104551,6,0,L|328:152|248:152,1,150,4|8
184,152,105194,1,0
112,80,105515,1,2
112,80,105622,1,2
160,32,105837,1,10
208,80,106051,1,2
288,80,106265,5,4
384,168,106694,1,12
320,168,106908,1,0
288,168,107015,1,4
184,168,107337,2,0,L|160:136|192:104,1,75,0|8
184,40,107765,1,0
256,40,107979,5,0
352,144,108408,5,8
304,192,108622,1,4
160,144,109051,5,8
208,192,109265,1,12
64,56,111408,5,2
128,56,111622,1,0
352,56,112051,5,0
312,104,112265,1,2
272,152,112479,1,0
440,312,112908,5,0
400,264,113122,1,2
360,216,113337,1,0
72,328,113765,5,0
112,280,113979,1,2
152,232,114194,1,0
80,40,114622,5,0
144,40,114837,1,2
144,104,115051,1,0
208,104,115265,1,2
208,168,115479,1,0
272,168,115694,1,2
272,232,115908,1,2
336,232,116122,1,2
432,320,116551,6,0,L|280:320,1,150
216,320,117194,2,0,B|104:208,1,150
64,160,117837,1,8
32,32,118265,2,0,B|264:32,1,225,0|2
280,56,119015,1,2
304,32,119122,1,2
440,32,119551,1,8
320,96,119979,6,0,L|256:160,1,75,0|0
219,196,120408,2,0,L|155:260,1,75
112,208,120837,2,0,L|40:136,1,75
16,104,121265,2,0,L|104:104,1,75,8|0
160,104,121694,2,0,L|160:32|280:32|280:104|320:104,1,300,2|0
440,40,122979,1,8
304,40,123408,5,0
344,96,123622,1,0
304,152,123837,1,0
264,208,124051,1,2
224,152,124265,1,0
184,96,124479,1,2
224,40,124694,1,8
88,40,125122,5,0
176,144,125551,1,0
224,192,125765,1,2
248,216,125872,1,0
272,192,125979,1,2
376,104,126408,1,8
440,232,126837,5,0
376,232,127051,2,0,L|344:256|304:216,1,75,0|0
272,184,127479,1,0
224,232,127694,1,0
160,232,127908,2,0,L|112:176|168:112,1,150
168,48,128551,2,0,B|224:8|328:8|408:56,1,225,2|0
280,216,129837,1,2
280,216,130265,1,0
256,192,133694,12,4,135408
480,160,135837,5,4
408,48,136265,1,0
384,112,136480,1,0
360,176,136694,1,0
328,112,136908,1,0
296,48,137123,6,4,L|144:48,1,150,0|8
128,112,137765,1,4
264,264,138408,1,4
128,264,138837,1,4
200,152,139265,5,8
160,96,139479,1,0
160,96,139587,1,0
160,96,139694,1,0
240,208,140122,1,0
280,264,140337,1,0
328,312,140551,6,4,B|416:168|416:168,1,150,4|4
406,185,141087,1,0
407,185,141194,1,0
248,312,141837,1,8
248,176,142265,1,4
384,176,142694,1,4
384,312,143122,2,10,B|296:312,1,75,6|2
448,312,143765,1,0
448,248,143979,6,0,L|272:96,1,225
152,40,145051,1,0
112,96,145265,1,8
72,40,145480,1,0
32,96,145694,5,4
32,200,146015,1,4
112,264,146337,1,4
176,264,146551,1,4
256,152,146980,5,8
256,152,147194,1,0
224,208,147408,2,0,L|134:88|257:3|381:88|288:208,1,600,0|4
256,264,149337,5,0
208,312,149551,1,0
256,360,149765,1,0
320,360,149980,1,4
368,312,150194,1,0
320,264,150408,1,4
280,136,150837,5,4
176,48,151265,1,0
112,48,151480,2,0,B|112:280,1,225,8|2
248,272,152551,2,0,L|400:272,1,150
397,272,153194,1,10
256,192,153408,12,4,154265
256,192,154694,5,4
384,152,155122,2,0,L|328:88,1,75,4|0
272,80,155551,2,4,L|184:96,1,75,4|0
144,136,155980,5,0
96,184,156194,1,0
96,248,156408,5,8
144,296,156622,1,0
216,296,156837,1,0
234,267,156944,1,0
251,238,157051,1,8
292,180,157265,1,0
268,156,157372,1,0
243,131,157480,1,8
219,107,157587,1,8
192,80,157694,6,0,L|112:80,1,75
120,144,158122,1,8
184,144,158337,2,4,B|296:40,1,150,0|0
224,40,158980,1,8
160,40,159194,1,0
224,40,159408,6,4,L|344:40,1,112.5,0|0
368,40,159837,1,8
336,104,160051,2,4,B|200:104,1,112.5,0|0
192,104,160480,1,0
224,168,160694,1,8
336,240,161122,6,4,B|248:336,1,112.5,0|0
224,320,161551,1,8
120,320,161872,1,0
160,224,162194,1,0
184,160,162408,1,8
208,96,162622,1,0
232,32,162837,5,0
352,88,163265,1,8
352,192,163587,2,0,L|352:240,1,37.5,0|0
136,64,164551,5,4
200,184,164980,1,8
256,304,165408,1,4
288,240,165622,1,8
320,176,165837,1,4
336,144,165944,1,0
352,112,166051,1,8
368,80,166158,1,8
384,48,166265,1,8
256,192,166372,12,0,167872
