osu file format v13

[General]
AudioFilename: 18. WOBBLE IMPACT.mp3
AudioLeadIn: 1500
PreviewTime: 22054
Countdown: 0
SampleSet: Soft
StackLeniency: 0.5
Mode: 0
LetterboxInBreaks: 0
WidescreenStoryboard: 1

[Editor]
DistanceSpacing: 1
BeatDivisor: 4
GridSize: 4
TimelineZoom: 1

[Metadata]
Title:WOBBLE IMPACT
TitleUnicode:WOBBLE IMPACT
Artist:Sota Fujimori
ArtistUnicode:Sota Fujimori
Creator:Priti
Version:Beginner
Source:beatmania IIDX
Tags:21st SPADA DUBSTEP BEMANI Konami fanzhen0019 Spectator wa_ Loctav Irreversible Collaboration Collab 藤森 崇多
BeatmapID:409305
BeatmapSetID:166337

[Difficulty]
HPDrainRate:2
CircleSize:3
OverallDifficulty:2
ApproachRate:3
SliderMultiplier:0.8
SliderTickRate:1

[Events]
//Background and Video events
0,0,"wallpaper-1657762.jpg",0,0
//Break Periods
2,78896,79983
//Storyboard Layer 0 (Background)
//Storyboard Layer 1 (Fail)
//Storyboard Layer 2 (Pass)
//Storyboard Layer 3 (Foreground)
//Storyboard Sound Samples
//Background Colour Transformations
3,100,163,162,255

[TimingPoints]
581,315.789473684211,4,2,1,60,1,0
9423,-100,4,2,1,60,0,1
10686,-100,4,2,1,60,0,0
81423,-100,4,2,1,60,0,1
101633,-100,4,2,1,60,0,0

[Colours]
Combo1 : 247,217,49
Combo2 : 173,250,97
Combo3 : 240,57,57
Combo4 : 60,155,251

[HitObjects]
444,180,581,6,0,L|456:60,2,120,0|0|0,1:0|3:0|3:0,0:0:0:0:
392,240,1844,2,0,B|355:256|326:251|300:228|272:223|235:240,1,160,0|8,1:0|1:0,0:0:0:0:
96,312,3107,6,0,B|77:261|77:261|88:150,1,160,0|2,1:0|3:0,0:0:0:0:
100,76,4054,1,0,3:0:0:0:
172,40,4370,2,0,B|208:23|237:28|263:51|291:56|328:40,1,160,0|8,1:0|1:0,0:0:0:0:
436,156,5633,6,0,P|432:248|372:304,1,160,0|2,1:0|3:0,0:0:0:0:
308,308,6581,1,0,0:0:0:0:
236,276,6896,2,0,B|184:249|184:249|81:260,1,160,0|8,1:0|1:0,0:0:0:0:
20,112,8159,6,0,L|187:93,1,160,0|2,1:0|3:0,0:0:0:0:
257,86,9107,1,0,3:0:0:0:
337,77,9423,2,0,B|343:136|343:136|359:175|359:175|365:233,1,160,0|8,1:0|1:2,0:0:0:0:
252,348,10686,6,0,B|215:364|186:359|160:336|132:331|96:347,1,160,6|2,1:0|3:0,0:0:0:0:
216,240,11949,2,0,P|289:239|356:303,1,160,2|8,1:0|1:0,0:0:0:0:
329,370,12896,1,0,3:0:0:0:
252,348,13212,6,0,B|200:342|200:342|146:320|146:320|94:315,1,160,2|2,1:0|3:0,2:0:0:0:
32,268,14159,1,0,3:0:0:0:
16,188,14475,2,0,P|14:115|75:47,1,160,2|8,1:0|1:0,0:0:0:0:
228,28,15738,6,0,L|387:44,1,160,2|2,1:0|3:0,0:0:0:0:
424,200,17002,2,0,B|385:212|358:204|334:178|306:170|268:183,1,160,2|8,1:0|1:0,0:0:0:0:
192,204,17949,1,0,0:0:0:0:
116,184,18265,6,0,P|103:110|133:22,1,160,0|2,1:0|3:0,0:0:0:0:
288,48,19528,2,0,B|356:89|356:89|436:98,1,160,4|4,1:3|1:3,0:0:0:0:
256,192,20791,12,0,22054,3:0:0:0:
84,200,23002,5,12,1:2:0:0:
84,200,23317,6,0,P|118:292|174:320,1,160,4|8,1:0|1:0,0:0:0:0:
248,340,24265,1,0,3:0:0:0:
320,308,24581,2,0,B|326:248|326:248|310:210|310:210|317:151,1,160,0|8,1:0|1:0,0:0:0:0:
160,124,25844,6,0,P|176:72|200:48,2,80,0|2|10,1:0|0:0|1:0,0:0:0:0:
148,204,26791,1,0,3:0:0:0:
173,278,27107,2,0,P|241:317|320:308,1,160,0|8,1:0|1:0,0:0:0:0:
348,152,28370,6,0,P|279:112|201:122,1,160,2|8,1:0|1:0,0:0:0:0:
312,236,29633,2,0,P|383:234|440:158,1,160,0|8,1:0|1:0,0:0:0:0:
316,68,30896,6,0,B|205:56|205:56|160:74,1,160,4|10,1:3|1:0,0:0:0:0:
20,148,32159,2,0,P|12:220|56:300,1,160,0|8,1:0|1:0,0:0:0:0:
124,328,33107,1,0,3:0:0:0:
196,296,33423,6,0,B|232:279|261:284|287:307|315:312|352:296,1,160,4|10,1:0|1:0,0:0:0:0:
476,192,34686,2,0,P|420:148|332:136,1,160,0|8,1:0|1:0,0:0:0:0:
256,152,35633,1,2,3:0:0:0:
188,112,35949,6,0,B|159:102|127:114|127:114|97:102|97:102|29:95,1,160,0|10,1:0|1:0,0:0:0:0:
20,256,37212,2,0,B|100:264|100:264|172:308,1,160,0|8,1:0|1:0,0:0:0:0:
312,372,38475,6,0,P|320:312|284:212,1,160,2|8,1:0|1:0,0:0:0:0:
232,160,39423,1,0,3:0:0:0:
156,132,39738,2,0,B|119:150|80:131|80:131|46:157|3:148,1,160,0|8,1:0|1:0,0:0:0:0:
124,44,41002,6,0,P|209:55|248:121,1,160,4|10,1:3|1:0,0:0:0:0:
184,260,42265,2,0,B|125:253|125:253|87:269|87:269|27:263,1,160,0|8,1:0|1:0,0:0:0:0:
164,352,43528,6,0,P|228:344|248:328,1,80,4|2,1:0|3:1,0:0:0:0:
308,296,44159,1,8,1:0:0:0:
468,308,44791,2,0,L|451:144,1,160,0|8,1:0|1:0,0:0:0:0:
292,172,46054,6,0,B|256:155|227:160|201:183|173:188|136:172,1,160,0|8,1:0|1:0,0:0:0:0:
256,280,47317,2,0,P|345:272|397:215,1,160,0|8,1:0|1:0,0:0:0:0:
327,77,48581,6,0,P|238:85|186:142,1,160,0|10,1:0|1:0,0:0:0:0:
138,284,49844,2,0,L|297:300,1,160,0|8,1:0|1:0,0:0:0:0:
376,288,50791,1,8,1:2:0:0:
428,228,51107,6,0,B|422:172|422:172|433:126|433:126|427:67,1,160,0|8,1:0|1:0,0:0:0:0:
276,120,52370,2,0,P|192:132|128:88,1,160,0|8,1:0|1:0,0:0:0:0:
72,40,53317,1,0,3:0:0:0:
56,120,53633,6,0,B|61:176|61:176|50:222|50:222|56:277,1,160,4|2,1:0|1:0,0:0:0:0:
188,368,54896,2,0,P|232:384|280:376,1,80,0|8,1:0|1:0,0:0:0:0:
321,323,55528,2,0,P|357:308|397:310,1,80,0|8,1:0|1:0,0:0:0:0:
454,367,56159,6,0,P|477:313|428:233,1,160,0|0,1:0|1:0,0:0:0:0:
272,200,57423,1,0,1:0:0:0:
196,228,57738,2,0,P|120:224|80:140,1,160,8|8,1:0|1:0,0:0:0:0:
160,156,58686,6,0,B|199:107|199:107|298:97,1,160,4|0,1:0|1:0,0:0:0:0:
376,92,59633,1,8,1:0:0:0:
456,84,59949,2,0,B|456:136|473:173|473:173|460:228|460:228|488:273|468:336,1,240,4|8,1:2|1:0,0:0:0:0:
402,355,61212,6,0,L|232:337,1,160,0|0,1:0|1:0,0:0:0:0:
104,264,62475,2,0,P|104:216|80:168,2,80,0|8|0,1:0|1:0|1:0,0:0:0:0:
86,342,63423,1,8,1:0:0:0:
164,324,63738,6,0,P|232:336|320:296,1,160,4|8,1:0|1:0,0:0:0:0:
384,264,64686,2,0,L|435:258,1,40,2|2,1:2|0:0,0:0:0:0:
416,60,65633,2,0,L|336:68,1,80,8|2,1:0|3:0,0:0:0:0:
256,56,66265,6,0,P|180:28|92:56,1,160,0|8,1:0|1:0,0:0:0:0:
49,103,67212,2,0,L|55:154,1,40,2|2,1:2|0:0,0:0:0:0:
252,144,68159,2,0,P|289:158|328:155,1,80,8|2,1:0|0:0,0:0:0:0:
400,121,68791,6,0,P|405:177|326:234,1,160,0|8,1:0|1:0,0:0:0:0:
256,268,69739,2,0,L|205:262,1,40,2|2,1:2|0:0,0:0:0:0:
24,321,70686,1,8,1:0:0:0:
52,164,71317,5,0,1:0:0:0:
184,76,71949,2,0,P|248:68|268:72,1,80,8|0,1:0|3:0,0:0:0:0:
332,112,72581,2,2,B|339:171|339:171|323:209|323:209|329:269,1,160,2|8,1:2|1:0,0:0:0:0:
180,328,73844,6,0,P|96:312|76:228,1,160,6|8,1:0|1:0,0:0:0:0:
149,109,75107,2,0,P|152:52|141:29,1,80,0|0,1:0|3:0,0:0:0:0:
75,75,75738,2,0,P|72:132|83:155,1,80,8|2,1:0|3:0,0:0:0:0:
152,188,76370,6,0,B|188:205|217:200|243:177|271:172|308:188,1,160,0|8,1:0|1:0,0:0:0:0:
456,244,77633,2,0,P|464:296|452:332,1,80,0|0,1:0|3:0,0:0:0:0:
384,356,78265,2,0,L|296:346,1,80,8|2,1:0|3:1,0:0:0:0:
304,347,81423,6,0,P|220:352|168:296,1,160,4|2,1:0|1:2,0:0:0:0:
144,224,82370,1,8,1:0:0:0:
160,144,82686,2,0,P|172:88|164:52,2,80,0|8|0,1:0|1:0|3:0,0:0:0:0:
253,274,83949,6,0,B|292:235|292:235|403:224,1,160,4|2,1:3|1:2,0:0:0:0:
464,80,85212,2,0,P|400:68|372:76,1,80,0|8,1:0|1:0,0:0:0:0:
329,127,85844,2,0,P|265:139|237:131,1,80,0|8,1:0|1:2,0:0:0:0:
194,79,86475,6,0,P|170:128|220:214,1,160,4|2,1:0|1:2,0:0:0:0:
372,256,87738,2,0,P|376:292|363:335,1,80,0|8,1:0|1:2,0:0:0:0:
296,376,88370,2,0,L|208:366,1,80,0|8,3:0|1:0,0:0:0:0:
136,360,89002,5,0,1:0:0:0:
100,204,89633,1,2,1:2:0:0:
176,64,90265,2,0,P|240:56|264:60,2,80,4|8|0,1:3|1:0|1:0,0:0:0:0:
100,204,91528,6,0,P|92:268|176:312,1,160,4|2,1:0|1:0,0:0:0:0:
240,284,92475,1,8,1:0:0:0:
320,292,92791,2,0,B|403:300|403:300|480:260,1,160,0|2,1:0|1:0,0:0:0:0:
448,108,94054,6,0,P|400:96|360:100,1,80,2|8,1:2|1:0,0:0:0:0:
292,116,94686,1,2,3:2:0:0:
144,178,95317,2,0,P|132:139|133:99,2,80,2|8|2,1:0|1:0|1:0,0:0:0:0:
184,332,96581,6,0,B|291:320|291:320|344:287,1,160,4|0,1:0|3:0,0:0:0:0:
368,220,97528,1,8,1:0:0:0:
356,140,97844,2,0,P|352:80|368:48,1,80,0|8,1:0|1:2,0:0:0:0:
428,24,98475,1,0,3:0:0:0:
480,176,99107,6,0,P|484:236|468:268,1,80,0|8,1:0|1:0,0:0:0:0:
440,324,99738,2,0,L|348:314,1,80,0|8,1:0|1:0,0:0:0:0:
280,304,100370,2,0,P|264:228|288:148,1,160,0|0,1:0|3:0,0:0:0:0:
324,80,101317,1,0,3:0:0:0:
324,80,102896,6,0,P|248:64|168:100,1,160,4|0,1:0|3:0,0:0:0:0:
132,164,103844,1,8,1:0:0:0:
144,244,104159,2,0,P|136:296|112:324,2,80,0|10|2,1:0|1:0|3:0,0:0:0:0:
296,192,105423,6,0,B|395:202|395:202|451:181,1,160,0|2,1:0|3:1,0:0:0:0:
324,84,106686,2,0,P|258:86|191:155,1,160,0|0,3:0|1:0,0:0:0:0:
180,228,107633,1,8,1:0:0:0:
148,300,107949,6,0,L|64:291,1,80,6|10,1:0|1:0,0:0:0:0:
12,232,108581,2,0,P|16:184|32:152,1,80,0|8,3:0|1:0,0:0:0:0:
72,88,109212,1,0,1:0:0:0:
228,48,109844,2,0,L|307:56,1,80,2|8,3:0|1:0,0:0:0:0:
380,88,110475,6,0,P|396:152|360:236,1,160,4|2,1:3|3:1,0:0:0:0:
304,292,111423,1,8,1:0:0:0:
232,328,111738,2,0,B|152:319|152:319|81:267,1,160,0|0,1:0|1:0,0:0:0:0:
256,192,113002,12,4,114581,1:0:0:0:
