osu file format v14

[General]
AudioFilename: aaa.mp3
AudioLeadIn: 0
PreviewTime: -1
Countdown: 1
SampleSet: Soft
StackLeniency: 0.7
Mode: 0
LetterboxInBreaks: 1
WidescreenStoryboard: 0

[Editor]
DistanceSpacing: 2
BeatDivisor: 4
GridSize: 4
TimelineZoom: 2.799999

[Metadata]
Title:Move That Body -Extended Mix-
TitleUnicode:Move That Body -Extended Mix-
Artist:Sota Fujimori
ArtistUnicode:Sota Fujimori
Creator:Spring Roll
Version:Normal
Source:
Tags:
BeatmapID:732122
BeatmapSetID:330334

[Difficulty]
HPDrainRate:6
CircleSize:4.5
OverallDifficulty:8
ApproachRate:9.6
SliderMultiplier:1.6
SliderTickRate:1

[Events]
//Background and Video events
0,0,"123.jpg",0,0
//Break Periods
2,105352,114439
//Storyboard Layer 0 (Background)
//Storyboard Layer 1 (Fail)
//Storyboard Layer 2 (Pass)
//Storyboard Layer 3 (Foreground)
//Storyboard Sound Samples

[TimingPoints]
1071,306.122448979592,4,2,0,60,1,0
2601,-66.6666666666667,4,2,0,60,0,0
3519,-181.818181818182,4,2,0,60,0,0
4132,-100,4,2,0,60,0,0
5356,-66.6666666666667,4,2,0,60,0,0
6275,-100,4,2,0,60,0,0
8111,-66.6666666666667,4,2,0,60,0,0
8417,-181.818181818182,4,2,0,60,0,0
9642,-58.8235294117647,4,2,0,60,0,0
10866,-100,4,2,0,60,0,0
20050,-66.6666666666667,4,2,0,60,0,0
20662,-100,4,2,0,60,0,0
29846,-66.6666666666667,4,2,0,60,0,0
30458,-133.333333333333,4,2,0,60,0,0
30917,-66.6666666666667,4,2,0,60,0,0
31683,-133.333333333333,4,2,0,60,0,0
32142,-66.6666666666667,4,2,0,60,0,0
32907,-133.333333333333,4,2,0,60,0,0
33213,-100,4,2,0,60,0,0
33519,-66.6666666666667,4,2,0,60,0,0
33826,-58.8235294117647,4,2,0,60,0,0
34285,-100,4,2,0,60,0,0
35356,-133.333333333333,4,2,0,60,0,0
35815,-66.6666666666667,4,2,0,60,0,0
36581,-133.333333333333,4,2,0,60,0,0
37040,-66.6666666666667,4,2,0,60,0,0
38111,-50,4,2,0,60,0,0
39030,-66.6666666666667,4,2,0,60,0,0
39948,-50,4,2,0,60,0,0
40254,-100,4,2,0,60,0,0
40713,-200,4,2,0,60,0,0
41019,-66.6666666666667,4,2,0,60,0,0
41479,-100,4,2,0,60,0,0
41938,-200,4,2,0,60,0,0
42397,-66.6666666666667,4,2,0,60,0,0
43928,-133.333333333333,4,2,0,60,0,0
44540,-50,4,2,0,60,0,0
45152,-100,4,2,0,60,0,0
45611,-200,4,2,0,60,0,0
46071,-66.6666666666667,4,2,0,60,0,0
46836,-200,4,2,0,60,0,0
47295,-66.6666666666667,4,2,0,60,0,0
47907,-50,4,2,0,60,0,0
48519,-66.6666666666667,4,2,0,60,0,0
50050,-100,4,2,0,60,0,0
61683,-66.6666666666667,4,2,0,60,0,0
62295,-100,4,2,0,60,0,0
69336,-66.6666666666667,4,2,0,60,0,0
69642,-100,4,2,0,60,0,0
71479,-58.8235294117647,4,2,0,60,0,0
72091,-76.9230769230769,4,2,0,60,0,0
73928,-58.8235294117647,4,2,0,60,0,0
74540,-100,4,2,0,60,0,0
76377,-58.8235294117647,4,2,0,60,0,0
76989,-76.9230769230769,4,2,0,60,0,0
78826,-58.8235294117647,4,2,0,60,0,0
79438,-100,4,2,0,60,0,0
83724,-66.6666666666667,4,2,0,60,0,0
84336,-76.9230769230769,4,2,0,60,0,1
103928,-76.9230769230769,4,2,0,60,0,0
104846,-66.6666666666667,4,2,0,60,0,0
105152,-100,4,2,0,60,0,0
125662,-66.6666666666667,4,2,0,60,0,0
127499,-76.9230769230769,4,2,0,60,0,0
128417,-133.333333333333,4,2,0,60,0,0
128724,-66.6666666666667,4,2,0,60,0,0
129030,-100,4,2,0,60,0,0
134540,-66.6666666666667,4,2,0,60,0,0
135764,-100,4,2,0,60,0,0
136989,-66.6666666666667,4,2,0,60,0,0
137907,-58.8235294117647,4,2,0,60,0,0
138213,-76.9230769230769,4,2,0,60,0,0
139132,-58.8235294117647,4,2,0,60,0,0
139438,-100,4,2,0,60,0,0
140356,-66.6666666666667,4,2,0,60,0,0
140662,-50,4,2,0,60,0,0
141887,-100,4,2,0,60,0,0
144030,-66.6666666666667,4,2,0,60,0,0
144336,-100,4,2,0,60,0,0
148009,-66.6666666666667,4,2,0,60,0,0
149234,-100,4,2,0,60,0,0
150458,-58.8235294117647,4,2,0,60,0,0
151683,-100,4,2,0,60,0,0
172193,-58.8235294117647,4,2,0,60,0,0
172499,-200,4,2,0,60,0,0
173111,-100,4,2,0,60,0,0
174948,-300,4,2,0,60,0,0
175560,-100,4,2,0,60,0,0
175866,-300,4,2,0,60,0,0
176173,-100,4,2,0,60,0,0
177397,-400,4,2,0,60,0,0
178009,-100,4,2,0,60,0,0
178622,-400,4,2,0,60,0,0
179846,-300,4,2,0,60,0,0
181071,-400,4,2,0,60,0,0
182295,-200,4,2,0,60,0,0
182907,-100,4,2,0,60,0,0
184744,-300,4,2,0,60,0,0
185356,-100,4,2,0,60,0,0
185662,-300,4,2,0,60,0,0
185968,-100,4,2,0,60,0,0
187193,-400,4,2,0,60,0,0
187805,-100,4,2,0,60,0,0
188417,-400,4,2,0,60,0,0
189642,-300,4,2,0,60,0,0
190866,-400,4,2,0,60,0,0
192091,-100,4,2,0,60,0,0
215050,-66.6666666666667,4,2,0,60,0,0
215356,-76.9230769230769,4,2,0,60,0,1
235866,-66.6666666666667,4,2,0,60,0,1
236173,-100,4,2,0,60,0,0
236479,-66.6666666666667,4,2,0,60,0,0
237703,-58.8235294117647,4,2,0,60,0,0
238622,-100,4,2,0,60,0,0
238928,-58.8235294117647,4,2,0,60,0,0
239234,-100,4,2,0,60,0,0

[Colours]
Combo1 : 128,255,0
Combo2 : 128,255,128
Combo3 : 128,255,255
Combo4 : 128,128,255

[HitObjects]
136,80,1071,6,0,P|141:122|110:199,1,120
101,183,1377,2,0,L|195:178,1,80
363,164,1683,1,0,0:0:0:0:
211,336,1836,2,0,L|215:288,1,40
270,161,1989,2,0,L|266:200,1,40
321,316,2142,2,0,L|325:268,1,40
252,156,2295,5,0,0:0:0:0:
232,341,2448,1,0,0:0:0:0:
169,192,2601,2,0,B|153:69|153:69|134:136,1,180.000006866455
258,277,2907,2,0,B|389:271|389:271|342:253,1,180.000006866455
170,208,3213,2,0,P|107:206|166:286,1,180.000006866455
328,201,3519,6,0,P|334:170|328:109,1,88.000002685547
355,19,4132,6,0,P|341:83|365:151,1,120
386,132,4438,2,0,L|293:107,1,80
180,72,4744,1,0,0:0:0:0:
315,199,4897,2,0,L|357:211,1,40
175,169,5050,2,0,L|136:158,1,40
321,290,5203,2,0,L|363:302,1,40
165,260,5356,6,0,P|132:313|166:291,1,180.000006866455
250,147,5662,2,0,P|318:95|272:189,1,240.000009155274
24,191,6275,5,0,0:0:0:0:
89,237,6428,1,0,0:0:0:0:
165,181,6581,2,0,L|173:96,1,80
347,181,6887,2,0,L|339:96,1,80
177,272,7193,1,0,0:0:0:0:
335,272,7346,1,0,0:0:0:0:
144,279,7499,2,0,B|199:283|199:283|209:275|209:275|267:283,1,120
368,279,7805,2,0,B|313:283|313:283|303:275|303:275|245:283,1,120
191,364,8111,6,0,P|259:305|240:216,1,180.000006866455
248,97,8417,6,0,L|242:186,1,88.000002685547
227,212,9030,1,0,0:0:0:0:
177,59,9183,1,0,0:0:0:0:
69,188,9336,1,0,0:0:0:0:
121,118,9489,5,0,0:0:0:0:
121,118,9565,1,0,0:0:0:0:
121,118,9642,2,0,B|169:89|221:138|221:138|271:134|303:60,1,204.000003890991
154,193,9948,2,0,B|136:261|136:261|116:103,1,204.000003890991
273,227,10254,2,0,L|320:243,12,34.0000006484985
128,304,10866,6,0,P|176:288|248:312,1,120
120,320,11173,2,0,L|112:232,1,80
352,256,11479,2,0,L|344:304,2,40
434,220,11785,2,0,P|370:196|346:100,1,160
435,124,12244,5,0,0:0:0:0:
512,177,12397,1,0,0:0:0:0:
434,220,12550,1,0,0:0:0:0:
435,124,12703,2,0,L|435:70,1,40
438,5,12856,1,0,0:0:0:0:
353,132,13009,2,0,L|302:130,3,40
232,125,13315,6,0,B|176:100|176:100|69:122,1,160
280,259,13775,1,0,0:0:0:0:
280,259,13928,2,0,B|336:284|336:284|443:262,1,160
177,210,14387,5,0,0:0:0:0:
177,210,14540,2,0,L|176:304,1,80
335,174,14846,2,0,L|336:80,1,80
142,147,15152,2,0,L|141:241,1,80
370,237,15458,1,0,0:0:0:0:
370,197,15534,1,0,0:0:0:0:
370,157,15611,1,0,0:0:0:0:
151,259,15764,6,0,B|137:353|137:353|158:324,1,120
147,326,16071,2,0,L|263:315,1,80
72,277,16377,2,0,L|31:282,2,40
227,246,16683,2,0,P|250:172|236:118,1,120
160,108,16989,6,0,L|276:97,1,80
227,246,17295,1,0,0:0:0:0:
69,206,17448,2,0,L|185:195,1,80
340,186,17754,1,0,0:0:0:0:
256,338,17907,2,0,P|235:282|241:237,1,80
373,99,18213,6,0,P|417:199|333:175,1,240
383,19,18826,2,0,L|371:110,1,80
349,297,19132,1,0,0:0:0:0:
259,192,19285,1,0,0:0:0:0:
259,192,19361,1,0,0:0:0:0:
259,192,19438,2,0,L|339:185,1,80
163,253,19744,2,0,L|83:260,1,80
228,324,19974,5,0,0:0:0:0:
228,324,20050,2,0,P|290:338|320:234,1,180.000006866455
374,159,20356,2,0,P|291:144|344:53,1,180.000006866455
477,158,20662,6,0,P|472:198|445:236,1,80
347,286,20968,1,0,0:0:0:0:
347,286,21122,1,0,0:0:0:0:
259,192,21275,2,0,L|259:143,2,40
226,314,21581,2,0,P|179:319|133:301,1,80
51,186,21887,5,0,0:0:0:0:
122,134,22040,1,0,0:0:0:0:
131,221,22193,1,0,0:0:0:0:
51,186,22346,1,0,0:0:0:0:
122,134,22499,2,0,P|159:124|203:135,1,80
267,21,22805,2,0,L|270:68,3,40
291,152,23111,6,0,P|352:178|452:157,1,160
221,232,23571,1,0,0:0:0:0:
221,232,23724,2,0,P|160:206|60:227,1,160
300,315,24183,5,0,0:0:0:0:
300,315,24336,2,0,L|310:228,1,80
212,69,24642,2,0,L|202:156,1,80
395,227,24948,2,0,L|405:140,1,80
117,157,25254,1,0,0:0:0:0:
112,196,25330,1,0,0:0:0:0:
107,236,25407,1,0,0:0:0:0:
291,130,25560,6,0,P|312:78|287:3,1,120
225,143,25866,2,0,L|322:137,1,80
207,236,26173,2,0,L|160:238,2,40
309,235,26479,2,0,B|340:234|364:217|364:217|420:246|392:317,1,160
234,361,26938,5,0,0:0:0:0:
154,319,27091,1,0,0:0:0:0:
309,235,27244,1,0,0:0:0:0:
235,276,27550,5,0,0:0:0:0:
253,75,27703,2,0,L|256:32,12,26.6666666666667
163,141,28468,1,0,0:0:0:0:
126,68,28622,2,0,L|45:57,1,80
78,168,28928,2,0,P|70:211|81:268,1,80
178,342,29234,1,0,0:0:0:0:
294,260,29387,2,0,P|350:202|327:118,1,160
289,65,29769,1,0,0:0:0:0:
263,82,29846,6,0,L|446:84,1,180.000006866455
254,178,30152,2,0,B|203:170|203:170|158:187|158:187|148:150|148:150|181:134|212:137,1,180.000006866455
294,260,30458,6,0,B|212:246|212:246|152:269,1,120.000004577637
409,262,30917,6,0,L|412:303,8,30.0000011444092
424,168,31377,2,0,B|451:149|463:118|463:118|407:137|329:116,1,180.000006866455
263,58,31683,6,0,L|258:25,1,30.0000011444092
254,178,31836,2,0,L|249:211,1,30.0000011444092
168,113,31989,2,0,L|165:84,1,30.0000011444092
75,143,32142,6,0,L|42:142,8,30.0000011444092
168,129,32601,2,0,B|172:167|154:200|154:200|181:211|181:211|188:252|170:290,1,180.000006866455
85,251,32907,6,0,P|54:289|77:324,1,90.0000034332277
171,286,33213,6,0,B|250:291|250:291|196:307,1,120
252,198,33519,6,0,B|383:183|383:183|330:224,1,180.000006866455
168,129,33826,6,0,P|114:155|43:106,1,136.000002593994
62,105,34055,1,0,0:0:0:0:
72,87,34132,1,0,0:0:0:0:
266,28,34285,6,0,B|244:70|283:76|256:125,1,80
252,198,34591,1,0,0:0:0:0:
368,323,34744,1,0,0:0:0:0:
385,278,34846,1,0,0:0:0:0:
373,231,34948,1,0,0:0:0:0:
401,143,35050,1,0,0:0:0:0:
387,96,35152,1,0,0:0:0:0:
400,50,35254,1,0,0:0:0:0:
308,147,35356,6,0,B|230:168|230:168|188:151,1,120.000004577637
94,100,35815,6,0,L|48:106,6,30.0000011444092
121,120,36122,1,0,0:0:0:0:
66,192,36275,2,0,P|59:270|167:276,1,180.000006866455
208,217,36581,5,0,0:0:0:0:
242,119,36734,2,0,B|281:103|281:103|307:129|348:113,1,90.0000034332277
416,117,37040,6,0,L|420:79,6,30.0000011444092
436,147,37346,1,0,0:0:0:0:
435,234,37499,2,0,B|391:237|367:205|367:205|348:234|348:234|305:196|271:209,1,180.000006866455
90,97,37805,6,0,L|172:87,1,60.0000022888184
360,160,37958,2,0,L|281:156,1,60.0000022888184
38,134,38111,6,0,L|138:102,1,80
408,116,38264,2,0,L|308:148,1,80
172,195,38417,6,0,B|181:169|181:169|181:146|181:146|225:155|261:173|268:237|225:311|122:256,1,240
79,240,38724,1,0,0:0:0:0:
73,216,38800,1,0,0:0:0:0:
67,192,38877,1,0,0:0:0:0:
61,168,38953,1,0,0:0:0:0:
55,144,39030,6,0,B|67:113|113:84|113:84|152:95|152:95|175:78|214:73,1,180.000006866455
302,37,39336,2,0,B|313:73|341:93|341:93|377:93|377:93|385:138|445:154,1,180.000006866455
315,221,39642,2,0,P|333:284|233:255,1,180.000006866455
179,135,39948,6,0,B|221:134|221:134|255:154|255:154|288:134|288:134|364:138,1,160
192,222,40254,6,0,L|92:213,1,80
21,206,40560,1,0,0:0:0:0:
81,73,40713,6,0,L|75:139,1,60
93,155,41019,1,0,0:0:0:0:
176,58,41173,6,0,L|300:58,1,120.000004577637
417,57,41479,6,0,L|417:96,1,40
412,230,41632,2,0,L|412:190,1,40
390,31,41785,2,0,L|390:70,1,40
440,264,41938,6,0,L|439:197,1,60
412,289,42244,1,0,0:0:0:0:
292,287,42397,6,0,L|172:286,1,120.000004577637
58,247,42703,5,0,0:0:0:0:
235,198,42856,1,0,0:0:0:0:
93,171,43009,1,0,0:0:0:0:
216,231,43162,1,0,0:0:0:0:
76,137,43315,2,0,L|85:72,1,60.0000022888184
156,218,43468,2,0,L|147:283,1,60.0000022888184
41,159,43622,2,0,L|50:94,1,60.0000022888184
187,196,43775,2,0,L|178:261,1,60.0000022888184
123,77,43928,6,0,L|117:45,1,30.0000011444092
221,65,44081,2,0,L|221:33,1,30.0000011444092
314,75,44234,2,0,L|321:44,1,30.0000011444092
397,106,44387,2,0,L|416:71,1,30.0000011444092
267,231,44540,6,0,B|255:305|255:305|273:340,2,106.666666666667
267,231,44846,6,0,B|279:157|279:157|261:122,2,106.666666666667
267,231,45152,2,0,L|168:226,1,80
87,219,45458,1,0,0:0:0:0:
185,128,45611,6,0,L|186:62,1,60
188,35,45917,1,0,0:0:0:0:
90,174,46071,6,0,L|94:55,1,120.000004577637
45,157,46377,5,0,0:0:0:0:
196,220,46530,1,0,0:0:0:0:
60,267,46683,1,0,0:0:0:0:
141,344,46836,6,0,L|65:349,1,60
50,349,47142,1,0,0:0:0:0:
221,305,47295,6,0,B|293:318|293:318|348:305,1,120.000004577637
181,224,47601,6,0,L|115:217,1,60.0000022888184
331,160,47754,2,0,L|397:167,1,60.0000022888184
128,181,47907,6,0,L|14:191,1,80
384,203,48060,2,0,L|498:193,1,80
256,292,48213,6,0,B|227:254|230:213|230:213|270:188|270:188|243:126|243:126|263:77,1,240
134,46,48519,1,0,0:0:0:0:
109,64,48596,1,0,0:0:0:0:
85,82,48673,1,0,0:0:0:0:
61,100,48749,1,0,0:0:0:0:
39,121,48826,6,0,B|50:181|50:181|28:246|28:246|44:306,1,180.000006866455
170,338,49132,2,0,B|157:289|157:289|179:224|179:224|168:164,1,180.000006866455
134,46,49438,1,0,0:0:0:0:
272,172,49591,1,0,0:0:0:0:
313,170,49667,1,0,0:0:0:0:
355,170,49744,1,0,0:0:0:0:
168,164,49897,1,0,0:0:0:0:
446,167,50050,6,0,B|430:225|430:225|383:255|383:255|329:254,1,160
270,309,50509,1,0,0:0:0:0:
204,250,50662,1,0,0:0:0:0:
137,307,50815,1,0,0:0:0:0:
138,314,50892,1,0,0:0:0:0:
139,321,50968,1,0,0:0:0:0:
43,280,51122,1,0,0:0:0:0:
103,216,51275,5,0,0:0:0:0:
29,167,51428,1,0,0:0:0:0:
62,85,51581,1,0,0:0:0:0:
149,75,51734,1,0,0:0:0:0:
229,111,51887,2,0,L|228:158,1,40
320,122,52040,2,0,L|316:83,1,40
411,93,52193,2,0,B|414:138|414:138|396:193,1,80
345,249,52499,5,0,0:0:0:0:
414,302,52652,1,0,0:0:0:0:
450,221,52805,1,0,0:0:0:0:
458,220,52882,1,0,0:0:0:0:
465,219,52958,1,0,0:0:0:0:
404,147,53111,1,0,0:0:0:0:
442,67,53264,1,0,0:0:0:0:
354,74,53417,1,0,0:0:0:0:
271,42,53571,1,0,0:0:0:0:
286,128,53724,5,0,0:0:0:0:
211,174,53877,1,0,0:0:0:0:
150,110,54030,1,0,0:0:0:0:
62,110,54183,1,0,0:0:0:0:
89,193,54336,2,0,L|49:198,1,40
119,282,54489,2,0,L|160:289,1,40
42,349,54642,2,0,B|30:303|30:303|38:262,1,80
250,254,54948,6,0,P|252:313|236:355,1,80
180,203,55254,2,0,P|178:144|194:102,1,80
238,55,55560,1,0,0:0:0:0:
313,99,55713,1,0,0:0:0:0:
383,46,55866,1,0,0:0:0:0:
443,110,56019,2,0,B|457:162|457:162|447:192,1,80
379,311,56326,5,0,0:0:0:0:
379,311,56479,2,0,B|365:259|365:259|375:229,1,80
275,116,56785,2,0,B|289:168|289:168|279:198,1,80
202,302,57091,2,0,B|188:250|188:250|198:220,1,80
147,152,57397,5,0,0:0:0:0:
75,203,57550,1,0,0:0:0:0:
114,281,57703,1,0,0:0:0:0:
45,336,57856,1,0,0:0:0:0:
120,285,58009,2,0,L|179:284,1,40
255,335,58162,2,0,L|196:336,1,40
213,202,58315,1,0,0:0:0:0:
285,252,58468,1,0,0:0:0:0:
293,252,58545,1,0,0:0:0:0:
301,252,58622,1,0,0:0:0:0:
355,163,58775,5,0,0:0:0:0:
414,227,58928,1,0,0:0:0:0:
461,152,59081,1,0,0:0:0:0:
387,55,59234,2,0,L|429:32,1,40
307,87,59387,2,0,L|269:74,1,40
279,167,59540,2,0,B|307:178|307:178|362:160,1,80
170,103,59846,6,0,L|164:237,1,120
165,246,60152,2,0,P|112:241|111:302,1,120
236,278,60458,2,0,B|270:270|270:270|326:283,1,80
333,278,60688,1,0,0:0:0:0:
352,276,60764,1,0,0:0:0:0:
410,204,60917,1,0,0:0:0:0:
491,238,61071,1,0,0:0:0:0:
330,135,61224,6,0,L|316:96,1,40
441,105,61377,2,0,L|449:66,1,40
299,106,61530,2,0,L|285:67,1,40
410,204,61683,6,0,B|389:221|376:236|376:236|345:222|345:222|324:233|324:233|293:224|293:224|249:245|226:216,1,180.000006866455
233,258,61989,2,0,P|203:188|172:263,1,180.000006866455
194,333,62295,5,0,0:0:0:0:
109,355,62448,1,0,0:0:0:0:
51,288,62601,1,0,0:0:0:0:
42,288,62678,1,0,0:0:0:0:
34,288,62754,1,0,0:0:0:0:
104,213,62907,1,0,0:0:0:0:
137,131,63060,1,0,0:0:0:0:
89,57,63213,1,0,0:0:0:0:
55,138,63366,1,0,0:0:0:0:
215,178,63519,6,0,L|263:175,1,40
301,73,63673,2,0,L|253:76,1,40
237,202,63826,1,0,0:0:0:0:
282,57,63979,1,0,0:0:0:0:
326,211,64132,2,0,L|314:271,2,53.3333333333333
409,248,64438,2,0,B|457:255|485:222|485:222|469:186|477:140,1,160
360,335,65050,5,0,0:0:0:0:
286,287,65203,1,0,0:0:0:0:
211,333,65356,1,0,0:0:0:0:
155,265,65509,1,0,0:0:0:0:
155,256,65586,1,0,0:0:0:0:
155,248,65662,1,0,0:0:0:0:
67,325,65815,6,0,P|46:279|62:162,1,160
168,42,66275,2,0,P|173:83|168:124,1,80
233,317,66581,2,0,P|228:276|233:235,1,80
322,56,66887,2,0,P|327:97|322:138,1,80
344,230,67193,6,0,L|302:233,1,40
426,287,67346,2,0,L|468:284,1,40
342,316,67499,1,0,0:0:0:0:
434,200,67652,1,0,0:0:0:0:
434,200,67729,1,0,0:0:0:0:
434,200,67805,2,0,L|439:103,2,80
323,54,68264,5,0,0:0:0:0:
323,54,68341,1,0,0:0:0:0:
323,54,68417,2,0,L|328:144,1,80
246,265,68724,2,0,L|258:174,1,80
195,48,69030,2,0,L|197:107,1,40
137,209,69183,2,0,L|154:158,1,40
108,71,69336,2,0,B|76:81|40:57|40:57|-5:119|39:168,1,180.000006866455
48,175,69642,6,0,L|36:260,1,80
56,263,69872,2,0,L|44:348,1,80
62,353,70101,1,0,0:0:0:0:
245,301,70254,6,0,P|261:233|247:172,1,106.666666666667
163,246,70560,2,0,P|147:314|161:375,1,106.666666666667
355,341,70866,6,0,L|362:286,1,40
352,274,71019,2,0,L|359:219,1,40
345,205,71172,2,0,L|352:150,1,40
342,136,71325,2,0,L|349:81,1,40
234,50,71479,6,0,B|190:75|190:75|178:109|178:109|130:108|130:108|116:140|116:140|64:139,1,204.000003890991
82,245,71785,2,0,B|116:244|116:244|130:276|130:276|178:275|178:275|190:309|190:309|234:334,1,204.000003890991
356,342,72091,6,0,P|412:351|388:284,1,155.999992858887
301,241,72397,1,0,0:0:0:0:
298,256,72474,1,0,0:0:0:0:
296,271,72550,1,0,0:0:0:0:
382,201,72703,2,0,B|403:173|403:173|386:134|386:134|401:95|390:53,1,155.999992858887
299,88,73009,2,0,B|224:140|164:64|235:42|259:68,1,155.999992858887
292,177,73315,6,0,L|226:185,1,51.999997619629
367,308,73622,2,0,P|285:269|191:289,1,155.999992858887
196,300,73928,6,0,P|205:248|100:276,1,204.000003890991
28,198,74234,2,0,P|45:114|151:163,1,204.000003890991
229,214,74540,6,0,B|233:177|233:177|229:168|229:168|233:130,1,80
300,202,74769,2,0,B|304:165|304:165|300:156|300:156|304:118,1,80
372,194,74999,1,0,0:0:0:0:
403,325,75152,6,0,P|354:307|295:326,1,106.666666666667
196,300,75458,2,0,P|118:312|80:294,1,106.666666666667
66,169,75764,6,0,L|59:118,1,40
135,157,75917,2,0,L|128:106,1,40
204,145,76071,2,0,L|197:94,1,40
272,133,76224,2,0,L|265:82,1,40
446,234,76377,6,0,B|378:221|378:221|319:248|319:248|282:232|282:232|232:232,1,204.000003890991
63,298,76683,2,0,B|118:322|118:322|185:301|185:301|220:317|220:317|266:317,1,204.000003890991
388,310,76989,6,0,B|357:261|357:261|359:212|359:212|368:186|386:169,1,155.999992858887
439,106,77295,1,0,0:0:0:0:
454,108,77372,1,0,0:0:0:0:
467,115,77448,1,0,0:0:0:0:
297,162,77601,2,0,B|179:164|179:164|235:127,1,155.999992858887
212,17,77907,2,0,B|199:60|223:102|223:102|200:120|200:120|217:165,1,155.999992858887
251,297,78213,6,0,L|250:246,1,51.999997619629
119,343,78519,2,0,P|144:276|135:177,1,155.999992858887
106,189,78826,6,0,P|190:160|96:109,1,204.000003890991
233,255,79132,2,0,B|369:270|369:270|438:224,1,204.000003890991
503,175,79438,5,0,0:0:0:0:
92,266,79744,1,0,0:0:0:0:
279,58,80050,1,0,0:0:0:0:
257,341,80356,1,0,0:0:0:0:
299,153,80815,5,0,0:0:0:0:
195,246,80968,1,0,0:0:0:0:
336,235,81122,1,0,0:0:0:0:
196,153,81275,2,0,P|148:140|105:146,1,80
7,228,81581,2,0,P|55:241|98:235,1,80
196,226,81887,6,0,B|192:104|192:104|230:148,1,160
299,153,82346,1,0,0:0:0:0:
384,132,82499,2,0,L|391:48,1,80
461,165,82805,2,0,L|454:244,1,80
443,341,83111,5,0,0:0:0:0:
368,275,83264,2,0,P|315:255|325:331,1,160
201,305,83724,6,0,L|163:309,14,30.0000011444092
135,329,84336,6,0,B|124:214|124:214|157:158,1,155.999992858887
182,154,84642,2,0,L|70:163,1,103.999995239258
264,230,84948,1,0,0:0:0:0:
256,72,85101,1,0,0:0:0:0:
178,171,85254,1,0,0:0:0:0:
342,138,85407,2,0,L|396:132,1,51.999997619629
393,219,85560,6,0,P|403:291|387:335,1,103.999995239258
265,330,85866,2,0,P|255:258|271:214,1,103.999995239258
356,75,86173,1,0,0:0:0:0:
178,171,86326,1,0,0:0:0:0:
332,154,86479,1,0,0:0:0:0:
201,90,86632,1,0,0:0:0:0:
393,219,86785,5,0,0:0:0:0:
202,262,86938,1,0,0:0:0:0:
181,245,87014,1,0,0:0:0:0:
172,220,87091,1,0,0:0:0:0:
331,285,87244,1,0,0:0:0:0:
335,310,87321,1,0,0:0:0:0:
326,334,87397,1,0,0:0:0:0:
305,173,87550,1,0,0:0:0:0:
300,147,87627,1,0,0:0:0:0:
306,122,87703,1,0,0:0:0:0:
456,249,87856,5,0,0:0:0:0:
447,274,87933,1,0,0:0:0:0:
426,291,88009,1,0,0:0:0:0:
250,304,88162,1,0,0:0:0:0:
383,143,88315,1,0,0:0:0:0:
346,334,88468,1,0,0:0:0:0:
281,153,88622,2,0,P|270:128|246:102,1,51.999997619629
172,129,88775,2,0,P|147:118|106:117,1,51.999997619629
92,195,88928,2,0,P|62:205|40:231,1,51.999997619629
102,290,89081,2,0,P|92:323|97:358,1,51.999997619629
210,307,89234,6,0,B|307:288|307:288|361:320,1,155.999992858887
392,324,89540,2,0,P|412:276|405:215,1,103.999995239258
254,244,89846,1,0,0:0:0:0:
322,81,89999,2,0,P|345:65|376:61,1,51.999997619629
423,134,90152,2,0,P|454:141|478:160,1,51.999997619629
438,240,90305,2,0,P|453:279|449:307,1,51.999997619629
342,213,90458,6,0,L|343:182,15,25.9999988098145
268,167,91071,2,0,L|276:121,5,34.6666650797527
254,244,91377,2,0,B|185:235|185:235|148:247,1,103.999995239258
264,329,91683,6,0,B|333:338|333:338|370:326,1,103.999995239258
465,250,91989,1,0,0:0:0:0:
362,213,92142,1,0,0:0:0:0:
389,90,92295,2,0,L|490:68,1,103.999995239258
290,139,92601,2,0,P|226:127|179:76,1,103.999995239258
376,82,92907,5,0,0:0:0:0:
376,224,93060,1,0,0:0:0:0:
287,307,93213,2,0,B|239:333|205:326|205:326|166:295|104:306,1,155.999992858887
102,320,93519,2,0,P|130:248|52:248,1,155.999992858887
14,306,93826,1,0,0:0:0:0:
192,248,93979,1,0,0:0:0:0:
69,241,94132,6,0,P|49:167|85:73,1,155.999992858887
60,71,94438,2,0,L|169:74,1,103.999995239258
316,78,94744,1,0,0:0:0:0:
274,240,94897,1,0,0:0:0:0:
199,136,95050,1,0,0:0:0:0:
121,185,95203,1,0,0:0:0:0:
138,339,95356,6,0,P|186:317|197:262,1,103.999995239258
121,185,95662,2,0,P|73:207|62:262,1,103.999995239258
251,340,95968,1,0,0:0:0:0:
392,259,96122,1,0,0:0:0:0:
239,261,96275,1,0,0:0:0:0:
379,338,96428,1,0,0:0:0:0:
236,344,96581,5,0,0:0:0:0:
329,199,96734,1,0,0:0:0:0:
336,174,96810,1,0,0:0:0:0:
333,147,96887,1,0,0:0:0:0:
228,153,97040,1,0,0:0:0:0:
221,128,97116,1,0,0:0:0:0:
199,112,97193,1,0,0:0:0:0:
111,160,97346,1,0,0:0:0:0:
85,152,97423,1,0,0:0:0:0:
61,161,97499,1,0,0:0:0:0:
65,264,97652,5,0,0:0:0:0:
50,285,97729,1,0,0:0:0:0:
52,310,97805,1,0,0:0:0:0:
215,256,97958,1,0,0:0:0:0:
305,318,98111,1,0,0:0:0:0:
143,346,98264,1,0,0:0:0:0:
121,199,98417,2,0,L|112:146,1,51.999997619629
205,152,98571,2,0,L|208:91,1,51.999997619629
297,125,98724,2,0,L|312:74,1,51.999997619629
390,130,98877,2,0,L|430:81,1,51.999997619629
474,169,99030,6,0,B|479:293|479:293|454:263,1,155.999992858887
455,248,99336,2,0,P|396:240|353:255,1,103.999995239258
229,315,99642,1,0,0:0:0:0:
348,305,99795,2,0,P|352:280|353:236,1,51.999997619629
272,211,99948,2,0,P|268:175|261:149,1,51.999997619629
173,147,100101,2,0,P|160:116|147:96,1,51.999997619629
68,191,100254,6,0,L|61:220,15,25.9999988098145
52,113,100866,2,0,L|47:67,5,34.6666650797527
130,137,101173,2,0,B|196:114|196:114|246:139,1,103.999995239258
144,244,101479,6,0,B|78:267|78:267|28:242,1,103.999995239258
237,225,101785,2,0,L|227:337,1,103.999995239258
330,217,102091,2,0,B|321:157|321:157|288:142|268:109,1,103.999995239258
331,312,102397,2,0,L|446:277,1,103.999995239258
482,107,102703,5,0,0:0:0:0:
462,296,102856,1,0,0:0:0:0:
401,164,103009,2,0,P|337:120|282:184,1,155.999992858887
264,252,103315,1,0,0:0:0:0:
172,194,103468,1,0,0:0:0:0:
172,194,103545,1,0,0:0:0:0:
172,194,103622,1,0,0:0:0:0:
324,101,103775,1,0,0:0:0:0:
335,187,104081,5,0,0:0:0:0:
255,155,104234,1,0,0:0:0:0:
324,101,104387,1,0,0:0:0:0:
441,265,104693,6,0,P|440:304|437:326,1,51.999997619629
344,285,104846,6,0,B|304:270|304:270|204:292|204:292|145:272,1,180.000006866455
84,278,105152,1,0,0:0:0:0:
150,122,114948,6,0,B|142:184|142:184|148:213|148:213|134:307,1,160
234,113,115407,2,0,B|226:175|226:175|232:204|232:204|218:298,1,160
315,340,115866,1,0,0:0:0:0:
414,286,116019,1,0,0:0:0:0:
297,239,116173,6,0,L|198:247,1,80
88,291,116479,1,0,0:0:0:0:
175,225,116632,2,0,L|254:218,1,80
358,152,116938,2,0,P|323:149|305:137,1,40
429,82,117091,2,0,P|449:53|468:43,1,40
450,177,117244,2,0,P|464:208|463:230,1,40
296,239,117397,6,0,B|254:155|254:155|272:86,1,160
175,225,117856,2,0,B|217:309|217:309|199:378,1,160
53,302,118315,1,0,0:0:0:0:
77,215,118468,1,0,0:0:0:0:
23,138,118622,6,0,L|36:55,1,80
165,129,118928,1,0,0:0:0:0:
245,70,119081,1,0,0:0:0:0:
298,180,119234,2,0,L|291:243,2,53.3333333333333
386,89,119540,2,0,P|413:79|436:78,1,40
428,196,119693,2,0,P|454:196|477:202,1,40
358,328,119846,6,0,B|312:315|270:356|270:356|229:308|196:325,1,160
106,337,120305,2,0,P|57:330|62:222,1,160
136,152,120764,1,0,0:0:0:0:
192,232,120917,1,0,0:0:0:0:
124,132,121071,6,0,P|70:121|45:123,1,80
208,248,121377,2,0,B|220:128|220:128|240:172,1,160
332,224,121836,2,0,L|380:216,1,40
488,192,121989,2,0,L|432:192,1,40
304,176,122142,2,0,L|360:184,1,40
352,320,122295,6,0,P|292:363|207:342,1,160
19,189,122754,2,0,P|79:146|164:167,1,160
248,240,123213,1,0,0:0:0:0:
180,310,123366,1,0,0:0:0:0:
347,297,123519,6,0,B|353:257|353:257|336:206,1,80
344,113,123826,2,0,B|226:139|226:139|168:114,1,160
94,90,124285,1,0,0:0:0:0:
62,86,124361,1,0,0:0:0:0:
30,93,124438,1,0,0:0:0:0:
70,196,124591,2,0,P|52:245|56:278,1,80
192,324,124897,6,0,L|201:262,1,40
206,112,125050,2,0,L|206:172,1,40
280,284,125203,2,0,L|276:235,1,40
134,156,125356,1,0,0:0:0:0:
134,156,125433,1,0,0:0:0:0:
134,156,125509,1,0,0:0:0:0:
239,206,125662,6,0,B|287:201|314:133|314:133|385:158|396:224,1,240.000009155274
408,248,126275,2,0,P|443:295|475:189,1,240.000009155274
437,118,126734,1,0,0:0:0:0:
399,42,126887,1,0,0:0:0:0:
353,112,127040,1,0,0:0:0:0:
270,128,127193,5,0,0:0:0:0:
209,69,127346,1,0,0:0:0:0:
185,149,127499,2,0,B|162:166|162:166|132:157|132:157|97:163|97:163|70:153|70:153|39:164,1,155.999992858887
70,240,127805,2,0,B|98:251|98:251|129:243|129:243|173:255|173:255|228:241,1,155.999992858887
312,206,128111,2,0,B|297:324|297:324|330:269,1,155.999992858887
406,203,128417,6,0,L|421:299,1,90.0000034332277
456,322,128724,6,0,P|360:298|244:337,1,180.000006866455
112,317,129030,6,0,L|192:306,1,80
133,101,129336,2,0,L|150:238,1,120
116,227,129642,1,0,0:0:0:0:
257,41,129948,1,0,0:0:0:0:
396,227,130254,1,0,0:0:0:0:
396,227,130866,5,0,0:0:0:0:
319,300,131173,1,0,0:0:0:0:
193,300,131479,1,0,0:0:0:0:
116,227,131785,1,0,0:0:0:0:
247,93,132091,6,0,L|240:173,1,80
146,69,132397,1,0,0:0:0:0:
216,211,132550,2,0,L|223:131,1,80
371,41,132856,1,0,0:0:0:0:
424,118,133009,2,0,L|469:122,1,40
341,167,133162,2,0,L|301:163,1,40
417,218,133315,6,0,P|426:269|412:344,1,120
320,346,133622,2,0,B|244:315|244:315|197:327,1,120
117,348,133928,2,0,L|110:304,1,40
37,262,134081,2,0,L|47:198,1,40
65,98,134234,1,0,0:0:0:0:
91,107,134310,1,0,0:0:0:0:
118,110,134387,1,0,0:0:0:0:
145,104,134463,1,0,0:0:0:0:
169,89,134540,6,0,P|229:64|204:157,1,180.000006866455
249,247,134846,2,0,P|206:225|218:317,1,180.000006866455
371,307,135152,2,0,B|379:283|379:283|366:262|366:262|394:232|394:232|366:209|366:209|397:157|370:85,1,240.000009155274
372,69,135535,1,0,0:0:0:0:
363,40,135611,1,0,0:0:0:0:
200,192,135764,6,0,L|114:204,1,80
32,152,136071,1,0,0:0:0:0:
160,280,136224,1,0,0:0:0:0:
65,228,136530,2,0,L|104:223,1,40
147,139,136683,1,0,0:0:0:0:
151,115,136759,1,0,0:0:0:0:
144,90,136836,1,0,0:0:0:0:
232,52,136989,6,0,B|281:64|281:64|313:106|313:106|369:122|416:93,1,180.000006866455
240,40,137295,1,0,0:0:0:0:
237,139,137448,2,0,B|256:173|256:173|235:206|234:233|234:233|257:254|257:254|257:289|245:315,1,180.000006866455
147,246,137754,2,0,P|145:201|143:167,1,60.0000022888184
277,304,137907,2,0,B|231:363|155:347|155:347|126:319|126:319|89:316,1,204.000003890991
40,257,138213,6,0,B|67:191|67:191|114:180|135:132,1,155.999992858887
218,197,138519,2,0,B|229:247|280:262|280:262|311:240|353:242,1,155.999992858887
463,254,138826,1,0,0:0:0:0:
391,133,138979,2,0,L|358:206,1,51.999997619629
364,278,139132,6,0,B|318:132|318:132|284:207,1,204.000003890991
266,265,139438,6,0,P|216:284|157:257,1,120
58,244,139744,2,0,L|49:297,1,40
124,179,139897,2,0,L|132:132,1,40
139,318,140050,2,0,L|139:333,9,13.3333333333333
132,315,140356,2,0,P|183:315|209:293,1,60.0000022888184
236,217,140509,2,0,P|226:182|241:137,1,60.0000022888184
417,134,140662,6,0,P|432:184|423:223,1,80
341,290,140815,2,0,P|326:240|335:201,1,80
449,174,140968,2,0,P|445:226|422:259,1,80
306,253,141121,2,0,P|309:200|332:167,1,80
463,305,141275,2,0,B|398:261|398:261|353:289|295:266|295:266|241:295,1,240
128,296,141581,2,0,L|44:306,1,80
184,224,141734,2,0,L|111:180,1,80
216,96,141887,5,0,0:0:0:0:
352,160,142040,1,0,0:0:0:0:
232,168,142193,1,0,0:0:0:0:
336,88,142346,1,0,0:0:0:0:
288,240,142499,2,0,L|280:288,1,40
384,176,142652,2,0,L|390:136,1,40
306,253,142805,2,0,L|298:301,1,40
400,192,142958,2,0,L|406:152,1,40
427,293,143111,5,0,0:0:0:0:
281,249,143264,1,0,0:0:0:0:
432,208,143417,1,0,0:0:0:0:
467,201,143494,1,0,0:0:0:0:
482,168,143571,1,0,0:0:0:0:
406,38,143724,2,0,L|397:19,9,13.3333333333333
430,47,144030,6,0,B|383:36|337:71|337:71|285:70|248:40,1,180.000006866455
109,161,144336,6,0,B|147:173|193:138|193:138|245:139|276:167,1,160
281,249,144795,1,0,0:0:0:0:
201,302,144948,2,0,L|144:299,1,40
366,316,145101,2,0,L|411:308,1,40
182,317,145254,2,0,L|125:314,1,40
378,294,145407,2,0,L|423:286,1,40
281,249,145560,5,0,0:0:0:0:
267,142,145713,1,0,0:0:0:0:
372,206,145866,2,0,P|382:150|384:122,1,80
274,49,146173,1,0,0:0:0:0:
207,67,146275,1,0,0:0:0:0:
140,85,146377,1,0,0:0:0:0:
110,160,146479,1,0,0:0:0:0:
175,183,146581,1,0,0:0:0:0:
240,206,146683,1,0,0:0:0:0:
173,272,146785,6,0,L|158:279,9,13.3333333333333
240,206,147091,1,0,0:0:0:0:
314,266,147244,2,0,B|356:245|408:270|408:270|468:243,1,160
352,342,147703,1,0,0:0:0:0:
459,328,147856,2,0,P|460:298|457:258,1,40
334,351,148009,5,0,0:0:0:0:
387,206,148162,2,0,B|387:108|387:108|403:145,1,120.000004577637
394,224,148468,1,0,0:0:0:0:
249,197,148622,1,0,0:0:0:0:
274,107,148775,1,0,0:0:0:0:
157,223,148928,1,0,0:0:0:0:
314,266,149081,1,0,0:0:0:0:
256,105,149234,6,0,L|247:89,6,13.3333333333333
164,241,149540,1,0,0:0:0:0:
327,253,149693,1,0,0:0:0:0:
239,106,149846,6,0,L|227:92,6,13.3333333333333
224,256,150152,1,0,0:0:0:0:
256,248,150229,1,0,0:0:0:0:
288,240,150305,1,0,0:0:0:0:
316,109,150458,6,0,P|313:70|318:35,1,68.0000012969971
173,132,150611,2,0,P|134:135|99:130,1,68.0000012969971
196,275,150764,2,0,P|199:314|194:349,1,68.0000012969971
339,252,150917,2,0,P|378:249|413:254,1,68.0000012969971
136,224,151071,5,0,0:0:0:0:
376,160,151224,1,0,0:0:0:0:
256,192,151377,1,0,0:0:0:0:
256,192,151453,1,0,0:0:0:0:
256,192,151530,1,0,0:0:0:0:
256,192,151606,1,0,0:0:0:0:
256,192,151683,5,0,0:0:0:0:
64,168,151989,1,0,0:0:0:0:
76,84,152142,1,0,0:0:0:0:
184,88,152295,1,0,0:0:0:0:
64,76,152448,1,0,0:0:0:0:
172,80,152601,1,0,0:0:0:0:
288,48,152754,1,0,0:0:0:0:
288,48,152831,1,0,0:0:0:0:
288,48,152907,1,0,0:0:0:0:
352,152,153060,5,0,0:0:0:0:
260,152,153213,1,0,0:0:0:0:
388,72,153366,1,0,0:0:0:0:
440,152,153519,2,0,P|448:196|440:240,1,80
360,344,153749,1,0,0:0:0:0:
360,344,153826,2,0,P|352:300|360:256,1,80
248,260,154132,5,0,0:0:0:0:
124,296,154285,1,0,0:0:0:0:
220,336,154438,1,0,0:0:0:0:
192,200,154591,1,0,0:0:0:0:
192,200,154667,1,0,0:0:0:0:
192,200,154744,1,0,0:0:0:0:
288,264,154897,1,0,0:0:0:0:
348,172,155050,1,0,0:0:0:0:
256,112,155203,1,0,0:0:0:0:
144,100,155356,6,0,L|132:104,9,13.3333333333333
224,28,155662,1,0,0:0:0:0:
224,28,155739,1,0,0:0:0:0:
224,28,155815,1,0,0:0:0:0:
128,212,155968,6,0,P|120:244|112:268,1,40
224,240,156122,2,0,P|224:264|220:288,1,40
316,256,156275,2,0,P|320:288|324:304,1,40
416,244,156428,5,0,0:0:0:0:
416,244,156504,1,0,0:0:0:0:
416,244,156581,2,0,B|420:124|420:124|392:168,1,160
448,320,157040,1,0,0:0:0:0:
320,256,157193,2,0,P|276:264|244:296,1,80
256,140,157499,1,0,0:0:0:0:
268,360,157652,6,0,B|236:348|220:304|220:304|168:288|128:316,1,160
60,228,158111,1,0,0:0:0:0:
92,140,158264,1,0,0:0:0:0:
52,52,158417,1,0,0:0:0:0:
180,96,158571,1,0,0:0:0:0:
180,96,158647,1,0,0:0:0:0:
180,96,158724,1,0,0:0:0:0:
248,36,158877,1,0,0:0:0:0:
256,140,159030,6,0,P|256:196|248:228,1,80
160,336,159336,2,0,P|160:280|168:248,1,80
260,316,159642,1,0,0:0:0:0:
352,344,159795,1,0,0:0:0:0:
444,320,159948,1,0,0:0:0:0:
260,316,160101,1,0,0:0:0:0:
392,244,160254,6,0,L|416:248,9,13.3333333333333
308,200,160560,1,0,0:0:0:0:
296,172,160637,1,0,0:0:0:0:
300,144,160713,1,0,0:0:0:0:
200,252,160866,2,0,L|140:260,1,60
100,180,161096,2,0,L|160:172,1,60
28,280,161479,6,0,P|52:144|36:100,1,160
112,36,161938,1,0,0:0:0:0:
196,108,162091,2,0,L|284:100,1,80
176,220,162397,5,0,0:0:0:0:
176,220,162550,2,0,L|340:196,1,160
224,324,163009,2,0,L|140:316,1,80
376,276,163315,2,0,B|380:328|380:328|368:360,1,80
288,268,163545,1,0,0:0:0:0:
292,256,163622,2,0,B|288:204|288:204|300:172,1,80
408,132,163928,5,0,0:0:0:0:
288,72,164081,1,0,0:0:0:0:
384,40,164234,1,0,0:0:0:0:
272,88,164387,1,0,0:0:0:0:
272,88,164463,1,0,0:0:0:0:
272,88,164540,1,0,0:0:0:0:
404,120,164693,1,0,0:0:0:0:
280,180,164846,1,0,0:0:0:0:
400,216,164999,1,0,0:0:0:0:
260,252,165152,6,0,P|208:296|280:312,1,160
296,324,165535,1,0,0:0:0:0:
304,316,165611,1,0,0:0:0:0:
128,312,165764,2,0,L|128:256,1,40
88,152,165917,2,0,L|88:208,1,40
112,316,166071,2,0,L|112:260,1,40
72,156,166224,2,0,L|72:212,1,40
192,184,166377,6,0,B|220:64|220:64|236:124,1,160
304,204,166836,1,0,0:0:0:0:
392,148,166989,2,0,P|412:112|416:72,1,80
252,120,167295,1,0,0:0:0:0:
268,240,167448,6,0,B|344:280|344:280|412:244,1,160
160,252,167907,2,0,L|184:328,1,80
52,172,168213,2,0,B|88:176|88:176|148:164,1,80
88,80,168443,1,0,0:0:0:0:
96,72,168519,2,0,B|60:68|60:68|0:80,1,80
152,188,168826,5,0,0:0:0:0:
184,60,168979,1,0,0:0:0:0:
164,200,169132,2,0,L|160:244,1,40
200,320,169285,1,0,0:0:0:0:
200,320,169361,1,0,0:0:0:0:
200,320,169438,2,0,P|144:336|120:332,2,80
332,300,169897,6,0,L|328:256,1,40
320,260,170050,2,0,L|424:268,1,80
316,164,170356,2,0,L|212:172,1,80
396,148,170662,2,0,L|396:204,1,40
468,120,170815,2,0,L|471:80,1,40
480,200,170968,1,0,0:0:0:0:
388,64,171122,1,0,0:0:0:0:
384,238,171275,6,0,P|368:300|320:272,1,120
308,268,171581,2,0,L|304:316,1,40
160,244,171887,2,0,B|128:212|128:212|140:172|188:172,1,120
164,124,172193,6,0,P|256:168|344:104,1,204.000003890991
440,128,172499,6,0,P|448:144|440:168,1,40
388,280,172805,2,0,P|380:264|388:240,1,40
256,48,173111,6,0,P|264:64|256:88,1,40
220,184,173264,2,0,P|212:168|220:144,1,40
168,44,173417,2,0,P|176:60|168:84,1,40
132,180,173570,2,0,P|124:164|132:140,1,40
344,152,173724,6,0,P|352:168|344:192,1,40
304,256,173877,2,0,P|298:272|275:284,1,40
204,300,174030,2,0,P|188:308|164:300,1,40
100,260,174183,2,0,P|83:254|71:231,1,40
100,72,174336,6,0,P|116:65|139:76,1,40
148,180,174489,2,0,P|164:186|187:175,1,40
212,76,174642,2,0,P|228:69|251:80,1,40
260,176,174795,2,0,P|276:182|299:171,1,40
400,64,174948,6,0,P|416:57|439:68,1,40
448,192,175254,2,0,P|464:199|487:188,1,40
456,292,175560,6,0,P|452:312|430:322,1,40
328,336,175713,2,0,P|331:318|353:305,1,40
360,188,175866,6,0,P|356:205|334:218,1,40
160,192,176173,6,0,L|96:200,1,40
72,208,176326,1,0,0:0:0:0:
136,272,176479,2,0,L|175:267,1,40
152,344,176632,2,0,L|112:348,1,40
240,316,176785,6,0,P|256:305|260:286,1,40
248,208,176938,2,0,P|264:197|268:178,1,40
236,52,177091,2,0,P|219:62|215:81,1,40
356,152,177244,2,0,P|373:159|392:152,1,40
328,16,177397,6,0,P|320:32|336:76,1,60
164,52,178009,6,0,P|151:38|131:36,1,40
28,76,178162,2,0,P|40:89|60:91,1,40
164,140,178315,2,0,P|151:126|131:124,1,40
28,164,178468,2,0,P|40:177|60:179,1,40
204,276,178622,6,0,P|208:296|200:336,1,60
132,300,179157,1,0,0:0:0:0:
96,236,179234,2,0,L|128:228,1,30
152,196,179540,2,0,L|180:200,1,20
268,232,179769,1,0,0:0:0:0:
244,160,179846,6,0,P|268:156|292:164,1,40
272,304,180152,2,0,P|296:308|320:300,1,40
376,192,180458,2,0,P|400:188|424:196,1,40
400,272,180764,2,0,P|424:276|448:268,1,40
488,152,181071,6,0,P|496:124|480:92,1,60
468,80,181683,2,0,P|444:104|420:80,1,70
340,64,182295,6,0,P|316:76|300:56,1,40
164,68,182601,2,0,P|188:56|204:76,1,40
164,288,182907,6,0,P|140:300|124:280,1,40
144,204,183060,2,0,P|132:180|152:164,1,40
228,176,183213,2,0,P|252:164|268:184,1,40
256,256,183366,2,0,P|268:280|248:296,1,40
360,312,183519,6,0,P|384:312|408:292,1,40
440,240,183673,2,0,P|463:234|482:209,1,40
344,188,183826,2,0,P|365:177|378:148,1,40
396,88,183979,2,0,P|414:72|420:42,1,40
256,64,184132,6,0,P|237:58|222:70,1,40
208,164,184285,2,0,P|226:169|241:157,1,40
140,32,184438,2,0,P|121:26|106:38,1,40
92,132,184591,2,0,P|110:137|125:125,1,40
76,224,184744,6,0,P|66:240|74:258,1,40
208,264,185050,2,0,P|217:280|209:298,1,40
136,352,185356,6,0,P|126:335|134:317,1,40
288,304,185509,2,0,P|297:287|289:269,1,40
168,232,185662,6,0,P|158:215|166:197,1,40
204,108,185968,6,0,L|260:112,1,40
296,116,186122,1,0,0:0:0:0:
428,120,186275,2,0,L|428:72,1,40
360,184,186428,2,0,L|360:232,1,40
448,296,186581,6,0,P|456:320|448:344,1,40
368,344,186734,2,0,P|360:320|368:296,1,40
272,276,186887,2,0,P|280:300|272:324,1,40
192,324,187040,2,0,P|184:300|192:276,1,40
100,236,187193,6,0,P|104:284|96:296,1,60
112,92,187805,6,0,P|136:100|152:92,1,40
152,204,187958,2,0,P|176:196|192:204,1,40
256,60,188111,2,0,P|280:68|296:60,1,40
304,216,188264,2,0,P|328:208|344:216,1,40
400,104,188417,6,0,P|428:104|424:76,1,60
360,48,188953,1,0,0:0:0:0:
324,116,189030,2,0,P|312:124|296:120,1,30
264,112,189336,2,0,P|252:108|240:116,1,20
184,148,189565,1,0,0:0:0:0:
120,112,189642,6,0,P|92:108|72:112,1,40
72,192,189948,2,0,B|64:212|64:212|76:240,1,40
160,260,190254,2,0,B|168:272|168:272|160:296,1,40
76,340,190560,2,0,P|60:340|64:320,1,40
256,284,190866,6,0,B|272:272|272:272|320:280,1,60
328,268,191479,2,0,P|356:276|348:244,1,70
308,100,192091,6,0,L|296:184,1,80
148,212,192397,1,0,0:0:0:0:
432,312,192703,1,0,0:0:0:0:
184,328,193009,1,0,0:0:0:0:
324,320,193315,6,0,L|336:232,1,80
416,184,193622,1,0,0:0:0:0:
416,184,193775,1,0,0:0:0:0:
264,164,193928,2,0,P|332:128|328:44,1,160
176,72,194387,5,0,0:0:0:0:
176,72,194463,1,0,0:0:0:0:
176,72,194540,2,0,L|96:64,1,80
184,171,194846,2,0,L|264:163,1,80
88,176,195152,2,0,L|88:264,1,80
176,152,195458,2,0,L|176:72,1,80
184,264,195764,5,0,0:0:0:0:
324,324,195917,1,0,0:0:0:0:
204,348,196071,1,0,0:0:0:0:
300,244,196224,1,0,0:0:0:0:
196,264,196377,1,0,0:0:0:0:
336,324,196530,1,0,0:0:0:0:
216,348,196684,1,0,0:0:0:0:
312,244,196837,1,0,0:0:0:0:
404,184,196989,6,0,L|412:96,1,80
292,120,197295,1,0,0:0:0:0:
448,168,197448,2,0,L|440:247,1,80
460,344,197754,1,0,0:0:0:0:
364,308,197907,2,0,B|312:284|300:328|232:288,1,120
160,324,198213,6,0,P|168:264|164:212,1,80
84,176,198519,1,0,0:0:0:0:
84,176,198673,1,0,0:0:0:0:
128,76,198826,2,0,B|248:68|248:68|208:96,1,160
232,184,199285,5,0,0:0:0:0:
232,184,199361,1,0,0:0:0:0:
232,184,199438,2,0,P|232:224|236:236,1,40
320,172,199591,2,0,P|320:140|316:124,1,40
308,252,199744,1,0,0:0:0:0:
308,104,199897,1,0,0:0:0:0:
440,176,200050,2,0,B|388:188|388:188|340:172,1,80
216,92,200356,1,0,0:0:0:0:
100,144,200509,5,0,0:0:0:0:
100,144,200586,1,0,0:0:0:0:
100,144,200662,1,0,0:0:0:0:
64,240,200815,1,0,0:0:0:0:
204,168,200968,1,0,0:0:0:0:
168,264,201121,1,0,0:0:0:0:
100,156,201275,1,0,0:0:0:0:
64,252,201428,1,0,0:0:0:0:
204,180,201581,1,0,0:0:0:0:
168,276,201734,1,0,0:0:0:0:
264,320,201887,6,0,B|292:332|292:332|348:320,1,80
384,228,202193,2,0,B|356:216|356:216|300:228,1,80
472,284,202499,1,0,0:0:0:0:
468,240,202576,1,0,0:0:0:0:
464,196,202652,1,0,0:0:0:0:
458,152,202729,1,0,0:0:0:0:
460,104,202805,2,0,B|412:80|412:80|332:88,1,120
265,110,203111,6,0,P|210:116|155:108,1,80
64,93,203417,1,0,0:0:0:0:
42,226,203571,1,0,0:0:0:0:
179,216,203724,2,0,B|234:205|234:205|280:231|280:231|349:232,1,160
394,320,204183,1,0,0:0:0:0:
296,350,204336,5,0,0:0:0:0:
296,350,204642,2,0,B|259:344|259:344|206:351,1,80
110,340,204948,2,0,L|102:259,1,80
156,94,205254,2,0,L|164:175,1,80
257,240,205560,5,0,0:0:0:0:
344,230,205713,1,0,0:0:0:0:
394,157,205866,1,0,0:0:0:0:
362,74,206019,1,0,0:0:0:0:
248,217,206173,1,0,0:0:0:0:
308,281,206326,1,0,0:0:0:0:
394,295,206479,1,0,0:0:0:0:
469,250,206632,1,0,0:0:0:0:
257,190,206785,6,0,L|163:191,1,80
64,242,207091,1,0,0:0:0:0:
144,110,207244,1,0,0:0:0:0:
188,300,207397,1,0,0:0:0:0:
188,300,207499,1,0,0:0:0:0:
188,300,207601,1,0,0:0:0:0:
188,300,207703,2,0,P|245:322|317:288,1,120
385,311,208009,6,0,P|380:265|385:229,1,80
420,124,208315,1,0,0:0:0:0:
420,124,208468,1,0,0:0:0:0:
326,194,208622,2,0,P|253:222|170:184,1,160
90,115,209081,1,0,0:0:0:0:
47,183,209234,5,0,0:0:0:0:
109,258,209387,1,0,0:0:0:0:
109,258,209463,1,0,0:0:0:0:
109,258,209540,1,0,0:0:0:0:
6,254,209693,1,0,0:0:0:0:
159,184,209846,1,0,0:0:0:0:
195,263,209999,1,0,0:0:0:0:
143,334,210152,1,0,0:0:0:0:
55,324,210305,1,0,0:0:0:0:
144,173,210458,6,0,L|240:168,1,80
332,169,210764,1,0,0:0:0:0:
332,169,210917,1,0,0:0:0:0:
245,80,211071,2,0,L|149:75,1,80
57,76,211377,1,0,0:0:0:0:
57,76,211530,1,0,0:0:0:0:
286,89,211683,6,0,P|340:58|286:58,1,160
279,252,212142,1,0,0:0:0:0:
414,118,212295,2,0,L|488:113,1,53.3333333333333
399,244,212525,2,0,L|457:228,1,53.3333333333333
378,327,212716,2,0,L|441:309,1,53.3333333333333
480,296,212907,1,0,0:0:0:0:
104,308,214132,5,0,0:0:0:0:
176,256,214438,1,0,0:0:0:0:
264,256,214744,1,0,0:0:0:0:
332,312,215050,2,0,P|360:256|416:336,1,180.000006866455
420,296,215356,6,0,P|408:212|432:140,1,155.999992858887
392,180,215662,2,0,B|340:196|340:196|288:180,1,103.999995239258
192,144,215968,1,0,0:0:0:0:
224,240,216122,1,0,0:0:0:0:
264,96,216275,1,0,0:0:0:0:
108,104,216428,2,0,L|104:164,1,51.999997619629
52,228,216581,6,0,P|104:244|156:228,1,103.999995239258
256,196,216887,2,0,P|308:180|360:196,1,103.999995239258
444,296,217193,1,0,0:0:0:0:
276,332,217346,1,0,0:0:0:0:
352,248,217499,1,0,0:0:0:0:
256,196,217652,1,0,0:0:0:0:
432,68,217805,6,0,B|460:116|460:116|460:144|440:164,1,103.999995239258
420,168,218035,1,0,0:0:0:0:
396,160,218111,1,0,0:0:0:0:
296,80,218264,1,0,0:0:0:0:
272,72,218341,1,0,0:0:0:0:
248,80,218417,1,0,0:0:0:0:
160,156,218571,1,0,0:0:0:0:
136,164,218647,1,0,0:0:0:0:
112,156,218724,1,0,0:0:0:0:
56,248,218877,5,0,0:0:0:0:
48,272,218953,1,0,0:0:0:0:
56,296,219030,1,0,0:0:0:0:
204,344,219183,1,0,0:0:0:0:
232,204,219336,1,0,0:0:0:0:
144,276,219489,1,0,0:0:0:0:
352,236,219642,2,0,L|404:228,1,51.999997619629
283,196,219795,2,0,L|231:204,1,51.999997619629
360,144,219948,2,0,L|412:136,1,51.999997619629
291,104,220101,2,0,L|239:112,1,51.999997619629
432,72,220254,6,0,B|488:60|488:60|452:164,1,155.999992858887
480,216,220560,2,0,B|444:228|444:228|464:164,1,103.999995239258
352,236,220866,1,0,0:0:0:0:
424,336,221019,2,0,P|384:336|360:324,1,51.999997619629
292,332,221173,2,0,P|256:313|241:291,1,51.999997619629
168,308,221326,2,0,P|145:274|142:248,1,51.999997619629
140,136,221479,6,0,L|132:100,15,25.9999988098145
72,184,222091,2,0,L|64:228,5,34.6666650797527
144,216,222397,2,0,B|204:224|204:224|252:180,1,103.999995239258
336,64,222703,6,0,B|276:56|276:56|228:100,1,103.999995239258
352,192,223009,1,0,0:0:0:0:
420,56,223162,1,0,0:0:0:0:
464,192,223315,2,0,B|480:288|480:288|452:352,1,155.999992858887
396,296,223622,2,0,B|328:280|328:280|284:300,1,103.999995239258
120,336,223928,5,0,0:0:0:0:
52,192,224081,1,0,0:0:0:0:
152,76,224234,2,0,P|224:88|172:160,1,155.999992858887
152,196,224540,2,0,B|216:152|228:244|320:176,1,155.999992858887
348,112,224846,1,0,0:0:0:0:
328,272,224999,1,0,0:0:0:0:
264,76,225152,6,0,L|444:92,1,155.999992858887
448,160,225458,2,0,P|456:208|440:264,1,103.999995239258
320,312,225764,1,0,0:0:0:0:
172,276,225917,1,0,0:0:0:0:
332,256,226071,1,0,0:0:0:0:
196,312,226224,1,0,0:0:0:0:
244,208,226377,6,0,P|252:140|240:96,1,103.999995239258
96,104,226683,2,0,P|88:172|100:216,1,103.999995239258
244,208,226989,1,0,0:0:0:0:
340,96,227142,1,0,0:0:0:0:
180,140,227295,1,0,0:0:0:0:
344,184,227448,1,0,0:0:0:0:
424,52,227601,5,0,0:0:0:0:
440,184,227754,1,0,0:0:0:0:
444,220,227831,1,0,0:0:0:0:
448,255,227907,1,0,0:0:0:0:
348,232,228060,1,0,0:0:0:0:
352,268,228137,1,0,0:0:0:0:
356,303,228213,1,0,0:0:0:0:
244,208,228366,1,0,0:0:0:0:
248,244,228443,1,0,0:0:0:0:
252,279,228519,1,0,0:0:0:0:
137,234,228673,5,0,0:0:0:0:
141,270,228750,1,0,0:0:0:0:
145,305,228826,1,0,0:0:0:0:
252,279,228979,1,0,0:0:0:0:
356,303,229132,1,0,0:0:0:0:
448,255,229285,1,0,0:0:0:0:
392,126,229438,2,0,L|387:73,1,51.999997619629
303,97,229591,2,0,L|285:49,1,51.999997619629
209,94,229744,2,0,L|160:56,1,51.999997619629
130,138,229897,2,0,L|73:136,1,51.999997619629
88,221,230050,6,0,B|77:344|77:344|56:299,1,155.999992858887
161,274,230356,2,0,P|213:263|262:278,1,103.999995239258
370,273,230662,1,0,0:0:0:0:
254,273,230815,2,0,P|248:238|254:208,1,51.999997619629
307,112,230968,2,0,P|313:147|307:177,1,51.999997619629
390,240,231122,2,0,P|384:205|390:175,1,51.999997619629
445,66,231275,6,0,L|452:102,15,25.9999988098145
362,64,231887,2,0,L|355:113,5,34.6666650797527
284,31,232193,2,0,L|243:137,1,103.999995239258
77,198,232499,6,0,P|171:170|226:202,1,155.999992858887
97,205,232805,2,0,P|88:152|103:101,1,103.999995239258
154,276,233111,2,0,P|163:329|148:380,1,103.999995239258
131,273,233417,2,0,P|204:306|286:257,1,155.999992858887
398,233,233724,5,0,0:0:0:0:
251,182,233877,1,0,0:0:0:0:
334,135,234030,1,0,0:0:0:0:
339,142,234336,5,0,0:0:0:0:
293,278,234489,1,0,0:0:0:0:
293,278,234565,1,0,0:0:0:0:
293,278,234642,1,0,0:0:0:0:
245,84,234795,1,0,0:0:0:0:
164,138,234948,5,0,0:0:0:0:
251,182,235101,1,0,0:0:0:0:
245,84,235254,1,0,0:0:0:0:
164,138,235407,1,0,0:0:0:0:
251,182,235560,2,0,P|288:185|317:180,1,51.999997619629
385,186,235713,1,0,0:0:0:0:
293,278,235866,6,0,P|218:265|264:335,1,180.000006866455
353,334,236173,6,0,P|375:276|349:215,1,120
385,186,236479,6,0,P|317:207|243:163,1,120.000004577637
199,85,236785,1,0,0:0:0:0:
97,122,236938,1,0,0:0:0:0:
148,216,237091,1,0,0:0:0:0:
93,309,237244,1,0,0:0:0:0:
198,287,237397,5,0,0:0:0:0:
302,315,237550,1,0,0:0:0:0:
266,200,237703,2,0,B|241:157|241:157|296:189|346:165|346:165|396:176|396:176|362:195,1,204.000003890991
299,94,238009,2,0,B|224:57|172:107|172:107|126:90|126:90|82:106,1,204.000003890991
91,186,238315,2,0,P|114:102|96:40,1,136.000002593994
41,277,238622,6,0,L|188:263,1,120
318,281,238928,6,0,B|259:293|259:293|231:253|231:253|174:270|174:270|121:246,1,204.000003890991
285,185,239234,6,0,P|270:121|279:83,1,80
166,148,239540,2,0,P|146:66|154:4,1,120
51,159,239846,5,0,0:0:0:0:
385,101,240152,1,0,0:0:0:0:
223,313,240458,1,0,0:0:0:0:
