osu file format v13

[General]
AudioFilename: MTB.mp3
AudioLeadIn: 1000
PreviewTime: 214132
Countdown: 0
SampleSet: Normal
StackLeniency: 0.3
Mode: 0
LetterboxInBreaks: 0
WidescreenStoryboard: 0

[Editor]
Bookmarks: 1071,10866,30458,50050,69642,84336,105152,125968,132091,141887,151683,172499,193315,215356,236173
DistanceSpacing: 1
BeatDivisor: 4
GridSize: 32
TimelineZoom: 2.6

[Metadata]
Title:Move That Body -Extended Mix-
TitleUnicode:Move That Body -Extended Mix-
Artist:Sota Fujimori
ArtistUnicode:Sota Fujimori
Creator:Amamiya Yuko
Version:Easy
Source:
Tags:Expander SYNTHESIZED5 drumstep Skystar RLC Oracle
BeatmapID:547230
BeatmapSetID:220220

[Difficulty]
HPDrainRate:1
CircleSize:3
OverallDifficulty:2
ApproachRate:3
SliderMultiplier:0.8
SliderTickRate:1

[Events]
//Background and Video events
0,0,"123.jpg",0,0
//Break Periods
2,105352,113508
2,126168,130651
2,172699,180855
//Storyboard Layer 0 (Background)
//Storyboard Layer 1 (Fail)
//Storyboard Layer 2 (Pass)
//Storyboard Layer 3 (Foreground)
//Storyboard Sound Samples
//Background Colour Transformations
3,100,163,162,255

[TimingPoints]
1071,306.122448979592,4,1,1,50,1,0
2295,-100,4,1,1,80,0,0
3519,-100,4,1,1,70,0,0
5356,-100,4,1,1,80,0,0
5968,-100,4,1,1,60,0,0
7193,-100,4,1,1,80,0,0
8417,-100,4,1,1,70,0,0
9642,-100,4,1,1,50,0,0
10254,-100,4,1,1,70,0,0
10866,-100,4,1,1,70,0,0
13315,-100,4,3,12,40,0,0
13928,-100,4,1,1,70,0,0
23111,-100,4,3,12,40,0,0
23724,-100,4,1,1,70,0,0
30458,-100,4,1,1,80,0,0
32907,-100,4,1,1,65,0,0
33366,-100,4,1,1,80,0,0
37805,-100,4,1,1,65,0,0
38724,-100,4,1,1,80,0,0
69642,-100,4,1,1,60,0,0
83571,-100,4,1,1,70,0,0
84336,-100,4,1,1,80,0,1
88009,-100,4,1,1,60,0,1
89234,-100,4,1,1,80,0,1
97805,-100,4,1,1,60,0,1
99030,-100,4,1,1,80,0,1
103928,-100,4,1,1,60,0,0
124132,-100,4,1,1,80,0,0
124591,-100,4,1,1,60,0,0
125509,-100,4,1,1,70,0,0
125968,-100,4,1,1,80,0,0
141887,-100,4,1,1,80,0,1
151683,-100,4,1,1,60,0,0
171275,-100,4,1,1,40,0,0
172499,-100,4,1,0,35,0,0
193315,-100,4,1,1,40,0,0
215356,-100,4,1,1,80,0,1
219029,-100,4,1,1,60,0,1
220254,-100,4,1,1,80,0,1
228825,-100,4,1,1,60,0,1
230050,-100,4,1,1,80,0,1
234948,-100,4,1,1,50,0,1
235560,-100,4,1,1,60,0,1
236173,-100,4,1,1,60,0,0
237397,-100,4,1,1,80,0,0
238622,-100,4,1,1,70,0,0
239234,-100,4,1,1,70,0,0
239846,-100,4,1,1,50,0,0
240458,-100,4,1,1,70,0,0

[Colours]
Combo1 : 128,128,255
Combo2 : 130,200,250
Combo3 : 250,180,180
Combo4 : 128,255,255

[HitObjects]
48,111,1071,6,0,B|97:124|97:124|149:99|149:99|209:114,1,160,4|8,3:1|0:0,0:0:0:0:
199,272,2295,2,0,B|148:284|148:284|96:259|96:259|47:272,1,160,0|8,3:0|0:0,0:0:0:0:
48,111,3519,6,0,B|107:100|107:100|217:121,1,160,0|8,3:0|0:0,0:0:0:0:
352,181,4744,1,0,3:0:0:0:
498,116,5356,1,8,0:0:0:0:
464,273,5968,6,0,B|415:260|415:260|363:285|363:285|303:270,1,160,0|8,3:1|0:0,0:0:0:0:
313,112,7192,2,0,B|363:99|363:99|415:124|415:124|464:111,1,160,0|8,3:0|0:0,0:0:0:0:
464,273,8417,6,0,B|405:284|405:284|295:263,1,160,0|8,3:0|0:0,0:0:0:0:
160,203,9642,1,0,3:0:0:0:
14,268,10254,1,8,0:0:0:0:
154,344,10866,6,0,L|318:358,1,160,4|8,3:1|1:0,0:0:0:0:
372,303,11785,1,8,0:2:0:0:
401,228,12091,2,0,B|380:188|380:188|397:109,2,120,0|8|8,3:0|1:2|2:0,0:0:0:0:
372,303,13315,6,0,B|332:291|332:291|278:317|278:317|212:310,1,160,0|8,3:1|0:0,0:0:0:0:
156,163,14540,2,0,B|196:151|196:151|250:177|250:177|307:170,1,160,0|8,3:1|0:0,0:0:0:0:
408,294,15764,6,0,L|422:130,1,160,0|8,3:1|0:0,0:0:0:0:
367,76,16683,1,8,0:2:0:0:
292,47,16989,2,0,B|252:68|252:68|173:51,2,120,0|8|8,3:1|0:2|2:2,0:0:0:0:
367,76,18213,6,0,B|355:116|355:116|381:170|381:170|374:236,1,160,0|8,3:0|0:0,0:0:0:0:
227,292,19438,2,0,B|215:252|215:252|241:198|241:198|234:140,1,160,0|8,3:0|0:0,0:0:0:0:
358,40,20662,6,0,L|194:26,1,160,4|8,3:1|0:0,0:0:0:0:
140,81,21581,1,8,0:2:0:0:
97,148,21887,2,0,B|118:188|118:188|101:267,2,120,0|8|8,3:1|0:2|0:2,0:0:0:0:
140,81,23111,6,0,B|180:93|180:93|234:67|234:67|300:74,1,160,0|8,3:0|0:0,0:0:0:0:
356,221,24336,2,0,B|316:233|316:233|262:207|262:207|204:213,1,160,0|8,3:1|0:0,0:0:0:0:
104,90,25560,6,0,L|90:254,1,160,0|8,3:1|0:0,0:0:0:0:
145,308,26479,1,8,0:2:0:0:
220,337,26785,2,0,B|260:316|260:316|339:333,1,120,0|8,3:1|0:0,0:0:0:0:
453,330,27703,6,0,B|498:303|498:303|488:176|488:176|432:150,1,240,0|8,3:0|0:0,0:0:0:0:
285,92,29234,2,0,B|297:132|297:132|271:186|271:186|277:243,1,160,0|8,3:0|0:0,0:0:0:0:
289,323,30152,1,8,0:0:0:0:
213,297,30458,6,0,B|147:284|147:284|92:317,2,120,4|0|8,3:1|3:0|0:0,0:0:0:0:
246,224,31683,2,0,B|312:237|312:237|367:204,2,120,0|0|8,3:0|3:0|0:0,0:0:0:0:
170,205,32907,6,0,L|42:188,1,120,0|0,3:0|0:0,0:0:0:0:
21,72,33826,1,8,0:0:0:0:
94,40,34132,2,0,L|222:57,1,120,0|8,3:0|0:0,0:0:0:0:
263,166,35051,1,8,0:0:0:0:
297,94,35356,6,0,B|363:107|363:107|418:74,2,120,0|0|8,3:0|3:0|0:0,0:0:0:0:
263,166,36581,2,0,B|197:153|197:153|142:186,2,120,0|0|8,3:0|3:0|0:0,0:0:0:0:
342,179,37805,6,0,L|470:196,1,120,0|0,3:0|3:0,0:0:0:0:
491,312,38724,1,8,0:0:0:0:
418,344,39030,2,0,L|328:332,1,80,4|4,3:2|0:2,0:0:0:0:
259,321,39642,2,0,L|169:309,1,80,8|8,0:0|0:0,0:0:0:0:
100,300,40254,6,0,B|93:259|46:243|46:243|102:179|73:90,1,240,4|8,3:1|0:0,0:0:0:0:
97,17,41479,2,0,B|138:24|154:71|154:71|218:15|307:44,1,240,4|8,3:1|0:0,0:0:0:0:
329,118,42703,6,0,B|347:176|347:176|310:236,2,120,0|0|8,3:0|3:0|0:0,0:0:0:0:
305,41,43928,2,0,L|210:45,2,80,0|8|0,3:0|0:0|3:0,0:0:0:0:
379,11,44846,1,8,0:0:0:0:
412,84,45152,6,0,B|419:125|466:141|466:141|410:205|439:294,1,240,4|8,3:1|0:0,0:0:0:0:
415,367,46377,2,0,B|374:360|358:313|358:313|294:369|205:340,1,240,4|8,3:1|0:0,0:0:0:0:
183,266,47601,6,0,B|165:208|165:208|202:148,2,120,0|0|8,3:0|0:0|0:0,0:0:0:0:
207,343,48826,2,0,B|265:334|265:334|313:356|313:356|365:348,1,160,0|8,3:0|0:0,0:0:0:0:
434,316,49744,1,8,0:0:0:0:
453,238,50050,6,0,B|437:202|437:202|457:146,2,80,4|8|0,3:1|0:0|0:0,0:0:0:0:
434,316,50968,2,0,B|359:327|359:327|268:293,1,160,8|8,0:0|0:0,0:0:0:0:
238,228,51887,2,0,L|147:238,1,80,0|8,0:0|0:0,0:0:0:0:
89,277,52499,6,0,B|49:232|49:232|78:122,1,160,0|0,3:0|0:0,0:0:0:0:
108,63,53417,1,8,0:0:0:0:
156,126,53724,2,0,B|179:188|179:188|163:246,2,120,0|8|8,3:0|0:0|0:0,0:0:0:0:
108,63,54948,6,0,B|72:79|72:79|16:59,2,80,0|8|0,3:0|0:0|0:0,0:0:0:0:
187,62,55866,2,0,B|198:137|198:137|164:228,1,160,8|8,0:0|0:0,0:0:0:0:
120,279,56785,2,0,L|130:370,1,80,0|8,0:0|0:0,0:0:0:0:
207,344,57397,6,0,B|247:299|247:299|353:324,1,160,0|0,3:0|0:0,0:0:0:0:
379,250,58315,1,8,0:0:0:0:
366,170,58622,2,0,B|323:145|323:145|194:162|194:162|140:136,1,240,0|8,3:0|0:0,0:0:0:0:
59,146,59846,6,0,B|75:182|75:182|55:238,2,80,4|8|0,3:1|0:0|0:0,0:0:0:0:
78,68,60764,2,0,B|153:57|153:57|244:91,1,160,8|8,0:0|0:0,0:0:0:0:
274,156,61683,2,0,L|365:146,1,80,8|8,0:2|0:0,0:0:0:0:
424,109,62295,6,0,B|464:154|464:154|441:267,1,160,0|0,3:0|0:0,0:0:0:0:
404,321,63213,1,8,0:0:0:0:
325,322,63519,2,0,L|239:288,1,80,0|8,3:0|0:0,0:0:0:0:
289,222,64132,2,0,L|363:251,1,80,0|8,3:0|0:0,0:0:0:0:
404,321,64744,6,0,B|440:305|440:305|496:325,2,80,0|8|0,3:0|0:0|0:0,0:0:0:0:
325,322,65662,2,0,B|314:247|314:247|348:156,1,160,8|8,0:0|0:0,0:0:0:0:
392,105,66581,2,0,L|382:14,1,80,0|8,0:0|0:0,0:0:0:0:
305,40,67193,6,0,B|265:85|265:85|159:60,1,160,0|0,3:0|0:0,0:0:0:0:
133,134,68111,1,8,0:0:0:0:
146,214,68418,2,0,B|189:239|189:239|318:222|318:222|372:248,1,240,0|8,3:0|0:0,0:0:0:0:
449,268,69642,6,0,B|485:224|485:224|455:181|467:119,1,160,2|8,3:1|0:0,0:0:0:0:
333,34,70866,2,0,B|297:78|297:78|327:121|315:183,1,160,0|8,3:0|0:0,0:0:0:0:
243,210,71785,1,8,0:2:0:0:
168,238,72091,6,0,B|118:254|118:254|149:144,1,160,0|8,3:0|0:0,0:0:0:0:
223,126,73009,2,0,B|260:116|260:116|283:70,1,80,8|0,0:2|3:0,0:0:0:0:
221,22,73622,2,0,B|137:14|137:14|61:37,1,160,0|8,3:0|0:0,0:0:0:0:
63,116,74540,6,0,B|27:160|27:160|57:203|45:265,1,160,2|8,3:1|0:0,0:0:0:0:
179,350,75764,2,0,B|215:306|215:306|185:263|197:201,1,160,0|8,3:0|0:0,0:0:0:0:
269,174,76683,1,8,3:2:0:0:
344,146,76989,6,0,B|394:130|394:130|363:240,1,160,0|8,3:0|0:0,0:0:0:0:
289,258,77907,2,0,B|252:268|252:268|229:314,1,80,0|0,3:0|3:0,0:0:0:0:
291,362,78520,2,0,B|375:370|375:370|451:347,1,160,0|8,3:0|0:0,0:0:0:0:
473,272,79438,5,0,3:0:0:0:
396,131,80050,2,0,B|329:113|329:113|286:145|286:145|204:128,2,200,8|0|8,0:0|3:0|2:2,0:0:0:0:
473,112,81887,5,0,3:0:0:0:
396,253,82499,2,0,B|329:271|329:271|286:239|286:239|204:256,1,200,8|0,0:0|3:0,0:0:0:0:
97,295,83724,1,8,0:0:0:0:
68,137,84336,6,0,B|123:158|123:158|168:125|226:158|226:158|241:127|291:116,1,240,6|8,3:1|0:0,0:0:0:0:
362,120,85560,1,2,3:1:0:0:
404,187,85866,2,0,B|413:238|413:238|364:270|364:270|310:254,1,160,10|10,0:0|0:0,0:0:0:0:
245,217,86785,6,0,B|214:169|214:169|240:53,1,160,2|2,3:1|0:0,0:0:0:0:
312,44,87703,1,10,0:0:0:0:
363,105,88009,2,0,B|406:126|406:126|482:113,2,120,2|10|10,3:1|0:0|0:0,0:0:0:0:
312,44,89234,6,2,B|263:36|263:36|201:56|201:56|135:38|135:38|70:53,1,240,0|8,3:0|0:0,0:0:0:0:
83,130,90458,2,2,B|87:180|87:180|58:224|58:224|80:282,2,160,2|2|0,3:1|0:0|3:0,0:0:0:0:
141,75,91989,6,0,B|195:85|195:85|236:65|236:65|308:80,1,160,8|10,0:0|0:0,0:0:0:0:
338,144,92907,2,0,B|389:125|389:125|433:139|433:139|502:114,1,160,0|0,3:0|3:0,0:0:0:0:
506,197,93826,1,8,0:0:0:0:
444,247,94132,6,0,B|389:226|389:226|344:259|286:226|286:226|271:257|221:268,1,240,6|8,3:1|0:0,0:0:0:0:
150,264,95356,1,2,3:1:0:0:
108,197,95662,2,0,B|99:146|99:146|148:114|148:114|202:130,1,160,10|10,0:0|0:0,0:0:0:0:
267,167,96581,6,0,B|298:215|298:215|272:331,1,160,2|2,3:1|0:0,0:0:0:0:
200,340,97499,1,10,0:0:0:0:
149,279,97805,2,0,B|113:263|113:263|59:269,1,80,0|8,3:0|0:0,0:0:0:0:
44,342,98417,2,0,B|80:358|80:358|134:352,1,80,0|8,3:0|0:0,0:0:0:0:
200,340,99030,6,2,B|249:348|249:348|311:328|311:328|377:346|377:346|442:331,1,240,0|8,3:0|0:0,0:0:0:0:
429,254,100254,2,2,B|425:204|425:204|454:160|454:160|432:102,2,160,2|2|0,0:0|0:0|3:0,0:0:0:0:
385,321,101785,6,0,B|331:311|331:311|290:331|290:331|218:316,1,160,8|10,0:0|0:0,0:0:0:0:
187,254,102703,2,0,B|133:265|133:265|92:245|92:245|20:260,1,160,0|8,3:0|0:0,0:0:0:0:
4,182,103622,1,8,0:0:0:0:
256,192,104081,12,4,105152,3:1:0:0:
103,75,114948,5,6,3:1:0:0:
155,135,115254,2,0,B|212:145|212:145|325:113,2,160,8|8|8,0:1|0:0|0:0,0:0:0:0:
84,278,117091,1,8,0:0:0:0:
139,335,117397,6,0,B|193:316|193:316|235:341|235:341|286:323|286:323|318:349|375:348,1,240,2|8,3:1|0:0,0:0:0:0:
440,345,118622,2,0,B|463:305|463:305|446:264|446:264|458:225|458:225|450:188|450:188|478:163|472:117,1,240,0|8,3:0|0:0,0:0:0:0:
409,75,119846,5,0,3:1:0:0:
357,135,120152,2,0,B|300:145|300:145|187:113,2,160,10|8|8,0:0|0:0|0:0,0:0:0:0:
428,278,121989,1,8,0:0:0:0:
373,335,122295,6,0,B|319:316|319:316|277:341|277:341|226:323|226:323|194:349|137:348,1,240,0|0,3:0|2:0,0:0:0:0:
72,345,123519,2,0,B|51:294|51:294|58:256|58:256|35:191,1,160,0|8,3:0|0:0,0:0:0:0:
256,192,124744,12,4,125968,3:0:0:0:
211,177,132091,6,0,B|246:149|246:149|252:61,2,120,0|0|8,3:0|3:0|0:0,0:0:0:0:
143,220,133315,2,0,B|108:248|108:248|102:336,2,120,0|0|8,3:0|3:0|0:0,0:0:0:0:
104,149,134540,6,0,B|76:114|76:114|-12:108,2,120,0|0|8,3:0|3:0|0:0,0:0:0:0:
143,220,135764,2,0,B|171:255|171:255|259:261,1,120,0|8,3:0|0:0,0:0:0:0:
433,190,136989,6,0,B|468:218|468:218|474:306,2,120,0|0|8,3:0|3:0|0:0,0:0:0:0:
365,147,138213,2,0,B|330:119|330:119|324:31,2,120,0|0|8,3:0|3:0|0:0,0:0:0:0:
326,218,139438,6,0,B|298:253|298:253|210:259,2,120,0|0|8,3:0|3:0|0:0,0:0:0:0:
365,147,140662,2,0,B|420:110|420:110|454:215,1,160,0|8,3:0|0:0,0:0:0:0:
462,278,141581,1,8,0:0:0:0:
388,308,141887,6,0,B|357:311|335:299|335:299|306:319|279:325|279:325|219:376|158:332,1,240,0|8,3:0|0:0,0:0:0:0:
163,256,143111,2,0,B|193:252|216:265|216:265|244:244|272:239|272:239|332:188|393:232,1,240,0|8,3:0|0:0,0:0:0:0:
464,209,144336,6,0,B|493:166|493:166|471:112|471:112|498:65,1,160,0|2,3:0|0:0,0:0:0:0:
341,112,145560,2,0,B|312:155|312:155|334:209|334:209|307:256,1,160,0|0,3:0|3:0,0:0:0:0:
164,320,146785,6,0,B|194:323|217:311|217:311|245:331|273:337|273:337|333:388|394:344,1,240,0|8,3:0|0:0,0:0:0:0:
389,268,148009,2,0,B|358:264|336:277|336:277|307:256|280:251|280:251|220:200|159:244,1,240,0|8,3:0|0:0,0:0:0:0:
90,216,149234,6,0,B|67:163|67:163|108:121|97:51|97:51|166:82,1,240,0|8,3:0|0:0,0:0:0:0:
225,111,150458,6,0,L|314:96,2,80,2|0|10,3:1|3:1|0:0,0:0:0:0:
181,265,151683,6,0,B|196:321|196:321|310:339,1,160,6|0,3:1|0:0,0:0:0:0:
439,264,152907,2,0,B|390:226|390:226|400:173|400:173|363:130|363:130|380:64,1,240,0|8,3:0|0:0,0:0:0:0:
302,44,154132,5,0,3:0:0:0:
281,121,154438,2,0,B|266:177|266:177|152:195,1,160,8|8,0:0|0:0,0:0:0:0:
102,142,155356,2,0,B|45:194|45:194|-1:161,2,120,0|8|10,3:1|0:0|0:0,0:0:0:0:
181,119,156581,6,0,B|196:63|196:63|310:45,1,160,0|0,3:0|0:0,0:0:0:0:
439,120,157805,2,0,B|390:158|390:158|400:211|400:211|363:254|363:254|380:320,1,240,0|8,3:0|0:0,0:0:0:0:
302,340,159030,5,0,3:0:0:0:
281,263,159336,2,0,B|266:207|266:207|152:189,1,160,8|8,0:0|0:0,0:0:0:0:
102,242,160254,2,0,B|45:190|45:190|24:281|24:281|78:328,1,240,0|10,3:0|0:0,0:0:0:0:
155,314,161479,6,0,B|260:297|260:297|325:320,1,160,4|0,3:1|0:0,0:0:0:0:
442,224,162703,2,0,B|504:194|504:194|508:105|508:105|427:141,1,240,0|8,3:0|0:0,0:0:0:0:
365,181,163928,5,0,3:0:0:0:
337,256,164234,2,0,B|261:237|261:237|168:262,1,160,8|8,0:0|0:0,0:0:0:0:
118,305,165152,2,0,B|57:278|57:278|47:180,1,160,2|2,3:1|3:1,0:0:0:0:
155,70,166377,6,0,B|260:87|260:87|325:64,1,160,0|0,3:0|0:0,0:0:0:0:
442,160,167601,2,0,B|504:190|504:190|508:279|508:279|427:243,1,240,0|8,3:0|0:0,0:0:0:0:
365,203,168826,5,0,0:0:0:0:
337,128,169132,2,0,B|261:147|261:147|168:122,1,160,8|8,0:0|0:0,0:0:0:0:
118,79,170050,2,0,B|57:106|57:106|47:204,1,160,0|8,3:0|0:0,0:0:0:0:
78,272,170968,1,8,0:0:0:0:
256,192,171275,12,6,172499,0:0:0:0:
399,216,182295,6,2,B|436:270|436:270|414:377,2,160,6|2|2,0:0|0:0|0:0,0:0:0:0:
257,141,184132,1,2,0:0:0:0:
134,243,184744,2,2,B|101:277|101:277|88:156,1,160,2|2,0:0|0:0,0:0:0:0:
203,53,185968,2,2,B|236:19|236:19|249:140,1,160,2|2,0:0|0:0,0:0:0:0:
113,216,187193,6,2,B|76:270|76:270|98:377,2,160,0|2|2,0:0|0:0|0:0,0:0:0:0:
255,141,189030,1,0,0:0:0:0:
378,243,189642,2,2,B|411:277|411:277|424:156,1,160,0|0,0:0|0:0,0:0:0:0:
306,55,190866,2,2,B|233:41|233:41|196:115|196:115|102:130,1,240,2|2,0:0|0:0,0:0:0:0:
380,311,193315,6,0,P|451:288|471:208,1,160,0|8,3:0|0:0,0:0:0:0:
346,112,194540,2,0,P|275:135|255:215,1,160,0|8,3:0|0:0,0:0:0:0:
132,311,195764,2,0,P|61:288|41:208,1,160,0|8,3:0|0:0,0:0:0:0:
166,112,196989,2,0,L|291:126,2,120,0|8|8,3:0|0:0|0:0,0:0:0:0:
154,191,198213,6,0,P|93:223|91:314,1,160,0|8,3:0|0:0,0:0:0:0:
234,369,199438,2,0,P|295:337|297:246,1,160,0|8,3:0|0:0,0:0:0:0:
154,193,200662,6,0,P|93:161|91:70,1,160,0|8,3:0|0:0,0:0:0:0:
239,28,201887,2,0,P|285:70|279:123,2,120,0|8|8,3:0|0:0|0:0,0:0:0:0:
177,78,203111,2,0,B|155:133|155:133|193:241,2,160,0|8|0,3:0|0:0|3:0,0:0:0:0:
335,57,204948,1,8,0:0:0:0:
387,207,205560,6,0,B|332:229|332:229|224:191,1,160,0|8,3:0|0:0,0:0:0:0:
234,35,206785,2,0,B|289:13|289:13|397:51,1,160,0|0,3:0|3:0,0:0:0:0:
419,118,207703,1,8,0:0:0:0:
420,197,208009,6,0,P|385:234|282:196,1,160,0|8,3:0|0:0,0:0:0:0:
145,137,209234,2,0,P|163:88|131:19,2,120,0|0|8,3:0|3:0|0:0,0:0:0:0:
92,197,210458,6,0,P|127:234|230:196,1,160,0|8,3:0|0:0,0:0:0:0:
367,137,211683,2,0,P|352:102|369:57,2,80,0|0|8,3:0|3:0|0:0,0:0:0:0:
417,199,212601,2,0,L|409:290,1,80,8|0,0:0|3:0,0:0:0:0:
458,333,215357,6,0,B|416:324|401:293|401:293|343:326|298:293|298:293|243:314,1,240,6|8,3:1|0:0,0:0:0:0:
177,268,216581,1,2,3:1:0:0:
113,219,216887,2,0,B|98:171|98:171|130:122|130:122|181:131,1,160,10|10,0:0|0:0,0:0:0:0:
241,184,217806,6,0,B|210:232|210:232|236:348,1,160,2|2,3:1|0:0,0:0:0:0:
312,335,218724,1,10,0:0:0:0:
382,297,219030,2,0,B|425:276|425:276|501:289,2,120,2|10|10,3:1|0:0|0:0,0:0:0:0:
314,254,220255,6,2,B|322:205|322:205|302:143|302:143|320:77|320:77|305:12,1,240,0|8,3:0|0:0,0:0:0:0:
230,44,221479,2,2,B|180:40|180:40|136:69|136:69|78:47,2,160,2|2|0,3:1|0:0|3:0,0:0:0:0:
271,112,223010,6,0,B|303:188|303:188|276:279,1,160,8|10,0:0|0:0,0:0:0:0:
205,285,223928,2,0,B|185:212|185:212|101:171,1,160,0|0,3:0|3:0,0:0:0:0:
42,131,224847,1,8,0:0:0:0:
54,51,225152,6,0,B|95:59|110:90|110:90|168:57|213:90|213:90|268:69,1,240,6|8,3:1|0:0,0:0:0:0:
335,116,226376,1,2,3:1:0:0:
399,165,226682,2,0,B|413:212|413:212|381:261|381:261|330:252,1,160,10|10,0:0|0:0,0:0:0:0:
271,200,227601,6,0,B|302:152|302:152|276:36,1,160,2|2,3:1|0:0,0:0:0:0:
200,49,228519,1,10,0:0:0:0:
120,57,228826,2,0,B|30:67,1,80,0|8,3:0|0:0,0:0:0:0:
38,145,229438,2,0,B|128:135,1,80,0|8,3:0|0:0,0:0:0:0:
198,130,230050,6,2,B|190:179|190:179|210:241|210:241|192:307|192:307|207:372,1,240,0|8,3:0|0:0,0:0:0:0:
282,340,231274,2,2,B|332:344|332:344|376:315|376:315|434:337,2,160,2|2|0,3:1|0:0|3:0,0:0:0:0:
241,272,232805,6,0,B|209:196|209:196|236:105,1,160,8|10,0:0|0:0,0:0:0:0:
307,99,233723,2,0,B|327:172|327:172|411:213,1,160,0|0,3:0|3:0,0:0:0:0:
470,253,234642,1,8,0:0:0:0:
406,301,234948,6,0,B|368:316|305:291|305:291|273:336|218:344|178:314,1,240,0|8,0:0|0:0,0:0:0:0:
115,278,236173,6,0,B|128:229|128:229|103:177|103:177|118:117,1,160,0|8,3:1|0:0,0:0:0:0:
261,60,237397,2,0,B|274:110|274:110|249:162|249:162|262:211,1,160,0|8,3:0|0:0,0:0:0:0:
356,340,238621,6,0,B|297:351|297:351|187:330,1,160,0|8,3:0|0:0,0:0:0:0:
91,213,239846,2,0,L|83:126,2,80,4|4|4,0:0|0:0|0:0,0:0:0:0:
