osu file format v10

[General]
AudioFilename: jubeat saucerMother Ship.mp3
AudioLeadIn: 1500
PreviewTime: 69452
Countdown: 1
SampleSet: Soft
StackLeniency: 0.7
Mode: 0
LetterboxInBreaks: 0

[Editor]
DistanceSpacing: 1.3
BeatDivisor: 4
GridSize: 4

[Metadata]
Title:Mother Ship
TitleUnicode:Mother Ship
Artist:Sota Fujimori
ArtistUnicode:Sota Fujimori
Creator:Flower
Version:EXTREME
Source:jubeat
Tags:madechuan bemani saucer plus Konami Arcade Championship
BeatmapID:194854
BeatmapSetID:66929

[Difficulty]
HPDrainRate:7
CircleSize:5
OverallDifficulty:8
ApproachRate:9
SliderMultiplier:2
SliderTickRate:2

[Events]
//Background and Video events
0,0,"leap.jpg"
//Break Periods
//Storyboard Layer 0 (Background)
//Storyboard Layer 1 (Fail)
//Storyboard Layer 2 (Pass)
//Storyboard Layer 3 (Foreground)
//Storyboard Sound Samples
//Background Colour Transformations
3,100,163,162,255

[TimingPoints]
749,394.736842105263,4,2,1,70,1,0
749,-133.333333333333,4,2,1,60,0,0
3906,-100,4,2,1,70,0,0
41801,-200,4,2,1,70,0,0
43380,-100,4,2,1,70,0,0
44959,-200,4,2,1,70,0,0
46538,-100,4,2,1,70,0,0
48117,-200,4,2,1,70,0,0
49696,-100,4,2,1,70,0,0
51275,-200,4,2,1,70,0,0
52854,-100,4,2,1,70,0,0
54038,-100,4,2,1,35,0,0
54235,-100,4,2,1,50,0,0
54433,-100,4,2,1,70,0,0
61538,-100,4,2,1,30,0,0
61735,-100,4,2,1,45,0,0
61933,-100,4,2,1,70,0,0
69531,-66.6666666666667,4,2,1,70,0,0
70222,-100,4,3,1,70,0,1
81275,-100,4,2,1,60,0,1
82854,-100,4,2,1,70,0,0
108117,-100,4,2,0,70,0,0
108709,-100,4,2,1,70,0,0

[Colours]
Combo1 : 92,228,218
Combo2 : 137,149,158
Combo3 : 6,99,238
Combo4 : 215,215,204

[HitObjects]
26,157,749,2,0,P|100:119,1,75.0000028610231,2|0,0:0|0:0,0:0:0
108,93,1045,1,2,0:0:0
123,63,1143,2,0,P|197:25,1,75.0000028610231,0|0,0:0|3:3,0:0:0
227,24,1439,1,2,0:0:0
264,29,1538,1,0,0:0:0
293,52,1637,1,2,0:0:0
310,84,1735,2,0,P|314:102,4,18.7500007152558,2|0|0|0|0,0:0|0:0|0:0|0:0|0:0,0:0:0
209,124,2130,1,2,0:3:0
341,236,2327,5,0,1:3:0
419,219,2525,1,0,0:0:0
444,197,2623,1,2,0:0:0
456,165,2722,2,0,P|421:85,1,75.0000028610231,0|2,0:0|0:0,0:0:0
407,63,3018,1,0,0:0:0
372,48,3117,1,2,0:2:0
306,154,3314,2,0,P|317:180,2,18.7500007152558,2|0|0,0:0|0:0|0:0,0:0:0
282,129,3512,1,0,0:0:0
249,122,3610,1,0,0:0:0
215,127,3709,1,2,0:3:0
188,147,3808,1,2,0:3:0
175,182,3906,6,0,P|232:341,1,150,4|0,0:0|0:0,0:0:0
301,344,4301,2,0,P|262:240,1,100,0|0,1:0|0:0,0:0:0
291,222,4597,1,0,0:0:0
330,239,4696,2,0,P|369:343,1,100,0|0,1:0|3:0,0:0:0
444,358,5091,1,2,0:3:0
437,71,5288,2,0,P|410:132,1,50,0|2,0:0|0:3,0:0:0
372,66,5485,6,0,P|320:186,1,100,4|0,0:3|0:0,0:0:0
323,24,5880,2,0,P|271:144,1,100,0|8,1:0|0:3,0:0:0
175,252,6275,1,4,0:3:0
114,274,6373,1,0,0:0:0
52,253,6472,1,0,0:0:0
26,192,6571,1,4,0:3:0
35,127,6670,2,0,P|120:60,1,100,2|0,0:3|0:0,0:0:0
245,161,7064,6,0,P|289:200,1,50,2|0,0:0|0:0,0:0:0
233,50,7262,2,0,P|277:89,1,50,2|0,0:0|0:0,0:0:0
351,266,7459,2,0,P|395:305,1,50,2|0,0:0|0:0,0:0:0
339,155,7657,2,0,P|383:194,1,50,2|0,0:0|0:0,0:0:0
321,338,7854,6,0,P|277:300|277:300|266:248,1,100,4|0,0:0|0:0,0:0:0
401,116,8150,2,0,P|445:154|445:154|456:206,1,100,2|0,0:0|0:0,0:0:0
421,251,8446,1,2,0:3:0
155,163,8643,6,0,P|165:224|165:224|241:296,1,150,4|0,0:0|0:0,0:0:0
226,189,9038,2,0,P|216:128|216:128|140:56,1,150,4|0,0:0|0:0,0:0:0
96,206,9433,2,0,P|107:257|107:257|148:297,1,100,2|0,0:0|0:0,0:0:0
206,289,9729,6,0,P|250:333,1,50,0|2,0:0|1:3,0:0:0
328,322,9959,1,8,0:3:0
387,258,10091,1,2,0:3:0
350,179,10222,6,0,P|424:248|424:248|483:251,1,150,4|0,0:3|0:0,0:0:0
422,153,10617,2,0,P|346:83,1,100,0|2,1:0|0:0,0:0:0
309,74,10913,1,0,0:0:0
271,87,11012,1,8,0:3:0
170,185,11209,1,8,0:3:0
170,185,11308,1,0,0:0:0
170,185,11406,2,0,P|246:276,1,100
297,275,11702,1,2,0:3:0
278,212,11801,6,0,P|173:92,1,150,4|0,0:3|0:0,0:0:0
102,159,12196,2,0,P|102:219|102:219|132:252,1,100,0|0,1:0|0:0,0:0:0
360,296,12591,1,4,0:3:0
424,289,12689,1,2,0:3:0
464,238,12788,1,8,0:3:0
465,173,12887,1,0,0:0:0
423,123,12985,2,0,P|470:27,1,100,0|0,1:0|0:0,0:0:0
170,205,13380,6,0,P|128:267,1,50,2|0,0:0|0:0,0:0:0
321,127,13577,2,0,P|279:189,1,50,2|0,0:0|0:0,0:0:0
99,131,13775,2,0,P|57:193,1,50,2|0,0:0|0:0,0:0:0
250,53,13972,2,0,P|208:115,2,50,2|0|0,0:0|0:0|0:0,0:0:0
214,268,14268,6,0,P|188:309|188:309|134:330,1,100,2|0,0:0|0:0,0:0:0
29,109,14564,2,0,P|55:68|55:68|109:47,1,100,2|2,0:0|0:0,0:0:0
166,64,14860,1,0,0:0:0
180,127,14959,6,0,P|183:182,1,50,2|0,0:0|0:0,0:0:0
292,245,15156,2,0,P|295:300,1,50,2|0,0:0|0:0,0:0:0
264,88,15354,2,0,P|267:143,1,50,2|0,0:0|0:0,0:0:0
376,206,15551,2,0,P|379:261,1,50,2|0,0:0|0:0,0:0:0
436,286,15748,5,2,0:0:0
477,235,15847,2,0,P|471:124,1,100,2|0,0:0|0:0,0:0:0
438,79,16143,5,0,3:0:0
415,72,16209,1,0,3:0:0
392,65,16275,1,0,3:0:0
369,59,16341,2,0,P|275:94,1,100,4|4,3:3|0:0,0:0:0
120,96,16637,2,0,P|216:60,1,100,2|0,0:3|0:0,0:0:0
150,160,16933,1,0,1:0:0
150,160,17031,1,0,0:0:0
150,160,17130,2,0,P|56:200,1,100,0|8,0:0|0:3,0:0:0
260,210,17525,1,2,0:0:0
245,241,17623,1,0,0:0:0
231,273,17722,1,0,0:0:0
216,304,17821,1,2,0:0:0
352,68,18018,5,4,0:3:0
511,204,18216,1,2,0:0:0
476,197,18314,1,0,0:0:0
441,190,18413,1,0,0:0:0
406,183,18512,1,2,1:2:0
371,176,18610,1,0,0:0:0
336,169,18709,2,0,P|264:91,1,100,2|8,0:3|0:3,0:0:0
51,109,19104,2,0,P|13:67,2,50,2|0|0,0:0|0:0|1:0,0:0:0
115,119,19400,2,0,P|153:161,2,50,2|0|0,0:0|0:0|0:0,0:0:0
91,58,19696,5,4,0:3:0
155,67,19795,2,0,P|235:155,1,100,8|0,0:3|0:0,0:0:0
209,257,20091,2,0,P|211:199,1,50,0|0,1:0|0:0,0:0:0
281,104,20288,2,0,P|283:46,1,50,0|0,3:0|0:0,0:0:0
322,220,20485,2,0,P|320:278,1,50,2|2,0:3|0:0,0:0:0
394,66,20683,2,0,P|392:124,1,50,2|0,0:3|0:0,0:0:0
439,160,20880,1,0,1:0:0
466,219,20979,1,0,0:0:0
459,283,21077,1,2,0:2:0
427,339,21176,1,0,0:0:0
368,367,21275,6,0,P|316:332,1,50,4|0,0:3|0:0,0:0:0
302,357,21472,2,0,P|273:308,1,50,2|0,0:3|0:0,0:0:0
246,318,21670,2,0,P|249:250,1,50,0|0,1:0|0:0,0:0:0
219,259,21867,2,0,P|254:205,1,50,2|0,0:3|0:0,0:0:0
234,189,22064,1,2,0:0:0
425,100,22262,6,0,P|381:149,1,50
331,163,22459,1,2,1:3:0
332,248,22591,1,2,0:3:0
408,208,22722,1,2,0:3:0
331,163,22854,5,4,0:0:0
331,163,22952,2,0,P|242:107,1,100
90,63,23248,2,0,P|179:119,1,100,0|2,1:0|0:0,0:0:0
192,152,23545,1,0,0:0:0
208,184,23643,2,0,P|297:240,1,100,4|2,1:3|0:3,0:0:0
316,248,23939,1,0,0:0:0
340,252,24038,1,0,1:0:0
364,249,24137,1,0,0:0:0
386,238,24235,1,2,0:0:0
401,218,24334,1,8,0:3:0
407,193,24433,2,0,P|359:152,3,50,8|2|0|2,0:3|0:0|0:0|0:0,0:0:0
335,105,24827,6,0,P|240:23,1,100,0|2,1:0|0:3,0:0:0
26,259,25222,2,0,P|121:341,1,100,4|0,0:3|0:0,0:0:0
164,340,25518,1,2,0:0:0
217,303,25617,2,0,P|269:262,1,50,0|0,1:0|0:0,0:0:0
453,268,25814,2,0,P|401:309,1,50,2|0,0:0|0:0,0:0:0
348,310,26012,5,4,0:3:0
348,245,26110,2,0,P|448:162,1,100,8|0,0:3|0:0,0:0:0
129,279,26406,2,0,P|213:220|214:219|214:219|238:166,1,150,0|0,1:0|0:0,0:0:0
249,35,26801,2,0,P|210:67|210:67|192:123,1,100,0|2,0:0|0:3,0:0:0
269,351,27196,1,0,1:0:0
275,252,27393,2,0,P|315:205,1,50
324,148,27591,6,0,P|338:73,2,66.6666666666667,2|2|0,0:3|0:3|0:3,0:0:0
400,310,27985,2,0,P|451:355,2,66.6666666666667,0|2|0,0:3|0:3|0:3,0:0:0
219,295,28380,2,0,P|153:316,2,66.6666666666667,2|2|0,0:3|0:3|0:3,0:0:0
197,147,28775,2,2,P|156:131,5,33.3333333333333
124,149,29170,6,0,P|29:107,1,100,4|0,0:0|0:0,0:0:0
169,215,29466,2,0,P|264:257,1,100,2|0,0:3|0:0,0:0:0
325,251,29762,1,2,0:3:0
377,214,29860,1,0,0:0:0
386,149,29959,2,0,P|451:164,1,50,4|0,0:3|0:0,0:0:0
386,149,30156,2,0,P|421:92,1,50
386,149,30354,2,0,P|334:56,1,100,0|0,1:0|0:0,0:0:0
248,32,30650,6,0,P|300:125,1,100,2|2,0:3|0:3,0:0:0
380,287,30946,2,0,P|328:194,1,100,0|0,0:0|1:0,0:0:0
268,181,31242,1,2,0:0:0
202,184,31341,1,0,0:0:0
155,227,31439,2,0,P|43:192,1,100,2|4,0:3|0:3,0:0:0
16,40,31735,2,0,P|52:86,1,50,2|0,0:0|0:0,0:0:0
152,12,31933,2,0,P|130:72,1,50,2|0,1:2|0:0,0:0:0
284,60,32130,5,2,0:0:0
284,60,32229,2,0,P|253:89|253:89|195:115,1,100
330,107,32525,2,0,P|356:75|356:75|413:46,1,100,2|0,0:0|1:0,0:0:0
430,77,32821,1,0,0:0:0
447,101,32920,1,2,0:3:0
464,125,33018,1,0,0:0:0
481,155,33117,6,0,P|454:212,1,50,4|0,0:3|0:0,0:0:0
400,173,33314,2,0,P|373:230,1,50,4|0,0:3|0:0,0:0:0
324,181,33512,2,0,P|297:238,1,50,0|0,1:0|0:0,0:0:0
249,188,33709,2,0,P|222:245,1,50,8|2,0:3|0:3,0:0:0
173,196,33906,6,0,P|124:301,1,100
13,150,34301,1,0,1:0:0
2,106,34400,1,0,0:0:0
12,62,34498,1,2,0:3:0
45,31,34597,1,2,0:0:0
88,20,34696,1,4,0:3:0
131,30,34795,1,0,0:0:0
161,62,34893,1,2,0:3:0
158,107,34992,1,0,0:0:0
124,137,35091,2,0,P|91:98,3,50,0|0|0|0,1:0|0:0|0:0|0:0,0:0:0
164,188,35485,5,4,0:0:0
140,283,35683,1,0,0:0:0
29,327,35880,1,0,1:0:0
52,232,36077,1,0,0:0:0
252,158,36275,6,0,P|313:163|351:183,1,100,4|0,0:3|0:0,0:0:0
493,256,36571,2,0,P|432:251|394:231,1,100,2|2,0:3|0:3,0:0:0
413,170,36867,1,0,0:0:0
413,170,36966,2,0,P|446:123|446:76,1,100,8|0,0:3|0:0,0:0:0
407,30,37262,1,2,0:3:0
344,12,37360,1,0,0:0:0
279,24,37459,1,0,1:0:0
248,81,37558,1,0,0:0:0
255,145,37656,6,0,P|290:194,2,50,2|0|0,0:3|0:0|0:0,0:0:0
209,192,37952,2,0,P|208:244,2,50,2|0|0,0:3|0:0|0:0,0:0:0
143,188,38248,2,0,P|102:233,2,50,2|0|0,1:3|0:0|0:0,0:0:0
105,134,38545,6,4,P|3:116,1,100,4|4,0:3|0:3,0:0:0
112,25,38841,2,0,P|136:72,1,50,2|0,0:3|0:0,0:0:0
199,75,39038,2,0,P|223:122,1,50,2|0,1:3|0:0,0:0:0
286,129,39235,2,0,P|310:176,1,50,2|0,0:3|0:0,0:0:0
371,192,39433,6,0,P|422:293,1,100,4|0,0:3|0:0,0:0:0
374,36,39827,1,0,1:0:0
389,67,39926,1,0,0:0:0
404,98,40025,1,2,0:3:0
419,129,40123,1,2,0:3:0
435,160,40222,2,0,P|454:57,1,100,4|0,0:3|0:0,0:0:0
309,61,40518,2,0,P|266:35,1,50,2|0,0:3|1:0,0:0:0
223,84,40716,2,0,P|166:73,1,50,0|8,0:0|0:3,0:0:0
143,131,40913,2,0,P|79:139,1,50
92,202,41110,2,0,P|56:251,2,50,8|2|0,0:3|0:3|0:0,0:0:0
141,244,41406,2,0,P|158:314|228:361,1,150,0|0,1:0|0:0,0:0:0
286,339,41801,6,0,P|380:336,1,75,4|0,0:0|0:0,0:0:0
307,270,42295,2,0,P|414:267,2,100
37,188,43380,5,2,0:0:0
67,176,43479,1,0,0:0:0
97,164,43577,1,2,0:0:0
127,152,43676,1,0,0:0:0
192,170,43775,5,0,0:0:0
222,158,43874,1,2,0:0:0
252,146,43972,1,0,0:0:0
282,134,44071,1,0,0:0:0
349,147,44170,5,2,0:0:0
379,135,44269,1,0,0:0:0
409,123,44367,1,2,0:0:0
439,111,44466,1,0,0:0:0
455,42,44564,6,0,P|512:18,3,50,0|8|0|8,0:0|0:3|0:0|0:3,0:0:0
361,36,44959,6,0,P|276:69,1,75,4|0,0:0|0:0,0:0:0
218,44,45551,1,0,0:0:0
38,65,45748,2,0,P|136:26,1,100,0|0,1:0|0:0,0:0:0
130,28,46242,1,0,0:3:0
150,216,46538,5,2,0:0:0
169,96,46670,1,2,0:0:0
51,78,46801,1,0,0:0:0
29,203,46933,6,0,P|73:173,1,50,6|2,0:3|0:3,0:0:0
17,292,47130,2,0,P|61:262,1,50,8|0,0:3|0:0,0:0:0
57,354,47327,6,0,P|113:316,1,50,0|0,1:0|0:0,0:0:0
163,342,47525,2,0,P|219:304,1,50,2|0,0:0|0:0,0:0:0
268,328,47722,2,0,P|324:290,1,50
374,316,47920,2,0,P|430:278,1,50,2|0,0:0|0:0,0:0:0
480,280,48117,5,4,0:0:0
480,280,48216,2,0,P|504:152,1,125,8|0,0:3|0:0,0:0:0
432,192,48906,2,0,P|450:93,1,100,0|0,1:0|0:0,0:0:0
407,44,49498,1,8,0:3:0
284,150,49696,5,2,0:0:0
267,131,49795,1,0,0:0:0
250,112,49893,1,2,0:0:0
233,93,49992,1,0,0:0:0
166,109,50091,5,0,0:0:0
149,90,50190,1,2,0:0:0
132,71,50288,1,0,0:0:0
115,52,50387,1,0,0:0:0
38,57,50485,6,0,P|104:139,1,100,0|0,1:0|0:0,0:0:0
128,279,50880,1,8,0:3:0
128,279,50979,1,8,0:3:0
263,224,51176,1,8,0:3:0
263,224,51275,6,0,P|311:271|395:252,1,150,8|4,0:3|0:3,0:0:0
337,205,52064,2,0,P|391:165|387:79,1,150,0|0,1:0|0:0,0:0:0
205,182,52854,5,2,0:0:0
327,127,52985,1,2,0:0:0
214,51,53117,1,2,0:0:0
189,164,53248,5,8,0:3:0
339,220,53379,1,2,0:3:0
307,60,53511,1,8,0:3:0
173,146,53643,6,0,P|65:119,1,100,0|0,1:0|0:0,0:0:0
80,288,54038,2,2,P|111:287,6,25
221,262,54433,6,0,P|273:258|273:258|336:180,1,150,4|0,0:0|0:0,0:0:0
371,93,54827,2,0,P|437:17,1,100,0|0,1:0|0:0,0:0:0
170,163,55222,1,2,0:3:0
234,157,55321,2,0,P|300:81,1,100
32,253,55617,2,0,P|98:177,1,100,0|0,1:0|0:0,0:0:0
70,40,56012,5,2,0:0:0
197,86,56209,1,0,0:0:0
225,76,56308,1,0,0:0:0
253,66,56406,1,0,1:0:0
347,88,56604,1,8,0:3:0
322,223,56801,1,4,0:3:0
295,209,56900,1,8,0:3:0
268,195,56998,1,0,0:0:0
12,289,57196,1,0,1:0:0
28,264,57295,1,0,0:0:0
44,239,57393,1,4,0:3:0
61,214,57492,1,0,0:0:0
78,189,57591,6,0,P|49:76,1,100,4|0,0:0|0:0,0:0:0
117,82,57887,2,0,P|128:16,1,50,0|0,0:0|1:0,0:0:0
147,237,58183,1,8,0:3:0
245,84,58380,2,0,P|283:52,1,50,4|0,0:3|0:0,0:0:0
331,95,58577,2,0,P|389:93,1,50,8|0,0:3|0:0,0:0:0
388,158,58775,2,0,P|440:193,1,50,0|0,1:0|0:0,0:0:0
403,245,58972,2,0,P|414:294,1,50,4|0,0:3|0:0,0:0:0
333,217,59170,6,0,P|305:269|305:269|214:299,1,150,2|0,0:0|0:0,0:0:0
184,353,59564,1,0,1:0:0
244,197,59762,2,0,P|183:103,1,100,8|0,0:3|0:0,0:0:0
73,35,60156,1,4,0:3:0
19,293,60354,1,0,1:0:0
128,176,60551,1,0,0:0:0
284,308,60748,6,0,P|337:307|384:350,1,100,4|0,0:3|0:0,0:0:0
438,346,61045,1,0,0:0:0
423,283,61143,2,0,P|395:237|409:175,1,100,2|2,1:2|0:0,0:0:0
431,135,61439,1,0,0:0:0
489,163,61538,2,2,P|510:193,8,25,2|2|2|2|2|2|2|2|2,0:0|0:0|0:0|0:0|0:0|0:0|0:0|0:0|1:2,0:0:0
328,186,62130,1,8,0:3:0
264,267,62327,6,0,P|228:211|248:129,1,150,4|2,0:3|0:0,0:0:0
298,95,62722,1,0,1:0:0
493,31,62920,1,2,0:0:0
462,56,63018,1,0,0:0:0
423,67,63117,2,0,P|329:11,1,100,8|4,0:3|0:3,0:0:0
57,118,63512,1,0,1:0:0
85,89,63610,1,0,0:0:0
121,71,63709,1,2,0:0:0
160,67,63808,1,0,0:0:0
198,78,63906,5,4,0:0:0
224,108,64005,2,0,P|272:196,1,100,8|0,0:3|0:0,0:0:0
258,37,64301,2,0,P|306:125,1,100,2|2,1:2|0:0,0:0:0
365,150,64597,1,0,0:0:0
427,168,64696,2,2,P|441:191,8,25,2|0|0|0|0|0|0|0|0,0:0|0:0|0:0|0:0|0:0|0:0|0:0|0:0|1:2,0:0:0
494,28,65288,1,8,0:3:0
250,97,65485,5,4,0:3:0
229,158,65584,1,0,0:0:0
255,217,65683,1,0,0:0:0
311,248,65781,1,2,0:3:0
375,259,65880,2,0,P|428:236,1,50,0|0,1:0|0:0,0:0:0
267,368,66077,2,0,P|320:345,1,50,2|0,0:3|0:0,0:0:0
316,159,66275,6,0,P|351:116|320:19,1,150,2|0,0:0|0:0,0:0:0
137,114,66670,2,0,P|102:157|133:254,1,150,2|0,0:0|0:0,0:0:0
173,281,67064,5,4,0:0:0
365,338,67262,1,0,0:0:0
462,148,67459,1,0,0:0:0
439,136,67558,1,0,0:0:0
416,124,67656,1,2,0:0:0
393,112,67755,1,0,0:0:0
370,100,67854,1,0,0:0:0
85,191,68248,5,0,0:0:0
112,179,68347,1,2,0:0:0
139,167,68446,1,0,0:0:0
166,155,68545,1,0,0:0:0
193,144,68643,1,0,0:0:0
423,320,69038,5,0,0:0:0
402,291,69137,1,0,0:0:0
381,263,69235,1,2,0:0:0
360,234,69334,1,0,0:0:0
339,205,69433,1,8,0:3:0
403,182,69531,6,0,P|387:126|387:126|332:45,1,150.000005722046,4|0,0:3|0:0,0:0:0
109,202,69827,2,0,P|125:258|125:258|180:339,1,150.000005722046,4|0,0:3|0:0,0:0:0
256,192,70222,5,4,0:2:0
189,44,70913,5,0,0:0:0
180,62,71406,1,0,1:0:0
133,135,71801,1,0,0:3:0
480,35,72492,5,0,0:0:0
471,53,72985,1,0,1:0:0
436,122,73380,1,0,0:0:0
483,215,73577,1,0,0:0:0
336,35,74071,5,0,0:0:0
327,53,74564,1,0,1:0:0
256,116,74762,1,0,0:0:0
132,136,74959,1,0,0:0:0
7,76,75156,1,0,0:0:0
448,312,75650,5,0,0:0:0
439,330,76143,1,0,1:0:0
399,224,76341,1,0,0:0:0
382,212,76439,1,0,0:0:0
365,200,76538,1,0,0:0:0
216,184,76735,1,0,0:0:0
375,52,77229,5,0,0:0:0
366,70,77722,1,0,1:0:0
241,50,77920,1,0,0:0:0
218,61,78018,1,0,0:0:0
195,72,78117,1,0,0:0:0
104,169,78314,1,0,0:0:0
182,281,78512,2,0,P|212:323,1,50
41,330,78808,5,0,0:0:0
32,348,79301,1,0,1:0:0
174,183,79498,2,0,P|218:219,1,50
278,209,79696,2,0,P|322:245,1,50
384,236,79893,1,0,0:0:0
384,236,79992,2,0,P|428:272,1,50
376,89,80387,5,0,0:0:0
367,107,80880,1,0,1:0:0
277,131,81077,1,0,0:0:0
64,48,81275,6,0,P|30:92|31:150,1,100,4|0,0:3|0:0,0:0:0
34,164,81571,1,0,0:0:0
48,190,81670,1,0,1:0:0
188,108,81867,1,0,0:0:0
158,111,81966,1,2,0:3:0
130,123,82064,1,4,0:3:0
39,296,82262,1,2,0:3:0
148,220,82459,1,0,1:0:0
141,249,82558,1,0,0:0:0
145,278,82656,1,0,0:0:0
159,304,82755,1,0,0:0:0
181,323,82854,6,0,P|268:372,1,100,4|0,0:0|0:0,0:0:0
238,246,83248,1,0,1:0:0
319,88,83446,1,0,0:3:0
280,99,83545,1,2,0:0:0
254,129,83643,1,4,0:3:0
338,200,83841,2,0,P|338:253,1,50,8|0,0:3|0:0,0:0:0
338,200,84038,2,0,P|423:276,1,100,0|0,1:0|0:0,0:0:0
497,222,84433,5,4,0:3:0
395,44,84630,1,0,0:0:0
169,79,84827,1,0,1:0:0
94,314,85025,1,8,0:3:0
133,335,85123,1,2,0:0:0
171,357,85222,2,0,P|232:343,1,50,0|2,0:0|0:3,0:0:0
187,289,85420,2,0,P|248:275,1,50,2|0,0:0|0:3,0:0:0
201,221,85617,2,0,P|262:207,1,50,2|0,0:3|0:3,0:0:0
217,153,85814,2,0,P|278:139,1,50,2|2,0:0|0:3,0:0:0
284,79,86012,6,0,P|334:71|334:71|437:107,1,150,4|0,0:3|0:0,0:0:0
334,139,86406,2,0,P|429:172,1,100,0|2,1:0|0:3,0:0:0
474,217,86702,1,0,0:0:0
412,237,86801,2,0,P|300:199,1,100,4|0,0:3|0:0,0:0:0
460,323,87196,2,0,P|348:285,1,100,0|0,1:0|0:0,0:0:0
121,355,87591,5,4,0:3:0
32,202,87788,1,2,0:0:0
54,162,87887,1,0,0:0:0
75,123,87985,1,0,1:0:0
45,31,88183,1,2,0:0:0
179,60,88380,1,8,0:3:0
200,121,88479,1,2,0:0:0
248,163,88577,1,2,0:3:0
312,172,88676,1,0,0:0:0
373,151,88775,2,0,P|427:118,3,50,0|0|2|0,1:0|0:0|0:0|0:0,0:0:0
290,105,89170,6,0,P|358:64|358:64|444:52,1,150,4|0,0:3|0:0,0:0:0
393,221,89564,2,0,P|325:262|325:262|255:271,1,150,0|0,1:0|0:0,0:0:0
195,244,89959,6,0,P|145:293,1,50,8|0,0:3|0:0,0:0:0
29,290,90156,2,0,P|79:241,1,50,8|0,0:3|0:0,0:0:0
185,147,90354,2,0,P|135:196,1,50,0|0,1:0|0:0,0:0:0
19,193,90551,2,0,P|69:144,1,50,2|0,0:3|0:0,0:0:0
6,97,90748,6,0,P|86:24,1,100,4|8,0:3|0:3,0:0:0
141,52,91045,1,0,0:0:0
201,75,91143,2,0,P|284:4,1,100,0|0,1:0|0:0,0:0:0
288,227,91538,5,2,0:3:0
295,203,91637,1,0,0:0:0
302,179,91735,1,2,0:3:0
309,155,91834,1,0,0:0:0
370,132,91933,5,0,1:0:0
377,108,92032,1,2,0:0:0
384,84,92130,1,2,0:3:0
391,60,92229,1,0,0:0:0
449,31,92327,6,0,P|473:77|473:77|446:179,1,150,4|0,0:3|0:0,0:0:0
385,342,92722,2,0,P|361:296|361:296|388:194,1,150,0|0,1:0|0:0,0:0:0
444,240,93117,6,0,P|427:299,1,50,8|0,0:3|0:0,0:0:0
300,268,93314,2,0,P|283:327,1,50,8|0,0:3|0:0,0:0:0
387,147,93512,2,0,P|370:206,1,50,0|0,1:0|0:0,0:0:0
243,175,93709,2,0,P|226:234,1,50,8|0,0:3|0:0,0:0:0
229,288,93906,5,2,0:0:0
102,331,94038,1,2,0:0:0
128,201,94170,1,2,0:0:0
229,288,94301,6,0,P|311:144,1,150,0|0,1:0|0:0,0:0:0
263,106,94696,2,0,P|287:59,1,50,4|0,0:3|0:0,0:0:0
190,92,94893,2,0,P|165:138,1,50,8|0,0:3|0:0,0:0:0
48,208,95091,2,0,P|97:115,1,100,0|0,1:0|0:0,0:0:0
282,355,95485,6,0,P|310:266|310:266|371:232,1,150,4|0,0:0|0:0,0:0:0
421,117,95880,2,0,P|472:94|472:94|496:48,1,100,0|0,1:0|0:0,2:0:0
351,96,96176,2,0,P|299:118|299:118|275:164,1,100,2|2,0:3|0:3,2:0:0
432,243,96472,2,0,P|409:191|409:191|370:171,1,100,0|0,0:0|1:0,2:0:0
234,60,96867,1,2,0:0:0
203,77,96966,1,2,0:3:0
172,94,97064,1,4,0:3:0
170,292,97262,1,0,0:0:0
216,165,97459,6,0,P|128:204|128:204|76:312,1,200,0|2,1:0|0:0,0:0:0
90,137,97952,2,0,P|44:236,1,100,2|2,0:3|0:3,0:0:0
54,67,98248,2,0,P|8:166,1,100,2|0,1:2|0:0,0:0:0
212,30,98643,5,2,0:0:0
367,231,98841,1,2,0:0:0
143,75,99038,1,0,0:0:0
160,111,99137,1,2,0:0:0
177,146,99235,1,0,0:0:0
194,181,99334,1,2,0:0:0
212,216,99433,1,0,0:0:0
264,101,99630,1,2,0:0:0
302,124,99729,1,0,0:0:0
340,147,99827,1,0,0:0:0
346,42,100025,5,2,0:0:0
395,34,100123,1,0,0:0:0
444,26,100222,1,6,0:3:0
493,18,100321,1,2,0:3:0
432,162,100518,1,2,0:3:0
456,205,100617,1,0,1:0:0
304,232,100814,1,2,0:3:0
277,274,100913,1,0,0:0:0
250,316,101012,6,0,P|196:329,1,50,4|0,0:3|0:0,0:0:0
386,336,101209,2,0,P|332:349,1,50,2|0,0:3|0:0,0:0:0
175,265,101406,2,0,P|121:278,1,50,0|0,1:0|0:0,0:0:0
406,262,101603,2,0,P|352:275,1,50,8|0,0:3|0:0,0:0:0
246,179,101801,6,0,P|146:204,1,100,4|0,0:3|0:0,0:0:0
13,97,102196,1,0,1:0:0
50,43,102295,2,0,P|109:25|109:25|155:44,1,100,2|2,0:0|0:3,0:0:0
104,98,102591,1,4,0:3:0
104,98,102689,2,0,P|139:112|139:112|198:94,1,100,2|0,0:0|0:0,0:0:0
274,60,102985,2,0,P|333:42|333:42|369:57,1,100,0|2,1:0|0:3,0:0:0
333,111,103281,1,2,0:0:0
397,119,103380,6,0,P|443:137|443:137|485:230,1,150,4|0,0:3|0:0,0:0:0
465,332,103775,2,0,P|438:272,1,50,0|2,1:0|0:0,0:0:0
379,288,103972,1,0,0:0:0
328,246,104071,2,0,P|294:227|294:227|228:248,1,100,2|0,0:3|0:0,0:0:0
137,315,104367,1,0,0:0:0
181,328,104466,2,0,P|235:312,1,50,0|0,0:0|1:0,0:0:0
284,160,104762,1,2,0:3:0
112,28,104959,5,2,0:0:0
84,232,105156,1,2,0:0:0
192,95,105354,1,0,0:0:0
220,86,105452,1,2,0:0:0
248,77,105551,1,0,0:0:0
277,69,105650,1,0,0:0:0
305,61,105748,6,0,P|359:83,1,50,4|0,0:3|0:0,0:0:0
389,133,105946,2,0,P|443:155,1,50,8|0,0:3|0:0,0:0:0
433,263,106143,2,0,P|379:241,1,50,0|0,1:0|0:0,0:0:0
349,191,106341,2,0,P|295:169,1,50,8|0,0:3|0:0,0:0:0
237,177,106538,5,2,0:0:0
175,199,106637,1,0,0:0:0
144,256,106735,1,2,0:0:0
152,320,106834,1,0,0:0:0
198,366,106933,2,0,P|102:318,1,100,0|2,1:0|0:0,0:0:0
357,364,107327,1,0,0:0:0
322,308,107426,2,0,P|226:260,1,100,0|2,0:0|0:0,0:0:0
414,281,107722,2,0,P|318:233,1,100,0|2,1:0|0:3,0:0:0
284,185,108018,1,0,0:0:0
244,133,108117,6,0,P|164:133|164:133|164:73|164:73|64:73|64:73|64:133|64:133,1,300,4|0,1:2|0:0,2:0:0
112,253,108906,6,0,P|112:294,8,25,0|0|0|0|0|0|0|0|4,0:0|0:0|0:0|0:0|0:0|0:0|0:0|0:0|0:1,0:0:0
