osu file format v10

[General]
AudioFilename: jubeat saucerMother Ship.mp3
AudioLeadIn: 1500
PreviewTime: 69452
Countdown: 1
SampleSet: Soft
StackLeniency: 0.7
Mode: 0
LetterboxInBreaks: 0

[Editor]
DistanceSpacing: 1
BeatDivisor: 4
GridSize: 4

[Metadata]
Title:Mother Ship
TitleUnicode:Mother Ship
Artist:Sota Fujimori
ArtistUnicode:Sota Fujimori
Creator:Flower
Version:BASIC
Source:jubeat
Tags:madechuan bemani saucer plus Konami Arcade Championship
BeatmapID:194884
BeatmapSetID:66929

[Difficulty]
HPDrainRate:3
CircleSize:4
OverallDifficulty:3
ApproachRate:4
SliderMultiplier:1.1
SliderTickRate:2

[Events]
//Background and Video events
0,0,"leap.jpg"
//Break Periods
//Storyboard Layer 0 (Background)
//Storyboard Layer 1 (Fail)
//Storyboard Layer 2 (Pass)
//Storyboard Layer 3 (Foreground)
//Storyboard Sound Samples
//Background Colour Transformations
3,100,163,162,255

[TimingPoints]
749,394.736842105263,4,2,0,70,1,0
70222,-100,4,3,0,70,0,1
82854,-100,4,2,0,70,0,0

[Colours]
Combo1 : 92,228,218
Combo2 : 137,149,158
Combo3 : 6,99,238
Combo4 : 215,215,204

[HitObjects]
88,105,749,2,0,P|172:29,1,110,2|0,0:0|0:0,0:0:0
200,136,1538,2,0,P|284:60,1,110,2|0,0:0|0:0,0:0:0
388,88,2327,2,0,P|452:184,1,110,2|0,0:0|0:0,0:0:0
340,192,3117,2,0,P|404:288,1,110,2|0,0:0|0:0,0:0:0
296,320,3906,6,0,P|232:356|92:316,1,220,4|4,0:0|0:3,0:0:0
36,108,5485,1,4,0:3:0
132,52,5880,1,0,1:0:0
228,108,6275,2,0,P|276:124|336:108,1,110,8|0,0:3|1:0,0:0:0
440,80,7064,6,0,P|479:127|439:272,1,220,2|2,0:0|0:0,0:0:0
236,336,8643,1,6,0:0:0
168,248,9038,1,6,0:0:0
100,160,9433,1,2,0:0:0
296,64,10222,6,0,P|400:40|480:112,1,220,4|8,0:3|0:3,0:0:0
372,144,11406,1,0,1:0:0
448,224,11801,2,0,P|344:248|264:176,1,220,4|8,0:3|0:3,0:0:0
60,96,13380,6,0,P|8:156|56:276,1,220,2|2,0:0|0:0,0:0:0
152,224,14564,1,2,0:0:0
248,276,14959,2,0,P|300:216|252:96,1,220,2|2,0:0|0:3,0:0:0
36,68,16538,5,4,0:0:0
88,164,16933,1,0,1:0:0
32,260,17327,2,0,P|96:360,1,110,4|0,0:3|1:0,0:0:0
188,272,18117,2,0,P|231:191|356:184,1,220,4|8,0:3|0:3,0:0:0
296,276,19301,1,0,1:0:0
404,272,19696,6,0,P|452:221|408:88,1,220,4|8,0:3|0:3,0:0:0
316,36,20880,1,0,1:0:0
208,60,21275,2,0,P|120:164,1,110,4|2,0:3|1:2,0:0:0
248,156,22064,2,0,P|160:260,1,110,8|2,0:3|1:3,0:0:0
276,288,22854,6,0,P|216:336|88:292,1,220,4|0,0:3|0:0,0:0:0
128,80,24433,2,0,P|248:44,1,110,4|2,0:3|1:2,0:0:0
228,160,25222,2,0,P|348:124,1,110,8|2,0:3|1:3,0:0:0
360,236,26012,6,0,P|452:232|500:112,1,220,4|0,0:3|0:0,0:0:0
464,24,27196,1,0,1:0:0
356,44,27591,2,0,P|317:44|317:44|282:32|282:32|240:32,2,110,4|0|8,0:3|1:0|0:3,0:0:0
432,124,28775,6,2,P|452:165|418:231,1,110,2|4,1:2|0:0,0:0:0
256,356,29959,1,8,0:3:0
60,256,30748,2,0,P|80:220|80:220|104:208|104:208|132:156,1,110,4|0,0:3|1:0,0:0:0
200,88,31538,1,4,0:3:0
252,108,31735,1,8,0:3:0
304,128,31933,1,0,1:0:0
412,104,32327,6,0,P|464:164|408:300,1,220,4|0,0:3|0:0,0:0:0
212,340,33906,2,0,P|102:270,1,110,4|0,0:3|1:0,0:0:0
44,200,34696,1,4,0:3:0
88,168,34893,1,8,0:3:0
132,136,35091,1,0,1:0:0
240,112,35485,6,0,P|318:95|400:192,1,220,4|0,0:3|0:0,0:0:0
228,332,37064,1,4,0:3:0
124,292,37459,1,0,1:0:0
80,192,37854,2,0,P|148:88,1,110,8|0,0:3|1:0,0:0:0
228,36,38643,6,0,P|256:108|400:128,1,220,4|0,0:3|0:0,0:0:0
456,52,39827,1,0,1:0:0
344,56,40222,2,0,P|299:123|385:231,1,220,4|2,0:3|0:3,0:0:0
312,324,41406,1,0,1:0:0
204,332,41801,5,4,0:0:0
68,160,42591,2,0,P|280:80,1,220,0|4,1:2|0:3,0:0:0
416,252,44170,1,0,1:0:0
312,212,44564,1,2,0:3:0
208,172,44959,5,4,0:3:0
428,160,45748,2,0,P|244:288,1,220,0|2,1:0|0:2,0:0:0
140,312,46933,2,0,P|20:296,1,110,2|0,0:0|1:0,0:0:0
116,92,48117,5,4,0:3:0
328,36,48906,2,0,P|444:240,1,220,0|4,1:0|0:3,0:0:0
360,308,50091,1,8,0:3:0
252,316,50485,1,0,1:0:0
144,324,50880,1,2,0:3:0
36,332,51275,5,4,0:3:0
152,144,52064,2,0,P|368:48,1,220,0|2,1:0|0:2,0:0:0
436,128,53248,1,2,0:0:0
428,236,53643,1,0,1:0:0
328,280,54038,1,4,0:1:0
216,284,54433,6,0,P|108:240,2,110,4|0|2,0:3|1:0|0:3,0:0:0
112,92,56012,2,0,P|204:44|304:96,1,220,2|0,0:0|0:0,0:0:0
132,236,57591,6,0,P|40:308,2,110,8|0|0,0:3|1:0|0:0,0:0:0
276,72,59170,2,0,P|368:36|428:64,1,165,2|2,0:0|0:0,0:0:0
488,148,60156,1,8,0:3:0
488,148,60354,1,0,1:0:0
424,236,60748,6,0,P|316:176,1,110,4|0,0:3|1:0,0:0:0
324,292,61538,2,0,P|216:232,1,110,0|0,0:0|1:0,0:0:0
152,160,62327,2,0,P|144:108|188:56,1,110,8|0,0:3|1:0,0:0:0
280,36,63117,1,8,0:3:0
328,64,63314,1,8,0:3:0
384,64,63512,1,0,1:0:0
456,148,63906,6,0,P|472:212|364:320,1,220,8|0,0:3|0:0,0:0:0
164,276,65485,1,4,0:3:0
108,180,65880,1,8,0:3:0
156,80,66275,2,0,P|200:48|260:44,1,110,2|2,0:0|0:0,0:0:0
344,104,67064,5,4,0:0:0
464,288,67854,1,2,0:0:0
244,300,68643,1,2,0:0:0
80,152,69433,6,0,P|144:72|260:80,1,220,0|4,0:0|0:2,0:0:0
360,104,70617,2,0,P|460:40,2,110,0|0|0,1:0|0:0|0:0,0:0:0
268,164,71801,5,8,0:3:0
372,196,72196,2,0,P|464:280,2,110,0|0|0,1:0|0:0|0:0,0:0:0
288,268,73380,5,8,0:3:0
180,252,73775,2,0,P|128:352,2,110,0|0|0,1:0|0:0|0:0,0:0:0
232,156,74959,5,8,0:3:0
152,80,75354,2,0,P|32:40,2,110,0|0|0,1:0|0:0|0:0,0:0:0
256,44,76538,5,8,0:3:0
348,108,76933,2,0,P|456:76,2,110,0|0|0,1:0|0:0|0:0,0:0:0
272,188,78117,5,8,0:3:0
372,232,78512,2,0,P|472:280,2,110,0|0|0,1:0|0:0|0:0,0:0:0
280,292,79696,5,8,0:3:0
172,308,80091,2,0,P|64:352,2,110,0|0|0,1:0|0:0|0:0,0:0:0
116,212,81275,5,8,0:3:0
224,196,81670,2,0,P|328:156,2,110,0|0|0,1:0|0:0|0:0,0:0:0
260,92,82854,6,0,P|336:66|378:71,1,110,4|0,0:0|1:0,0:0:0
418,165,83643,2,0,P|459:190|486:254,1,110,0|0,0:0|1:0,0:0:0
380,276,84433,2,0,P|348:329|283:357,2,110,4|0|0,0:3|1:0|0:0,0:0:0
359,225,85420,1,0,0:0:0
309,201,85617,1,0,1:0:0
208,248,86012,6,0,P|160:252|96:216,1,110,4|0,0:3|1:0,0:0:0
40,136,86801,1,8,0:3:0
100,44,87196,1,0,1:0:0
196,96,87591,2,0,P|260:72|300:76,1,110,4|0,0:3|1:0,0:0:0
396,132,88380,1,0,0:0:0
428,176,88577,1,0,0:0:0
444,228,88775,1,0,1:0:0
372,312,89170,6,0,P|252:352,1,110,4|0,0:3|1:0,0:0:0
180,280,89959,2,0,P|300:240,1,110,0|0,0:0|1:0,0:0:0
228,148,90748,2,0,P|280:112,2,55,0|0|0,0:0|0:0|1:0,0:0:0
136,84,91538,2,0,P|140:16,2,55,8|0|0,0:3|0:0|1:0,0:0:0
128,192,92327,6,0,P|64:216|76:352,1,220,4|0,0:3|0:0,0:0:0
172,308,93512,1,0,1:0:0
272,352,93906,2,0,P|392:352,1,110,2|0,0:0|1:0,0:0:0
356,244,94696,2,0,P|468:244,1,110,2|0,0:0|1:0,0:0:0
448,136,95485,6,0,P|380:81|249:110,1,220,4|0,0:0|0:0,0:0:0
56,196,97064,2,0,P|76:248|224:296,1,220,8|8,0:3|0:3,0:0:0
324,268,98248,1,0,1:0:0
240,196,98643,6,0,P|172:212|188:96,1,220,4|8,0:3|0:3,0:0:0
280,64,99827,1,0,1:0:0
384,100,100222,2,0,P|440:160|408:284,1,220,4|0,0:3|0:0,0:0:0
320,348,101406,1,0,1:0:0
228,288,101801,6,0,P|120:336,1,110,4|0,0:3|1:0,0:0:0
36,272,102591,2,0,P|144:224,1,110,8|0,0:3|1:0,0:0:0
188,132,103380,2,0,P|236:60|360:60,1,220,4|0,0:3|0:0,0:0:0
296,152,104564,1,0,1:0:0
404,168,104959,6,0,P|356:240|232:240,1,220,4|0,0:3|0:0,0:0:0
124,240,106143,2,0,P|88:183|90:140,1,110,0|2,1:0|0:0,0:0:0
200,124,106933,1,0,1:0:0
292,64,107327,2,0,P|328:48|408:56,1,110,2|0,0:0|1:0,0:0:0
488,116,108117,6,0,P|516:180|332:300,1,330,4|4,0:0|0:1,0:0:0
