osu file format v10

[General]
AudioFilename: jubeat saucerMother Ship.mp3
AudioLeadIn: 1500
PreviewTime: 69452
Countdown: 1
SampleSet: Soft
StackLeniency: 0.7
Mode: 0
LetterboxInBreaks: 0

[Editor]
DistanceSpacing: 1
BeatDivisor: 4
GridSize: 4

[Metadata]
Title:Mother Ship
TitleUnicode:Mother Ship
Artist:Sota Fujimori
ArtistUnicode:Sota Fujimori
Creator:Flower
Version:ADVANCED
Source:jubeat
Tags:madechuan bemani saucer plus Konami Arcade Championship
BeatmapID:194869
BeatmapSetID:66929

[Difficulty]
HPDrainRate:5
CircleSize:4
OverallDifficulty:5
ApproachRate:7
SliderMultiplier:1.6
SliderTickRate:2

[Events]
//Background and Video events
0,0,"leap.jpg"
//Break Periods
//Storyboard Layer 0 (Background)
//Storyboard Layer 1 (Fail)
//Storyboard Layer 2 (Pass)
//Storyboard Layer 3 (Foreground)
//Storyboard Sound Samples
//Background Colour Transformations
3,100,163,162,255

[TimingPoints]
749,394.736842105263,4,2,1,70,1,0
3906,-100,4,2,0,70,0,0
70222,-100,4,3,1,70,0,1
82854,-100,4,2,0,70,0,0

[Colours]
Combo1 : 92,228,218
Combo2 : 137,149,158
Combo3 : 6,99,238
Combo4 : 215,215,204

[HitObjects]
256,72,749,2,0,P|336:112,1,80,2|0,0:0|0:0,0:0:0
408,100,1143,1,0,0:0:0
412,180,1341,2,0,P|452:200,2,40,0|2|2,0:0|0:0|0:0,0:0:0
336,208,1735,2,0,P|256:168,1,80,0|0,0:0|0:0,0:0:0
48,344,2327,6,0,P|124:276,1,80,2|0,0:0|0:0,0:0:0
188,304,2722,1,0,0:0:0
176,224,2920,2,0,P|252:156,1,80,2|2,0:0|0:0,0:0:0
228,92,3314,1,0,0:0:0
228,92,3413,1,0,0:0:0
228,92,3512,2,0,P|304:24,1,80,0|2,0:0|0:3,0:0:0
372,100,3906,6,0,P|432:120|460:220,1,160,4|0,0:0|1:0,0:0:0
384,188,4498,1,2,0:3:0
396,268,4696,2,0,P|336:248|308:148,1,160,4|0,0:3|1:0,0:0:0
296,84,5288,1,8,0:3:0
228,124,5485,5,4,0:3:0
228,124,5584,1,2,0:3:0
228,124,5683,1,0,0:0:0
160,60,5880,2,0,P|68:24,1,80,0|0,1:0|0:0,0:0:0
44,100,6275,2,0,P|0:82,2,40,4|0|8,0:3|0:0|0:3,0:0:0
60,180,6670,1,0,1:0:0
169,363,7064,5,2,0:0:0
237,321,7262,1,2,0:0:0
305,279,7459,1,2,1:2:0
372,236,7656,1,2,0:0:0
441,190,7854,2,0,P|521:136,1,80,4|0,0:3|0:0,0:0:0
470,128,8150,2,0,P|470:71|419:19,1,120,2|2,0:0|0:0,0:0:0
353,27,8643,5,4,0:0:0
329,143,8940,1,8,0:3:0
329,143,9038,2,0,P|205:143,1,120,4|0,0:0|0:0,0:0:0
228,180,9433,2,0,P|104:180,1,120,4|0,0:0|0:0,0:0:0
88,216,9827,2,0,P|26:216,2,53.3333333333333,2|2|2,0:3|0:3|0:2,0:0:0
120,260,10222,5,4,0:3:0
60,312,10420,1,0,0:0:0
124,360,10617,2,0,P|212:360,1,80,0|0,1:0|0:0,0:0:0
260,304,11012,1,4,0:3:0
244,228,11209,1,0,0:0:0
288,160,11406,2,0,P|336:160,1,40,2|0,1:3|0:0,0:0:0
300,84,11702,2,0,P|252:84,1,40,2|4,0:3|0:3,0:0:0
200,32,11998,5,4,0:3:0
136,76,12196,2,0,P|176:168,1,80,0|0,1:0|0:0,0:0:0
116,212,12591,1,4,0:3:0
128,248,12689,1,2,0:0:0
144,284,12788,1,0,0:0:0
160,320,12887,1,0,0:0:0
176,356,12985,1,0,1:0:0
420,120,13380,5,2,0:0:0
344,144,13577,1,2,0:0:0
268,164,13775,1,2,1:2:0
192,188,13972,1,2,0:0:0
116,212,14170,2,0,P|56:192|44:176,1,80,4|0,0:3|0:0,0:0:0
64,144,14466,2,0,P|56:96|116:40,1,120,2|2,0:0|0:0,0:0:0
168,88,14959,5,6,0:3:0
236,132,15156,1,2,0:0:0
304,176,15354,1,0,1:0:0
372,216,15551,1,2,0:0:0
440,260,15748,2,0,P|476:284,1,40,2|0,0:3|0:0,0:0:0
440,364,16045,2,0,P|404:340,1,40,2|0,0:3|1:0,0:0:0
164,312,16538,6,0,P|128:260|168:176,1,160,4|0,0:0|1:0,0:0:0
204,248,17130,1,2,0:0:0
244,180,17327,2,0,P|280:232|240:316,1,160,8|0,0:3|1:0,0:0:0
72,108,18117,6,0,P|116:64|220:60,1,160,4|0,0:3|1:0,0:0:0
272,104,18709,1,2,0:3:0
344,68,18906,1,8,0:3:0
412,108,19104,1,2,0:3:0
420,148,19202,1,2,0:0:0
428,188,19301,1,0,1:0:0
436,228,19400,1,0,0:0:0
444,268,19498,1,2,0:3:0
380,316,19696,6,0,P|304:356,1,80,4|2,0:3|0:0,0:0:0
208,312,20091,2,0,P|284:272,1,80,0|0,1:0|0:0,0:0:0
332,216,20485,1,8,0:3:0
336,136,20683,1,2,0:3:0
280,80,20880,1,0,1:0:0
200,72,21077,1,0,0:0:0
140,124,21275,6,0,P|152:200|96:252,1,160,4|0,0:3|1:0,0:0:0
76,172,21867,1,2,0:3:0
12,220,22064,2,0,P|0:144|56:92,1,160,0|0,0:0|1:0,0:0:0
235,148,22854,6,0,P|262:202|368:227,1,160,4|0,0:3|1:0,0:0:0
427,206,23446,1,2,0:0:0
435,126,23643,2,0,P|481:108,1,40,8|0,0:3|0:0,0:0:0
425,45,23939,2,0,P|379:63,1,40,0|0,0:0|1:0,0:0:0
310,82,24235,1,8,0:3:0
220,36,24433,6,0,P|132:64,1,80,4|0,0:3|0:0,0:0:0
216,124,24827,2,0,P|128:152,1,80,0|2,1:0|0:0,0:0:0
60,132,25222,1,8,0:3:0
8,192,25420,1,0,0:0:0
28,268,25617,1,0,1:0:0
60,292,25716,1,0,0:0:0
92,316,25814,1,2,0:3:0
152,260,26012,6,0,P|190:270|227:246|227:246|266:224|312:235,1,160,4|0,0:3|1:0,0:0:0
450,166,26801,2,0,P|410:173|375:147|375:147|338:122|291:130,1,160,4|0,0:3|1:0,0:0:0
248,64,27393,1,0,0:0:0
156,72,27591,6,0,P|112:32,2,53.3333333333333,2|2|2,0:0|0:0|0:3,0:0:0
124,140,27985,2,0,P|72:156,2,53.3333333333333,2|2|2,0:0|0:0|0:3,0:0:0
196,132,28380,2,0,P|254:146|286:241,1,160,8|0,0:3|1:0,0:0:0
156,356,29170,5,4,0:0:0
28,212,29564,1,0,1:0:0
76,148,29762,1,2,0:0:0
124,84,29959,1,8,0:3:0
304,44,30354,2,0,P|332:120,1,80,0|0,1:0|0:0,0:0:0
368,188,30748,6,0,P|396:220|408:264,1,80,4|0,0:3|0:0,0:0:0
368,328,31143,2,0,P|340:296|328:252,1,80,0|2,1:0|0:0,0:0:0
288,192,31538,1,8,0:3:0
197,157,31735,1,0,0:0:0
163,247,31933,1,0,1:0:0
252,281,32130,1,2,0:3:0
204,344,32327,6,0,P|120:364,1,80,4|0,0:3|0:0,0:0:0
16,308,32722,2,0,P|100:288,1,80,0|0,1:0|0:0,0:0:0
88,208,33117,2,0,P|60:155|112:72,1,160,8|0,0:3|1:0,0:0:0
136,148,33709,1,2,0:0:0
184,84,33906,6,0,P|216:48,2,40,0|2|2,0:0|0:0|0:0,0:0:0
216,156,34301,2,0,P|264:160,2,40,0|0|2,1:0|0:0|0:0,0:0:0
172,224,34696,1,8,0:3:0
204,296,34893,1,0,0:0:0
272,336,35091,1,0,1:0:0
352,344,35288,1,2,0:3:0
428,324,35485,6,0,P|476:284|488:192,1,160,4|0,0:3|1:0,0:0:0
436,128,36077,1,0,0:0:0
436,128,36176,1,2,0:0:0
436,128,36275,1,8,0:3:0
364,164,36472,1,0,0:0:0
292,124,36670,1,0,1:0:0
232,284,37064,6,0,P|88:212,1,160,0|0,3:0|1:0,0:0:0
40,148,37656,1,2,0:0:0
76,76,37854,2,0,P|220:148,1,160,8|0,0:3|1:0,0:0:0
344,300,38643,6,0,P|432:264,1,80,4|0,0:3|0:0,0:0:0
444,172,39038,2,0,P|356:208,1,80,0|2,1:0|0:0,0:0:0
300,164,39433,1,8,0:3:0
300,164,39531,1,0,0:0:0
300,164,39630,1,2,0:0:0
332,92,39827,2,0,P|420:56,1,80,0|2,1:0|0:3,0:0:0
264,52,40222,6,0,P|216:72|200:172,1,160,4|0,0:3|1:0,0:0:0
248,236,40814,1,2,0:0:0
192,292,41012,1,8,0:3:0
156,308,41110,1,2,0:2:0
120,324,41209,1,8,0:3:0
84,340,41308,1,0,0:0:0
48,356,41406,1,0,1:0:0
56,136,41801,6,0,P|216:68,1,160,4|0,0:0|0:0,0:0:0
280,100,42393,2,0,P|328:140,2,40,2|0|8,0:3|0:0|0:3,0:0:0
428,36,42985,1,0,0:0:0
372,248,43380,6,0,P|440:316,1,80,4|2,0:3|0:3,0:0:0
440,192,43775,2,0,P|372:124,1,80,4|2,0:3|0:3,0:0:0
312,180,44170,1,0,1:0:0
219,151,44367,1,0,0:0:0
191,243,44564,1,8,0:3:0
283,271,44762,1,2,0:3:0
212,320,44959,6,0,P|48:364,1,160,4|0,0:3|0:0,0:0:0
16,292,45551,1,2,0:3:0
16,292,45650,1,0,0:0:0
16,292,45748,1,0,1:0:0
108,160,46143,1,0,0:0:0
276,220,46538,6,0,P|248:268,2,53.3333333333333,0|2|0,0:0|0:3|0:0,0:0:0
348,236,46933,2,0,P|320:284,2,53.3333333333333,0|2|0,0:0|0:3|0:0,0:0:0
420,252,47327,2,0,P|492:104,1,160,0|0,1:0|0:0,0:0:0
304,32,48117,6,0,P|248:20|180:92,1,160,8|0,0:3|0:0,0:0:0
260,100,48709,1,2,0:3:0
216,164,48906,2,0,P|272:176|340:104,1,160,0|0,1:0|0:0,0:0:0
132,160,49696,6,0,P|44:200,1,80,4|0,0:3|0:0,0:0:0
32,292,50091,2,0,P|120:252,1,80,2|0,0:3|0:0,0:0:0
144,268,50387,1,0,0:0:0
184,276,50485,1,0,1:0:0
224,344,50683,1,0,0:0:0
296,308,50880,1,8,0:3:0
336,316,50979,1,2,0:3:0
376,324,51077,1,0,0:0:0
456,316,51275,6,0,P|456:240|386:176,1,160,4|2,0:3|0:3,0:0:0
328,216,51867,1,0,0:0:0
252,192,52064,2,0,P|196:132|196:57,1,160,0|0,1:0|0:0,0:0:0
408,80,52854,6,0,P|448:136,2,53.3333333333333,2|2|2,0:0|0:0|0:0,0:0:0
336,100,53248,2,0,P|376:156,2,53.3333333333333,2|2|0,0:0|0:0|0:0,0:0:0
268,128,53643,2,0,P|216:52,2,80,0|0|4,0:0|0:0|0:1,0:0:0
168,372,54433,6,0,P|260:332,1,80,4|0,0:3|0:0,0:0:0
264,308,54729,1,0,0:0:0
284,276,54827,1,2,0:3:0
224,224,55025,1,0,0:0:0
168,284,55222,2,0,P|124:304,2,40,8|0|0,0:3|0:0|0:0,0:0:0
152,204,55617,2,0,P|104:132,1,80,2|0,0:3|0:0,0:0:0
188,120,56012,6,0,P|197:61|298:31,1,160,4|0,0:3|1:0,0:0:0
266,106,56604,1,0,0:0:0
344,88,56801,2,0,P|334:146|233:176,1,160,0|0,0:0|1:0,0:0:0
108,348,57591,5,4,0:3:0
64,280,57788,1,0,0:0:0
64,280,57887,1,0,0:0:0
64,280,57985,1,0,1:0:0
120,224,58183,1,2,0:3:0
76,156,58380,1,8,0:3:0
140,108,58577,2,0,P|146:90|161:73|161:73|153:53|152:31,2,80,8|0|0,0:3|1:0|0:0,0:0:0
196,164,59170,6,0,P|244:104|332:128,1,160,2|2,0:0|0:3,0:0:0
348,188,59762,2,0,P|300:248|212:224,1,160,2|8,0:0|0:3,0:0:0
144,232,60354,1,2,0:3:0
28,68,60748,5,4,0:0:0
104,40,60946,1,2,0:0:0
140,60,61045,1,0,0:0:0
176,80,61143,1,0,1:0:0
212,152,61341,2,0,P|308:140,1,80,2|8,0:3|0:3,0:0:0
324,120,61637,1,2,0:0:0
356,100,61735,1,0,0:0:0
388,80,61834,1,0,0:0:0
424,56,61933,1,0,1:0:0
464,308,62327,6,0,P|388:248,1,80,4|8,0:3|0:3,0:0:0
336,304,62722,1,0,1:0:0
260,280,62920,1,2,0:3:0
220,292,63018,1,2,0:0:0
180,304,63117,2,0,P|116:252,1,80,0|8,0:0|0:3,0:0:0
88,332,63512,1,0,1:0:0
40,112,63906,6,0,P|80:148,1,40,2|0,0:0|0:0,0:0:0
140,96,64202,2,0,P|100:60,1,40,0|2,0:0|1:2,0:0:0
212,60,64498,1,2,0:0:0
248,80,64597,1,0,0:0:0
284,100,64696,2,0,P|317:85|325:87|325:87|328:81|334:88|334:88|339:89|339:73|350:79|350:75|350:75|356:70|361:78|361:78|365:77|368:65|377:72|379:60|396:66|405:69|407:52|442:48,1,160,8|0,0:3|1:0,0:0:0
388,204,65485,6,4,P|352:284,1,80
316,288,65781,1,0,0:0:0
276,296,65880,1,0,1:0:0
208,256,66077,1,2,0:0:0
168,264,66176,1,0,0:0:0
128,275,66275,2,0,P|65:250|33:163,1,160,2|2,0:0|1:2,0:0:0
60,92,66867,1,8,0:3:0
135,72,67064,5,4,0:0:0
375,71,67854,1,2,0:0:0
376,311,68643,1,2,0:0:0
136,312,69433,1,2,0:0:0
256,196,69827,1,0,1:0:0
176,184,70025,1,0,1:0:0
156,104,70222,6,0,P|188:48|356:104,1,280,4|0,0:2|0:0,0:0:0
256,192,71012,12,0,72492,0:0:0
256,264,72985,6,0,P|256:88,1,160,0|0,1:0|0:0,0:0:0
408,52,73775,2,0,P|408:176,1,120,0|0,1:0|0:0,0:0:0
256,192,74170,12,0,75650,0:0:0
292,296,76143,6,0,P|128:296,1,160,0|0,1:0|0:0,0:0:0
48,160,76933,2,0,P|168:160,1,120,0|0,1:0|0:0,0:0:0
256,192,77327,12,0,78808,0:0:0
334,74,79301,6,0,P|458:198,1,160,0|0,1:0|0:0,0:0:0
398,339,80091,2,0,P|296:237,1,120,0|0,1:0|0:0,0:0:0
256,192,80485,12,0,81966,0:0:0
424,100,82854,6,0,P|364:28,1,80,4|0,0:0|0:0,0:0:0
288,68,83248,2,0,P|348:140,1,80,0|0,1:0|0:0,0:0:0
388,196,83643,2,0,P|396:248|376:296,1,80,8|0,0:3|0:0,0:0:0
324,320,84038,1,0,1:0:0
244,332,84235,1,0,0:0:0
172,296,84433,6,0,P|128:244|128:148,1,160,4|0,0:3|1:0,0:0:0
204,176,85025,2,0,P|212:120|304:88,1,160,8|0,0:3|0:0,0:0:0
364,136,85617,2,0,P|364:184|331:223,1,80,8|0,1:3|0:0,0:0:0
284,256,86012,5,4,0:3:0
209,285,86209,1,0,0:0:0
130,270,86406,1,0,1:0:0
72,214,86604,1,0,0:0:0
64,134,86801,1,0,0:0:0
90,58,86998,1,0,0:0:0
119,40,87097,1,0,0:0:0
158,33,87196,1,0,1:0:0
228,72,87393,1,2,0:3:0
296,32,87591,6,0,P|352:96,1,80,4|0,0:3|0:0,0:0:0
384,112,87887,1,0,0:0:0
420,128,87985,1,0,1:0:0
396,204,88183,2,0,P|452:268,1,80,0|2,0:0|0:3,0:0:0
368,288,88577,2,0,P|424:352,1,80,0|0,0:0|1:0,0:0:0
220,288,89170,6,0,P|184:308|140:304,1,80,4|0,0:3|0:0,0:0:0
84,256,89564,1,0,1:0:0
80,176,89762,1,0,0:0:0
104,144,89860,1,2,0:3:0
128,112,89959,1,8,0:3:0
184,168,90156,2,0,P|236:92,1,80,0|0,0:0|1:0,0:0:0
376,32,90748,5,4,0:3:0
408,104,90946,1,8,0:3:0
440,176,91143,1,0,1:0:0
472,248,91341,1,2,0:3:0
432,316,91538,2,0,P|464:368,2,40,8|0|8,0:3|0:0|0:3,0:0:0
356,292,91933,2,0,P|272:340,1,80,0|0,1:0|0:0,0:0:0
260,256,92327,6,0,P|187:255|132:184,1,160,4|0,0:3|1:0,0:0:0
200,148,92920,2,0,P|188:104|264:28,1,160,2|0,0:3|0:0,0:0:0
320,80,93512,2,0,P|368:72|404:88,1,80,0|0,1:0|0:0,0:0:0
436,152,93906,6,0,P|504:152,2,53.3333333333333,2|2|0,0:3|0:3|0:0,0:0:0
396,188,94301,2,0,P|432:248|416:344,1,160,0|0,1:0|0:0,0:0:0
348,368,94893,1,8,0:3:0
268,360,95091,1,0,1:0:0
228,292,95288,1,0,0:0:0
248,216,95485,6,0,P|268:171|213:82,1,160,4|0,0:2|1:0,0:0:0
192,159,96077,1,2,0:0:0
137,103,96275,2,0,P|116:147|171:236,1,160,4|0,0:3|1:0,0:0:0
352,304,97064,5,4,0:3:0
432,288,97262,1,0,0:0:0
484,228,97459,1,0,1:0:0
500,192,97558,1,2,0:0:0
500,152,97656,1,0,0:0:0
460,80,97854,2,0,P|412:44,1,40,0|2,0:0|0:0,0:0:0
360,104,98150,2,0,P|408:140,1,40,0|2,0:0|1:2,0:0:0
364,204,98446,1,2,0:0:0
288,228,98643,6,0,P|192:196,1,80,4|8,0:3|0:3,0:0:0
204,124,99038,2,0,P|108:92,1,80,0|0,1:0|0:0,0:0:0
56,132,99433,1,8,0:3:0
16,200,99630,1,2,0:0:0
52,272,99827,1,0,1:0:0
204,320,100222,6,0,P|364:356,1,160,4|0,0:3|1:0,0:0:0
368,276,100814,2,0,P|208:240,1,160,2|2,0:0|0:0,0:0:0
136,264,101406,2,0,P|80:196,1,80,0|0,1:0|0:0,0:0:0
152,156,101801,6,0,P|136:108|152:60,1,80,2|2,0:0|0:0,0:0:0
216,108,102196,2,0,P|244:60,1,40,0|2,1:0|0:0,0:0:0
304,116,102492,2,0,P|348:108,1,40,0|2,0:0|0:0,0:0:0
404,160,102788,1,2,0:0:0
432,236,102985,1,0,1:0:0
420,276,103084,1,2,0:0:0
396,308,103183,1,0,0:0:0
324,340,103380,6,0,P|164:364,1,160,4|0,0:3|1:0,0:0:0
120,300,103972,2,0,P|280:276,1,160,2|0,0:0|0:0,0:0:0
344,232,104564,2,0,P|376:192|386:164,1,80,0|2,1:2|0:0,0:0:0
352,92,104959,5,4,0:3:0
280,60,105156,1,8,0:3:0
216,108,105354,1,0,1:0:0
144,76,105551,1,0,0:0:0
84,132,105748,2,0,P|28:156|20:256,1,160,2|0,0:0|1:0,0:0:0
88,216,106341,1,2,0:0:0
100,296,106538,6,0,P|152:356|232:368,1,160,2|0,0:3|1:0,0:0:0
308,368,107130,1,2,0:0:0
380,332,107327,1,2,0:0:0
400,296,107426,1,0,0:0:0
420,260,107525,1,2,0:0:0
440,224,107623,1,2,0:0:0
460,188,107722,1,0,1:0:0
416,120,107920,1,8,0:3:0
452,48,108117,1,4,0:0:0
256,192,108216,12,4,109301,0:1:0
