osu file format v12

[General]
AudioFilename: gimmemore.mp3
AudioLeadIn: 2000
PreviewTime: 38529
Countdown: 1
SampleSet: Normal
StackLeniency: 0.7
Mode: 3
LetterboxInBreaks: 1

[Editor]
Bookmarks: 83329
DistanceSpacing: 1.6
BeatDivisor: 4
GridSize: 8

[Metadata]
Title:Give Me MORE!!
TitleUnicode:Give Me MORE!!
Artist:Sota Fujimori
ArtistUnicode:Sota Fujimori
Creator:ignorethis
Version:8K Hyper
Source:GuitarFreaksXG3 & DrumManiaXG3
Tags:bemani konami
BeatmapID:255637
BeatmapSetID:95019

[Difficulty]
HPDrainRate:8
CircleSize:8
OverallDifficulty:9
ApproachRate:5
SliderMultiplier:1.7
SliderTickRate:1

[Events]
//Background and Video events
0,0,"bg.jpg",0,0
//Break Periods
2,38329,42429
//Storyboard Layer 0 (Background)
//Storyboard Layer 1 (Fail)
//Storyboard Layer 2 (Pass)
//Storyboard Layer 3 (Foreground)
//Storyboard Sound Samples
//Background Colour Transformations
3,100,0,0,0

[TimingPoints]
129,400,4,1,0,100,1,0
3329,-100,4,1,0,100,0,0

[Colours]
Combo1 : 255,192,0
Combo2 : 0,202,0
Combo3 : 18,124,255
Combo4 : 242,24,57

[HitObjects]
96,192,129,1,0,0:0:0:0:
96,192,329,1,0,0:0:0:0:
224,192,529,1,0,0:0:0:0:
96,192,629,1,0,0:0:0:0:
96,192,829,1,0,0:0:0:0:
96,192,1029,1,0,0:0:0:0:
96,192,1229,1,0,0:0:0:0:
224,192,1329,1,0,0:0:0:0:
352,192,1529,1,0,0:0:0:0:
480,192,1729,1,0,0:0:0:0:
480,192,1929,1,0,0:0:0:0:
352,192,2129,1,0,0:0:0:0:
480,192,2229,1,0,0:0:0:0:
480,192,2429,1,0,0:0:0:0:
480,192,2629,1,0,0:0:0:0:
480,192,2829,1,0,0:0:0:0:
288,192,2929,1,0,0:0:0:0:
160,192,3129,1,0,0:0:0:0:
96,192,3329,1,0,0:0:0:0:
96,192,3529,1,0,0:0:0:0:
160,192,3729,1,0,0:0:0:0:
96,192,3829,1,0,0:0:0:0:
160,192,4029,1,0,0:0:0:0:
96,192,4229,1,0,0:0:0:0:
96,192,4429,1,0,0:0:0:0:
160,192,4529,1,0,0:0:0:0:
288,192,4729,1,0,0:0:0:0:
416,192,4929,1,0,0:0:0:0:
224,192,5129,1,0,0:0:0:0:
96,192,5129,1,0,0:0:0:0:
224,192,5329,1,0,0:0:0:0:
96,192,5329,1,0,0:0:0:0:
352,192,5429,1,0,0:0:0:0:
480,192,5529,1,0,0:0:0:0:
352,192,5629,1,0,0:0:0:0:
96,192,5729,1,0,0:0:0:0:
224,192,5729,1,0,0:0:0:0:
96,192,5929,1,0,0:0:0:0:
224,192,5929,1,0,0:0:0:0:
352,192,6029,1,0,0:0:0:0:
480,192,6129,1,0,0:0:0:0:
352,192,6229,1,0,0:0:0:0:
224,192,6329,1,0,0:0:0:0:
96,192,6329,1,0,0:0:0:0:
96,192,6529,1,0,0:0:0:0:
32,192,6529,1,4,0:0:0:0:
160,192,6629,1,0,0:0:0:0:
224,192,6729,1,0,0:0:0:0:
288,192,6829,1,0,0:0:0:0:
352,192,6929,1,0,0:0:0:0:
480,192,6929,1,0,0:0:0:0:
288,192,7029,1,0,0:0:0:0:
224,192,7129,1,0,0:0:0:0:
160,192,7229,1,0,0:0:0:0:
96,192,7329,1,0,0:0:0:0:
160,192,7429,1,0,0:0:0:0:
224,192,7529,1,0,0:0:0:0:
288,192,7629,1,0,0:0:0:0:
352,192,7729,1,0,0:0:0:0:
480,192,7729,1,0,0:0:0:0:
288,192,7829,1,0,0:0:0:0:
224,192,7929,1,0,0:0:0:0:
160,192,8029,1,0,0:0:0:0:
96,192,8129,1,0,0:0:0:0:
160,192,8229,1,0,0:0:0:0:
224,192,8329,1,0,0:0:0:0:
288,192,8429,1,0,0:0:0:0:
352,192,8529,1,0,0:0:0:0:
480,192,8529,1,0,0:0:0:0:
288,192,8629,1,0,0:0:0:0:
224,192,8729,1,0,0:0:0:0:
160,192,8829,1,0,0:0:0:0:
96,192,8929,1,0,0:0:0:0:
160,192,9029,1,0,0:0:0:0:
224,192,9129,1,0,0:0:0:0:
288,192,9229,1,0,0:0:0:0:
352,192,9329,1,0,0:0:0:0:
480,192,9329,1,0,0:0:0:0:
288,192,9429,1,0,0:0:0:0:
224,192,9529,1,0,0:0:0:0:
160,192,9629,1,0,0:0:0:0:
480,192,9729,1,0,0:0:0:0:
416,192,9829,1,0,0:0:0:0:
352,192,9929,1,0,0:0:0:0:
288,192,10029,1,0,0:0:0:0:
224,192,10129,1,0,0:0:0:0:
96,192,10129,1,0,0:0:0:0:
288,192,10229,1,0,0:0:0:0:
352,192,10329,1,0,0:0:0:0:
416,192,10429,1,0,0:0:0:0:
480,192,10529,1,0,0:0:0:0:
416,192,10629,1,0,0:0:0:0:
352,192,10729,1,0,0:0:0:0:
288,192,10829,1,0,0:0:0:0:
224,192,10929,1,0,0:0:0:0:
96,192,10929,1,0,0:0:0:0:
288,192,11029,1,0,0:0:0:0:
352,192,11129,1,0,0:0:0:0:
416,192,11229,1,0,0:0:0:0:
480,192,11329,1,0,0:0:0:0:
416,192,11429,1,0,0:0:0:0:
352,192,11529,1,0,0:0:0:0:
288,192,11629,1,0,0:0:0:0:
224,192,11729,1,0,0:0:0:0:
96,192,11729,1,0,0:0:0:0:
288,192,11829,1,0,0:0:0:0:
32,192,11929,1,0,0:0:0:0:
352,192,11929,1,0,0:0:0:0:
416,192,12029,1,0,0:0:0:0:
480,192,12129,1,0,0:0:0:0:
32,192,12229,1,0,0:0:0:0:
224,192,12229,1,0,0:0:0:0:
416,192,12329,1,0,0:0:0:0:
160,192,12429,1,0,0:0:0:0:
32,192,12529,1,0,0:0:0:0:
352,192,12529,1,0,0:0:0:0:
96,192,12629,1,0,0:0:0:0:
32,192,12729,1,0,0:0:0:0:
288,192,12729,1,0,0:0:0:0:
352,192,12795,1,0,0:0:0:0:
416,192,12862,1,0,0:0:0:0:
480,192,12929,1,0,0:0:0:0:
32,192,12929,1,0,0:0:0:0:
352,192,13029,1,0,0:0:0:0:
160,192,13229,1,0,0:0:0:0:
288,192,13329,1,0,0:0:0:0:
160,192,13429,1,0,0:0:0:0:
288,192,13529,1,0,0:0:0:0:
160,192,13629,1,0,0:0:0:0:
416,192,13829,1,0,0:0:0:0:
224,192,14029,1,0,0:0:0:0:
416,192,14129,1,0,0:0:0:0:
224,192,14529,1,0,0:0:0:0:
96,192,14629,1,0,0:0:0:0:
352,192,14829,1,0,0:0:0:0:
224,192,14929,1,0,0:0:0:0:
352,192,15029,1,0,0:0:0:0:
224,192,15129,1,0,0:0:0:0:
352,192,15229,1,0,0:0:0:0:
160,192,15429,1,0,0:0:0:0:
416,192,15629,1,0,0:0:0:0:
224,192,15729,1,0,0:0:0:0:
224,192,16129,1,0,0:0:0:0:
160,192,16229,1,0,0:0:0:0:
352,192,16429,1,0,0:0:0:0:
480,192,16529,1,0,0:0:0:0:
352,192,16629,1,0,0:0:0:0:
480,192,16729,1,0,0:0:0:0:
352,192,16829,1,0,0:0:0:0:
224,192,17029,1,0,0:0:0:0:
160,192,17229,1,0,0:0:0:0:
288,192,17329,1,0,0:0:0:0:
224,192,17729,1,0,0:0:0:0:
224,192,17829,1,0,0:0:0:0:
352,192,18029,1,0,0:0:0:0:
352,192,18129,1,0,0:0:0:0:
160,192,18329,1,0,0:0:0:0:
160,192,18429,1,0,0:0:0:0:
480,192,18629,1,0,0:0:0:0:
480,192,18729,1,0,0:0:0:0:
416,192,18829,1,0,0:0:0:0:
352,192,18929,1,0,0:0:0:0:
288,192,19029,1,0,0:0:0:0:
224,192,19129,1,0,0:0:0:0:
160,192,19229,1,0,0:0:0:0:
32,192,19329,1,0,0:0:0:0:
96,192,19329,1,0,0:0:0:0:
160,192,19429,1,0,0:0:0:0:
224,192,19529,1,0,0:0:0:0:
288,192,19629,1,0,0:0:0:0:
352,192,19729,1,0,0:0:0:0:
480,192,19729,1,0,0:0:0:0:
288,192,19829,1,0,0:0:0:0:
224,192,19929,1,0,0:0:0:0:
160,192,20029,1,0,0:0:0:0:
96,192,20129,1,0,0:0:0:0:
160,192,20229,1,0,0:0:0:0:
224,192,20329,1,0,0:0:0:0:
288,192,20429,1,0,0:0:0:0:
352,192,20529,1,0,0:0:0:0:
480,192,20529,1,0,0:0:0:0:
288,192,20629,1,0,0:0:0:0:
224,192,20729,1,0,0:0:0:0:
160,192,20829,1,0,0:0:0:0:
96,192,20929,1,0,0:0:0:0:
160,192,21029,1,0,0:0:0:0:
224,192,21129,1,0,0:0:0:0:
288,192,21229,1,0,0:0:0:0:
480,192,21329,1,0,0:0:0:0:
352,192,21329,1,0,0:0:0:0:
288,192,21429,1,0,0:0:0:0:
224,192,21529,1,0,0:0:0:0:
160,192,21629,1,0,0:0:0:0:
96,192,21729,1,0,0:0:0:0:
160,192,21829,1,0,0:0:0:0:
480,192,21829,1,0,0:0:0:0:
224,192,21929,1,0,0:0:0:0:
288,192,22029,1,0,0:0:0:0:
480,192,22129,1,0,0:0:0:0:
352,192,22129,1,0,0:0:0:0:
288,192,22229,1,0,0:0:0:0:
224,192,22329,1,0,0:0:0:0:
160,192,22429,1,0,0:0:0:0:
96,192,22529,1,0,0:0:0:0:
224,192,22629,1,0,0:0:0:0:
288,192,22729,1,0,0:0:0:0:
416,192,22829,1,0,0:0:0:0:
480,192,22929,1,0,0:0:0:0:
96,192,22929,1,0,0:0:0:0:
416,192,23029,1,0,0:0:0:0:
288,192,23129,1,0,0:0:0:0:
224,192,23229,1,0,0:0:0:0:
96,192,23329,1,0,0:0:0:0:
224,192,23429,1,0,0:0:0:0:
288,192,23529,1,0,0:0:0:0:
416,192,23629,1,0,0:0:0:0:
480,192,23729,1,0,0:0:0:0:
96,192,23729,1,0,0:0:0:0:
416,192,23829,1,0,0:0:0:0:
288,192,23929,1,0,0:0:0:0:
224,192,24029,1,0,0:0:0:0:
96,192,24129,1,0,0:0:0:0:
224,192,24229,1,0,0:0:0:0:
288,192,24329,1,0,0:0:0:0:
96,192,24429,1,0,0:0:0:0:
416,192,24429,1,0,0:0:0:0:
480,192,24529,1,0,0:0:0:0:
416,192,24629,1,0,0:0:0:0:
288,192,24729,1,0,0:0:0:0:
224,192,24829,1,0,0:0:0:0:
96,192,24929,1,0,0:0:0:0:
160,192,25029,1,0,0:0:0:0:
224,192,25129,1,0,0:0:0:0:
288,192,25229,1,0,0:0:0:0:
352,192,25329,1,0,0:0:0:0:
32,192,25329,1,0,0:0:0:0:
416,192,25429,1,0,0:0:0:0:
480,192,25529,1,0,0:0:0:0:
416,192,25629,1,0,0:0:0:0:
96,192,25729,1,0,0:0:0:0:
32,192,25729,1,0,0:0:0:0:
352,192,25729,1,0,0:0:0:0:
416,192,25829,1,0,0:0:0:0:
160,192,26029,1,0,0:0:0:0:
480,192,26129,1,0,0:0:0:0:
352,192,26229,1,0,0:0:0:0:
224,192,26329,1,0,0:0:0:0:
160,192,26429,1,0,0:0:0:0:
288,192,26629,1,0,0:0:0:0:
96,192,26729,1,0,0:0:0:0:
352,192,26829,1,0,0:0:0:0:
160,192,26929,1,0,0:0:0:0:
416,192,27029,1,0,0:0:0:0:
224,192,27129,1,0,0:0:0:0:
96,192,27329,1,0,0:0:0:0:
224,192,27429,1,0,0:0:0:0:
352,192,27629,1,0,0:0:0:0:
160,192,27729,1,0,0:0:0:0:
288,192,27829,1,0,0:0:0:0:
416,192,27929,1,0,0:0:0:0:
480,192,28029,1,0,0:0:0:0:
352,192,28229,1,0,0:0:0:0:
160,192,28329,1,0,0:0:0:0:
288,192,28429,1,0,0:0:0:0:
416,192,28529,1,0,0:0:0:0:
224,192,28629,1,0,0:0:0:0:
352,192,28729,1,0,0:0:0:0:
160,192,28829,1,0,0:0:0:0:
288,192,28929,1,0,0:0:0:0:
416,192,29029,1,0,0:0:0:0:
160,192,29229,1,0,0:0:0:0:
480,192,29329,1,0,0:0:0:0:
352,192,29429,1,0,0:0:0:0:
224,192,29529,1,0,0:0:0:0:
160,192,29629,1,0,0:0:0:0:
288,192,29829,1,0,0:0:0:0:
96,192,29929,1,0,0:0:0:0:
352,192,30029,1,0,0:0:0:0:
160,192,30129,1,0,0:0:0:0:
416,192,30229,1,0,0:0:0:0:
224,192,30329,1,0,0:0:0:0:
480,192,30429,1,0,0:0:0:0:
96,192,30529,1,0,0:0:0:0:
224,192,30629,1,0,0:0:0:0:
288,192,30729,1,0,0:0:0:0:
416,192,30829,1,0,0:0:0:0:
96,192,30929,1,0,0:0:0:0:
224,192,31029,1,0,0:0:0:0:
288,192,31129,1,0,0:0:0:0:
416,192,31229,1,0,0:0:0:0:
480,192,31329,1,0,0:0:0:0:
352,192,31429,1,0,0:0:0:0:
288,192,31529,1,0,0:0:0:0:
160,192,31629,1,0,0:0:0:0:
480,192,31729,1,0,0:0:0:0:
352,192,31829,1,0,0:0:0:0:
288,192,31929,1,0,0:0:0:0:
160,192,32029,1,0,0:0:0:0:
32,192,32129,1,0,0:0:0:0:
288,192,32129,1,0,0:0:0:0:
416,192,32229,1,0,0:0:0:0:
352,192,32429,1,0,0:0:0:0:
160,192,32529,1,0,0:0:0:0:
288,192,32629,1,0,0:0:0:0:
224,192,32729,1,0,0:0:0:0:
352,192,32829,1,0,0:0:0:0:
416,192,33029,1,0,0:0:0:0:
288,192,33029,1,0,0:0:0:0:
96,192,33229,1,0,0:0:0:0:
352,192,33329,1,0,0:0:0:0:
480,192,33329,1,0,0:0:0:0:
288,192,33429,1,0,0:0:0:0:
224,192,33529,1,0,0:0:0:0:
160,192,33629,1,0,0:0:0:0:
96,192,33729,1,0,0:0:0:0:
480,192,33729,1,0,0:0:0:0:
224,192,33929,1,0,0:0:0:0:
352,192,34029,1,0,0:0:0:0:
480,192,34129,1,0,0:0:0:0:
352,192,34229,1,0,0:0:0:0:
288,192,34329,1,0,0:0:0:0:
160,192,34429,1,0,0:0:0:0:
96,192,34529,1,0,0:0:0:0:
160,192,34629,1,0,0:0:0:0:
288,192,34729,1,0,0:0:0:0:
352,192,34829,1,0,0:0:0:0:
480,192,34929,1,0,0:0:0:0:
32,192,34929,1,0,0:0:0:0:
96,192,34929,1,0,0:0:0:0:
160,192,35129,1,0,0:0:0:0:
416,192,35129,1,0,0:0:0:0:
224,192,35329,1,0,0:0:0:0:
352,192,35429,1,0,0:0:0:0:
224,192,35629,1,0,0:0:0:0:
480,192,35729,1,0,0:0:0:0:
352,192,35829,1,0,0:0:0:0:
288,192,35929,1,0,0:0:0:0:
160,192,36029,1,0,0:0:0:0:
288,192,36229,1,0,0:0:0:0:
416,192,36229,1,0,0:0:0:0:
96,192,36329,1,0,0:0:0:0:
224,192,36429,1,0,0:0:0:0:
352,192,36529,1,0,0:0:0:0:
480,192,36529,1,0,0:0:0:0:
288,192,36629,1,0,0:0:0:0:
160,192,36729,1,0,0:0:0:0:
96,192,36829,1,0,0:0:0:0:
160,192,36929,1,0,0:0:0:0:
352,192,37029,1,0,0:0:0:0:
224,192,37129,1,0,0:0:0:0:
352,192,37229,1,0,0:0:0:0:
160,192,37329,1,0,0:0:0:0:
288,192,37329,1,0,0:0:0:0:
480,192,37529,1,0,0:0:0:0:
224,192,37629,1,0,0:0:0:0:
352,192,37629,1,0,0:0:0:0:
160,192,37829,1,0,0:0:0:0:
416,192,37929,1,0,0:0:0:0:
288,192,38029,1,0,0:0:0:0:
32,192,38129,1,0,0:0:0:0:
224,192,38129,1,0,0:0:0:0:
96,192,38129,1,0,0:0:0:0:
352,192,43629,5,0,0:0:0:0:
160,192,43729,1,0,0:0:0:0:
288,192,43729,1,0,0:0:0:0:
224,192,43929,1,0,0:0:0:0:
160,192,44029,1,0,0:0:0:0:
352,192,44129,1,0,0:0:0:0:
96,192,44129,1,0,0:0:0:0:
160,192,44229,1,0,0:0:0:0:
288,192,44329,1,0,0:0:0:0:
480,192,44429,1,0,0:0:0:0:
224,192,44429,1,0,0:0:0:0:
416,192,44529,1,0,0:0:0:0:
288,192,44629,1,0,0:0:0:0:
416,192,44729,1,0,0:0:0:0:
96,192,44729,1,0,0:0:0:0:
224,192,44829,1,0,0:0:0:0:
288,192,44929,1,0,0:0:0:0:
32,192,44929,1,0,0:0:0:0:
416,192,45029,1,0,0:0:0:0:
288,192,45129,1,0,0:0:0:0:
416,192,45229,1,0,0:0:0:0:
224,192,45329,1,0,0:0:0:0:
96,192,45329,1,0,0:0:0:0:
288,192,45529,1,0,0:0:0:0:
160,192,45629,1,0,0:0:0:0:
288,192,45729,1,0,0:0:0:0:
416,192,45729,1,0,0:0:0:0:
160,192,45829,1,0,0:0:0:0:
288,192,45929,1,0,0:0:0:0:
160,192,46029,1,0,0:0:0:0:
352,192,46129,1,0,0:0:0:0:
96,192,46229,1,0,0:0:0:0:
352,192,46329,1,0,0:0:0:0:
96,192,46429,1,0,0:0:0:0:
288,192,46629,1,0,0:0:0:0:
160,192,46729,1,0,0:0:0:0:
288,192,46829,1,0,0:0:0:0:
352,192,46929,1,0,0:0:0:0:
480,192,46929,1,0,0:0:0:0:
224,192,47129,1,0,0:0:0:0:
160,192,47229,1,0,0:0:0:0:
96,192,47329,1,0,0:0:0:0:
224,192,47429,1,0,0:0:0:0:
352,192,47529,1,0,0:0:0:0:
480,192,47529,1,0,0:0:0:0:
288,192,47629,1,0,0:0:0:0:
160,192,47629,1,0,0:0:0:0:
96,192,47729,1,0,0:0:0:0:
224,192,47829,1,0,0:0:0:0:
352,192,47929,1,0,0:0:0:0:
480,192,47929,1,0,0:0:0:0:
160,192,48029,1,0,0:0:0:0:
288,192,48029,1,0,0:0:0:0:
160,192,48229,1,0,0:0:0:0:
288,192,48329,1,0,0:0:0:0:
416,192,48429,1,0,0:0:0:0:
96,192,48529,1,0,0:0:0:0:
224,192,48529,1,0,0:0:0:0:
96,192,48729,1,0,0:0:0:0:
160,192,48829,1,0,0:0:0:0:
352,192,48929,1,0,0:0:0:0:
224,192,49029,1,0,0:0:0:0:
160,192,49129,1,0,0:0:0:0:
96,192,49229,1,0,0:0:0:0:
160,192,49329,1,0,0:0:0:0:
288,192,49429,1,0,0:0:0:0:
160,192,49529,1,0,0:0:0:0:
288,192,49629,1,0,0:0:0:0:
480,192,49729,1,0,0:0:0:0:
352,192,49829,1,0,0:0:0:0:
480,192,49929,1,0,0:0:0:0:
352,192,50029,1,0,0:0:0:0:
160,192,50129,1,0,0:0:0:0:
288,192,50129,1,0,0:0:0:0:
224,192,50329,1,0,0:0:0:0:
160,192,50429,1,0,0:0:0:0:
352,192,50529,1,0,0:0:0:0:
96,192,50529,1,0,0:0:0:0:
480,192,50529,1,0,0:0:0:0:
160,192,50629,1,0,0:0:0:0:
96,192,50729,1,0,0:0:0:0:
224,192,50829,1,0,0:0:0:0:
416,192,50929,1,0,0:0:0:0:
288,192,50929,1,0,0:0:0:0:
96,192,51029,1,0,0:0:0:0:
224,192,51129,1,0,0:0:0:0:
288,192,51229,1,0,0:0:0:0:
416,192,51229,1,0,0:0:0:0:
32,192,51329,1,0,0:0:0:0:
480,192,51329,1,0,0:0:0:0:
96,192,51329,1,0,0:0:0:0:
160,192,51429,1,0,0:0:0:0:
416,192,51529,1,0,0:0:0:0:
224,192,51629,1,0,0:0:0:0:
352,192,51729,1,0,0:0:0:0:
480,192,51729,1,0,0:0:0:0:
288,192,51829,1,0,0:0:0:0:
224,192,51929,1,0,0:0:0:0:
160,192,52029,1,0,0:0:0:0:
96,192,52129,1,0,0:0:0:0:
224,192,52229,1,0,0:0:0:0:
288,192,52329,1,0,0:0:0:0:
416,192,52429,1,0,0:0:0:0:
480,192,52529,1,0,0:0:0:0:
352,192,52629,1,0,0:0:0:0:
288,192,52729,1,0,0:0:0:0:
160,192,52829,1,0,0:0:0:0:
96,192,52929,1,0,0:0:0:0:
224,192,53029,1,0,0:0:0:0:
96,192,53129,1,0,0:0:0:0:
224,192,53229,1,0,0:0:0:0:
352,192,53329,1,0,0:0:0:0:
480,192,53329,1,0,0:0:0:0:
160,192,53429,1,0,0:0:0:0:
288,192,53529,1,0,0:0:0:0:
352,192,53629,1,0,0:0:0:0:
480,192,53729,1,0,0:0:0:0:
352,192,53829,1,0,0:0:0:0:
224,192,53929,1,0,0:0:0:0:
160,192,54029,1,0,0:0:0:0:
416,192,54129,1,0,0:0:0:0:
352,192,54229,1,0,0:0:0:0:
224,192,54329,1,0,0:0:0:0:
480,192,54429,1,0,0:0:0:0:
352,192,54529,1,0,0:0:0:0:
224,192,54629,1,0,0:0:0:0:
352,192,54729,1,0,0:0:0:0:
224,192,54829,1,0,0:0:0:0:
288,192,54929,1,0,0:0:0:0:
160,192,54929,1,0,0:0:0:0:
96,192,55029,1,0,0:0:0:0:
224,192,55129,1,0,0:0:0:0:
288,192,55229,1,0,0:0:0:0:
352,192,55329,1,0,0:0:0:0:
480,192,55429,1,0,0:0:0:0:
352,192,55529,1,0,0:0:0:0:
480,192,55629,1,0,0:0:0:0:
224,192,55729,1,0,0:0:0:0:
96,192,55729,1,0,0:0:0:0:
352,192,55829,1,0,0:0:0:0:
288,192,55929,1,0,0:0:0:0:
416,192,56029,1,0,0:0:0:0:
480,192,56129,1,0,0:0:0:0:
352,192,56229,1,0,0:0:0:0:
288,192,56329,1,0,0:0:0:0:
160,192,56429,1,0,0:0:0:0:
96,192,56529,1,0,0:0:0:0:
352,192,56529,1,0,0:0:0:0:
160,192,56629,1,0,0:0:0:0:
288,192,56729,1,0,0:0:0:0:
416,192,56829,1,0,0:0:0:0:
480,192,56929,1,0,0:0:0:0:
32,192,56929,1,0,0:0:0:0:
160,192,57029,1,0,0:0:0:0:
288,192,57129,1,0,0:0:0:0:
32,192,57229,1,0,0:0:0:0:
352,192,57229,1,0,0:0:0:0:
224,192,57329,1,0,0:0:0:0:
288,192,57429,1,0,0:0:0:0:
32,192,57529,1,0,0:0:0:0:
416,192,57529,1,0,0:0:0:0:
160,192,57629,1,0,0:0:0:0:
288,192,57729,1,0,0:0:0:0:
416,192,57829,1,0,0:0:0:0:
160,192,57929,1,0,0:0:0:0:
288,192,58029,1,0,0:0:0:0:
416,192,58129,1,0,0:0:0:0:
480,192,58129,1,0,0:0:0:0:
288,192,58229,1,0,0:0:0:0:
224,192,58329,1,0,0:0:0:0:
96,192,58429,1,0,0:0:0:0:
32,192,58529,1,0,0:0:0:0:
160,192,58529,1,0,0:0:0:0:
416,192,58629,1,0,0:0:0:0:
224,192,58729,1,0,0:0:0:0:
352,192,58829,1,0,0:0:0:0:
32,192,58929,1,0,0:0:0:0:
96,192,58929,1,0,0:0:0:0:
480,192,59029,1,0,0:0:0:0:
160,192,59129,1,0,0:0:0:0:
288,192,59229,1,0,0:0:0:0:
160,192,59329,1,0,0:0:0:0:
96,192,59429,1,0,0:0:0:0:
416,192,59529,1,0,0:0:0:0:
224,192,59629,1,0,0:0:0:0:
352,192,59729,1,0,0:0:0:0:
96,192,59829,1,0,0:0:0:0:
288,192,59929,1,0,0:0:0:0:
160,192,60029,1,0,0:0:0:0:
96,192,60129,1,0,0:0:0:0:
224,192,60229,1,0,0:0:0:0:
352,192,60329,1,0,0:0:0:0:
96,192,60429,1,0,0:0:0:0:
160,192,60529,1,0,0:0:0:0:
288,192,60629,1,0,0:0:0:0:
160,192,60729,1,0,0:0:0:0:
288,192,60829,1,0,0:0:0:0:
416,192,60929,1,0,0:0:0:0:
32,192,60929,1,0,0:0:0:0:
288,192,61029,1,0,0:0:0:0:
160,192,61129,1,0,0:0:0:0:
288,192,61229,1,0,0:0:0:0:
416,192,61329,1,0,0:0:0:0:
480,192,61329,1,0,0:0:0:0:
160,192,61429,1,0,0:0:0:0:
288,192,61529,1,0,0:0:0:0:
416,192,61629,1,0,0:0:0:0:
32,192,61729,1,0,0:0:0:0:
288,192,61729,1,0,0:0:0:0:
160,192,61729,1,0,0:0:0:0:
32,192,62129,1,0,0:0:0:0:
160,192,62129,1,0,0:0:0:0:
288,192,62129,1,0,0:0:0:0:
96,192,62429,1,0,0:0:0:0:
224,192,62429,1,0,0:0:0:0:
352,192,62429,1,0,0:0:0:0:
32,192,62429,1,0,0:0:0:0:
160,192,62629,1,0,0:0:0:0:
288,192,62629,1,0,0:0:0:0:
160,192,62729,1,0,0:0:0:0:
288,192,62729,1,0,0:0:0:0:
224,192,62929,1,0,0:0:0:0:
352,192,62929,1,0,0:0:0:0:
224,192,63029,1,0,0:0:0:0:
352,192,63029,1,0,0:0:0:0:
288,192,63229,1,0,0:0:0:0:
416,192,63229,1,0,0:0:0:0:
288,192,63329,1,0,0:0:0:0:
416,192,63329,1,0,0:0:0:0:
288,192,63529,1,0,0:0:0:0:
416,192,63529,1,0,0:0:0:0:
352,192,63729,1,0,0:0:0:0:
288,192,63795,1,0,0:0:0:0:
224,192,63862,1,0,0:0:0:0:
160,192,63929,1,0,0:0:0:0:
224,192,63995,1,0,0:0:0:0:
288,192,64062,1,0,0:0:0:0:
352,192,64129,1,0,0:0:0:0:
32,192,64129,1,0,0:0:0:0:
416,192,64429,1,0,0:0:0:0:
224,192,64529,1,0,0:0:0:0:
96,192,64529,1,0,0:0:0:0:
352,192,64729,1,0,0:0:0:0:
352,192,64929,1,0,0:0:0:0:
480,192,65029,1,0,0:0:0:0:
288,192,65129,1,0,0:0:0:0:
416,192,65229,1,0,0:0:0:0:
224,192,65329,1,0,0:0:0:0:
96,192,65329,1,0,0:0:0:0:
352,192,65429,1,0,0:0:0:0:
160,192,65529,1,0,0:0:0:0:
288,192,65629,1,0,0:0:0:0:
224,192,65729,1,0,0:0:0:0:
416,192,66029,1,0,0:0:0:0:
96,192,66029,1,0,0:0:0:0:
288,192,66129,1,0,0:0:0:0:
224,192,66329,1,0,0:0:0:0:
160,192,66529,1,0,0:0:0:0:
288,192,66629,1,0,0:0:0:0:
480,192,66729,1,0,0:0:0:0:
96,192,66929,1,0,0:0:0:0:
288,192,66929,1,0,0:0:0:0:
416,192,66929,1,0,0:0:0:0:
224,192,67129,1,0,0:0:0:0:
352,192,67329,1,0,0:0:0:0:
160,192,67529,1,0,0:0:0:0:
288,192,67629,1,0,0:0:0:0:
96,192,67729,1,0,0:0:0:0:
480,192,67829,1,0,0:0:0:0:
352,192,67929,1,0,0:0:0:0:
160,192,68029,1,0,0:0:0:0:
416,192,68129,1,0,0:0:0:0:
352,192,68329,1,0,0:0:0:0:
96,192,68529,1,0,0:0:0:0:
288,192,68529,1,0,0:0:0:0:
160,192,68729,1,0,0:0:0:0:
96,192,68929,1,0,0:0:0:0:
480,192,68929,1,0,0:0:0:0:
32,192,68929,1,0,0:0:0:0:
352,192,69029,1,0,0:0:0:0:
224,192,69129,1,0,0:0:0:0:
96,192,69229,1,0,0:0:0:0:
416,192,69229,1,0,0:0:0:0:
32,192,69229,1,0,0:0:0:0:
288,192,69329,1,0,0:0:0:0:
160,192,69429,1,0,0:0:0:0:
96,192,69529,1,0,0:0:0:0:
480,192,69529,1,0,0:0:0:0:
32,192,69529,1,0,0:0:0:0:
352,192,69629,1,0,0:0:0:0:
96,192,69729,1,0,0:0:0:0:
224,192,69729,1,0,0:0:0:0:
32,192,69729,1,0,0:0:0:0:
416,192,69829,1,0,0:0:0:0:
96,192,69929,1,0,0:0:0:0:
288,192,69929,1,0,0:0:0:0:
32,192,69929,1,0,0:0:0:0:
160,192,70029,1,0,0:0:0:0:
96,192,70129,1,0,0:0:0:0:
352,192,70129,1,0,0:0:0:0:
32,192,70129,1,0,0:0:0:0:
160,192,70229,1,0,0:0:0:0:
416,192,70329,1,0,0:0:0:0:
224,192,70429,1,0,0:0:0:0:
352,192,70529,1,0,0:0:0:0:
32,192,70529,1,0,0:0:0:0:
416,192,70829,1,0,0:0:0:0:
96,192,70929,1,0,0:0:0:0:
224,192,70929,1,0,0:0:0:0:
352,192,71129,1,0,0:0:0:0:
352,192,71329,1,0,0:0:0:0:
480,192,71429,1,0,0:0:0:0:
288,192,71529,1,0,0:0:0:0:
416,192,71629,1,0,0:0:0:0:
224,192,71729,1,0,0:0:0:0:
96,192,71729,1,0,0:0:0:0:
352,192,71829,1,0,0:0:0:0:
160,192,71929,1,0,0:0:0:0:
288,192,72029,1,0,0:0:0:0:
224,192,72129,1,0,0:0:0:0:
96,192,72129,1,0,0:0:0:0:
32,192,72129,1,0,0:0:0:0:
96,192,72429,1,0,0:0:0:0:
352,192,72429,1,0,0:0:0:0:
32,192,72429,1,0,0:0:0:0:
96,192,72629,1,0,0:0:0:0:
352,192,72629,1,0,0:0:0:0:
32,192,72629,1,0,0:0:0:0:
96,192,72929,1,0,0:0:0:0:
352,192,72929,1,0,0:0:0:0:
32,192,72929,1,0,0:0:0:0:
288,192,73129,1,0,0:0:0:0:
224,192,73229,1,0,0:0:0:0:
96,192,73329,1,0,0:0:0:0:
416,192,73329,1,0,0:0:0:0:
352,192,73429,1,0,0:0:0:0:
32,192,73529,1,0,0:0:0:0:
224,192,73529,1,0,0:0:0:0:
160,192,73629,1,0,0:0:0:0:
352,192,73729,1,0,0:0:0:0:
32,192,73729,1,0,0:0:0:0:
160,192,73929,1,0,0:0:0:0:
288,192,74029,1,0,0:0:0:0:
96,192,74129,1,0,0:0:0:0:
480,192,74229,1,0,0:0:0:0:
352,192,74329,1,0,0:0:0:0:
160,192,74429,1,0,0:0:0:0:
416,192,74529,1,0,0:0:0:0:
352,192,74729,1,0,0:0:0:0:
288,192,74929,1,0,0:0:0:0:
96,192,74929,1,0,0:0:0:0:
160,192,75129,1,0,0:0:0:0:
96,192,75329,1,0,0:0:0:0:
416,192,75329,1,0,0:0:0:0:
32,192,75329,1,0,0:0:0:0:
224,192,75429,1,0,0:0:0:0:
352,192,75529,1,0,0:0:0:0:
96,192,75629,1,0,0:0:0:0:
480,192,75629,1,0,0:0:0:0:
32,192,75629,1,0,0:0:0:0:
288,192,75729,1,0,0:0:0:0:
416,192,75829,1,0,0:0:0:0:
96,192,75929,1,0,0:0:0:0:
224,192,75929,1,0,0:0:0:0:
32,192,75929,1,0,0:0:0:0:
352,192,76029,1,0,0:0:0:0:
96,192,76129,1,0,0:0:0:0:
480,192,76129,1,0,0:0:0:0:
288,192,76229,1,0,0:0:0:0:
96,192,76329,1,0,0:0:0:0:
416,192,76329,1,0,0:0:0:0:
32,192,76329,1,0,0:0:0:0:
224,192,76429,1,0,0:0:0:0:
96,192,76529,1,0,0:0:0:0:
352,192,76529,1,0,0:0:0:0:
32,192,76529,1,0,0:0:0:0:
32,192,76729,1,0,0:0:0:0:
224,192,76929,1,0,0:0:0:0:
32,192,76929,1,0,0:0:0:0:
224,192,77129,1,0,0:0:0:0:
224,192,77429,1,0,0:0:0:0:
224,192,77629,1,0,0:0:0:0:
224,192,77729,1,0,0:0:0:0:
224,192,77929,1,0,0:0:0:0:
224,192,78229,1,0,0:0:0:0:
224,192,78429,1,0,0:0:0:0:
352,192,78529,1,0,0:0:0:0:
480,192,78529,1,0,0:0:0:0:
96,192,78729,1,0,0:0:0:0:
416,192,78829,1,0,0:0:0:0:
288,192,78829,1,0,0:0:0:0:
352,192,79029,1,0,0:0:0:0:
224,192,79129,1,0,0:0:0:0:
96,192,79229,1,0,0:0:0:0:
288,192,79329,1,0,0:0:0:0:
160,192,79429,1,0,0:0:0:0:
288,192,79529,1,0,0:0:0:0:
160,192,79629,1,0,0:0:0:0:
352,192,79729,1,0,0:0:0:0:
480,192,79729,1,0,0:0:0:0:
32,192,79729,1,0,0:0:0:0:
160,192,80129,1,0,0:0:0:0:
288,192,80229,1,0,0:0:0:0:
160,192,80429,1,0,0:0:0:0:
288,192,80529,1,0,0:0:0:0:
160,192,80729,1,0,0:0:0:0:
288,192,80829,1,0,0:0:0:0:
352,192,80929,1,0,0:0:0:0:
480,192,80929,1,0,0:0:0:0:
288,192,81029,1,0,0:0:0:0:
224,192,81129,1,0,0:0:0:0:
96,192,81229,1,0,0:0:0:0:
160,192,81329,1,0,0:0:0:0:
224,192,81429,1,0,0:0:0:0:
288,192,81529,1,0,0:0:0:0:
416,192,81529,1,0,0:0:0:0:
224,192,81629,1,0,0:0:0:0:
352,192,81629,1,0,0:0:0:0:
160,192,81729,1,0,0:0:0:0:
32,192,81729,128,0,82829:0:0:0:0:
288,192,81829,1,0,0:0:0:0:
96,192,81929,1,0,0:0:0:0:
224,192,82029,1,0,0:0:0:0:
352,192,82129,1,0,0:0:0:0:
160,192,82229,1,0,0:0:0:0:
288,192,82329,1,0,0:0:0:0:
416,192,82429,1,0,0:0:0:0:
96,192,82529,1,0,0:0:0:0:
224,192,82629,1,0,0:0:0:0:
352,192,82729,1,0,0:0:0:0:
160,192,82829,1,0,0:0:0:0:
32,192,82929,1,0,0:0:0:0:
288,192,82929,1,0,0:0:0:0:
416,192,82929,1,0,0:0:0:0:
32,192,83329,1,0,0:0:0:0:
352,192,83329,1,0,0:0:0:0:
224,192,83329,1,0,0:0:0:0:
416,192,83429,1,0,0:0:0:0:
96,192,83629,1,0,0:0:0:0:
288,192,83729,1,0,0:0:0:0:
352,192,83929,1,0,0:0:0:0:
160,192,84029,1,0,0:0:0:0:
288,192,84129,1,0,0:0:0:0:
160,192,84229,1,0,0:0:0:0:
224,192,84329,1,0,0:0:0:0:
352,192,84529,1,0,0:0:0:0:
96,192,84529,1,0,0:0:0:0:
224,192,84729,1,0,0:0:0:0:
352,192,84829,1,0,0:0:0:0:
96,192,84929,1,0,0:0:0:0:
224,192,85029,1,0,0:0:0:0:
288,192,85129,1,0,0:0:0:0:
416,192,85229,1,0,0:0:0:0:
288,192,85329,1,0,0:0:0:0:
96,192,85329,1,0,0:0:0:0:
480,192,85529,1,0,0:0:0:0:
288,192,85629,1,0,0:0:0:0:
96,192,85729,1,0,0:0:0:0:
224,192,85829,1,0,0:0:0:0:
352,192,85829,1,0,0:0:0:0:
416,192,85929,1,0,0:0:0:0:
288,192,86029,1,0,0:0:0:0:
96,192,86129,1,0,0:0:0:0:
224,192,86129,1,0,0:0:0:0:
416,192,86329,1,0,0:0:0:0:
224,192,86429,1,0,0:0:0:0:
288,192,86529,1,0,0:0:0:0:
96,192,86529,1,0,0:0:0:0:
416,192,86629,1,0,0:0:0:0:
224,192,86829,1,0,0:0:0:0:
160,192,86929,1,0,0:0:0:0:
352,192,86929,1,0,0:0:0:0:
416,192,87129,1,0,0:0:0:0:
288,192,87229,1,0,0:0:0:0:
416,192,87329,1,0,0:0:0:0:
352,192,87429,1,0,0:0:0:0:
224,192,87429,1,0,0:0:0:0:
416,192,87529,1,0,0:0:0:0:
352,192,87729,1,0,0:0:0:0:
96,192,87729,1,0,0:0:0:0:
416,192,87929,1,0,0:0:0:0:
288,192,88029,1,0,0:0:0:0:
160,192,88129,1,0,0:0:0:0:
288,192,88229,1,0,0:0:0:0:
352,192,88329,1,0,0:0:0:0:
96,192,88429,1,0,0:0:0:0:
288,192,88529,1,0,0:0:0:0:
160,192,88529,1,0,0:0:0:0:
352,192,88629,1,0,0:0:0:0:
480,192,88729,1,0,0:0:0:0:
288,192,88829,1,0,0:0:0:0:
96,192,88929,1,0,0:0:0:0:
352,192,89029,1,0,0:0:0:0:
224,192,89029,1,0,0:0:0:0:
416,192,89129,1,0,0:0:0:0:
288,192,89229,1,0,0:0:0:0:
96,192,89329,1,0,0:0:0:0:
224,192,89329,1,0,0:0:0:0:
416,192,89529,1,0,0:0:0:0:
224,192,89629,1,0,0:0:0:0:
160,192,89729,1,0,0:0:0:0:
352,192,89729,1,0,0:0:0:0:
32,192,89729,1,0,0:0:0:0:
416,192,89829,1,0,0:0:0:0:
352,192,90029,1,0,0:0:0:0:
224,192,90129,1,0,0:0:0:0:
96,192,90329,1,0,0:0:0:0:
288,192,90429,1,0,0:0:0:0:
160,192,90529,1,0,0:0:0:0:
352,192,90629,1,0,0:0:0:0:
224,192,90729,1,0,0:0:0:0:
160,192,90929,1,0,0:0:0:0:
416,192,90929,1,0,0:0:0:0:
352,192,91129,1,0,0:0:0:0:
224,192,91229,1,0,0:0:0:0:
160,192,91329,1,0,0:0:0:0:
288,192,91429,1,0,0:0:0:0:
352,192,91529,1,0,0:0:0:0:
480,192,91629,1,0,0:0:0:0:
288,192,91729,1,0,0:0:0:0:
160,192,91729,1,0,0:0:0:0:
352,192,91929,1,0,0:0:0:0:
224,192,92029,1,0,0:0:0:0:
160,192,92129,1,0,0:0:0:0:
288,192,92229,1,0,0:0:0:0:
416,192,92229,1,0,0:0:0:0:
224,192,92329,1,0,0:0:0:0:
96,192,92429,1,0,0:0:0:0:
288,192,92529,1,0,0:0:0:0:
160,192,92529,1,0,0:0:0:0:
416,192,92729,1,0,0:0:0:0:
288,192,92829,1,0,0:0:0:0:
96,192,92929,1,0,0:0:0:0:
224,192,92929,1,0,0:0:0:0:
416,192,93029,1,0,0:0:0:0:
352,192,93129,1,0,0:0:0:0:
224,192,93229,1,0,0:0:0:0:
96,192,93329,1,0,0:0:0:0:
224,192,93429,1,0,0:0:0:0:
416,192,93529,1,0,0:0:0:0:
160,192,93629,1,0,0:0:0:0:
352,192,93729,1,0,0:0:0:0:
96,192,93829,1,0,0:0:0:0:
224,192,93829,1,0,0:0:0:0:
288,192,93929,1,0,0:0:0:0:
160,192,94029,1,0,0:0:0:0:
352,192,94129,1,0,0:0:0:0:
96,192,94129,1,0,0:0:0:0:
224,192,94329,1,0,0:0:0:0:
352,192,94429,1,0,0:0:0:0:
96,192,94529,1,0,0:0:0:0:
160,192,94629,1,0,0:0:0:0:
224,192,94729,1,0,0:0:0:0:
352,192,94829,1,0,0:0:0:0:
480,192,94829,1,0,0:0:0:0:
224,192,95029,1,0,0:0:0:0:
96,192,95029,1,0,0:0:0:0:
416,192,95129,1,0,0:0:0:0:
288,192,95229,1,0,0:0:0:0:
224,192,95429,1,0,0:0:0:0:
96,192,95429,1,0,0:0:0:0:
416,192,95529,1,0,0:0:0:0:
288,192,95629,1,0,0:0:0:0:
96,192,95729,1,0,0:0:0:0:
224,192,95729,1,0,0:0:0:0:
288,192,95829,1,0,0:0:0:0:
352,192,95929,1,0,0:0:0:0:
480,192,95929,1,0,0:0:0:0:
96,192,96029,1,0,0:0:0:0:
224,192,96029,1,0,0:0:0:0:
160,192,96129,1,0,0:0:0:0:
352,192,96129,1,0,0:0:0:0:
32,192,96129,1,0,0:0:0:0:
416,192,96229,1,0,0:0:0:0:
96,192,96429,1,0,0:0:0:0:
288,192,96529,1,0,0:0:0:0:
352,192,96729,1,0,0:0:0:0:
160,192,96829,1,0,0:0:0:0:
288,192,96929,1,0,0:0:0:0:
160,192,97029,1,0,0:0:0:0:
224,192,97129,1,0,0:0:0:0:
96,192,97329,1,0,0:0:0:0:
352,192,97329,1,0,0:0:0:0:
224,192,97529,1,0,0:0:0:0:
352,192,97629,1,0,0:0:0:0:
96,192,97729,1,0,0:0:0:0:
224,192,97829,1,0,0:0:0:0:
288,192,97929,1,0,0:0:0:0:
416,192,98029,1,0,0:0:0:0:
96,192,98129,1,0,0:0:0:0:
288,192,98129,1,0,0:0:0:0:
480,192,98329,1,0,0:0:0:0:
288,192,98429,1,0,0:0:0:0:
96,192,98529,1,0,0:0:0:0:
224,192,98629,1,0,0:0:0:0:
352,192,98629,1,0,0:0:0:0:
416,192,98729,1,0,0:0:0:0:
288,192,98829,1,0,0:0:0:0:
224,192,98929,1,0,0:0:0:0:
96,192,98929,1,0,0:0:0:0:
416,192,99129,1,0,0:0:0:0:
224,192,99229,1,0,0:0:0:0:
288,192,99329,1,0,0:0:0:0:
96,192,99329,1,0,0:0:0:0:
416,192,99429,1,0,0:0:0:0:
224,192,99629,1,0,0:0:0:0:
352,192,99729,1,0,0:0:0:0:
160,192,99729,1,0,0:0:0:0:
416,192,99929,1,0,0:0:0:0:
288,192,100029,1,0,0:0:0:0:
416,192,100129,1,0,0:0:0:0:
224,192,100229,1,0,0:0:0:0:
352,192,100229,1,0,0:0:0:0:
416,192,100329,1,0,0:0:0:0:
352,192,100529,1,0,0:0:0:0:
96,192,100529,1,0,0:0:0:0:
416,192,100729,1,0,0:0:0:0:
288,192,100829,1,0,0:0:0:0:
160,192,100929,1,0,0:0:0:0:
32,192,100929,1,0,0:0:0:0:
288,192,101029,1,0,0:0:0:0:
352,192,101129,1,0,0:0:0:0:
96,192,101229,1,0,0:0:0:0:
160,192,101329,1,0,0:0:0:0:
288,192,101329,1,0,0:0:0:0:
32,192,101329,1,0,0:0:0:0:
352,192,101429,1,0,0:0:0:0:
480,192,101529,1,0,0:0:0:0:
288,192,101629,1,0,0:0:0:0:
96,192,101729,1,0,0:0:0:0:
32,192,101729,1,0,0:0:0:0:
352,192,101829,1,0,0:0:0:0:
224,192,101829,1,0,0:0:0:0:
416,192,101929,1,0,0:0:0:0:
288,192,102029,1,0,0:0:0:0:
96,192,102129,1,0,0:0:0:0:
224,192,102129,1,0,0:0:0:0:
32,192,102129,1,0,0:0:0:0:
416,192,102329,1,0,0:0:0:0:
224,192,102429,1,0,0:0:0:0:
160,192,102529,1,0,0:0:0:0:
352,192,102529,1,0,0:0:0:0:
32,192,102529,1,0,0:0:0:0:
416,192,102629,1,0,0:0:0:0:
160,192,102829,1,0,0:0:0:0:
224,192,102929,1,0,0:0:0:0:
416,192,102929,1,0,0:0:0:0:
96,192,103129,1,0,0:0:0:0:
288,192,103229,1,0,0:0:0:0:
160,192,103329,1,0,0:0:0:0:
352,192,103429,1,0,0:0:0:0:
224,192,103529,1,0,0:0:0:0:
160,192,103729,1,0,0:0:0:0:
416,192,103729,1,0,0:0:0:0:
352,192,103929,1,0,0:0:0:0:
224,192,104029,1,0,0:0:0:0:
160,192,104129,1,0,0:0:0:0:
288,192,104229,1,0,0:0:0:0:
352,192,104329,1,0,0:0:0:0:
480,192,104429,1,0,0:0:0:0:
288,192,104529,1,0,0:0:0:0:
160,192,104529,1,0,0:0:0:0:
352,192,104729,1,0,0:0:0:0:
224,192,104829,1,0,0:0:0:0:
160,192,104929,1,0,0:0:0:0:
288,192,105029,1,0,0:0:0:0:
416,192,105029,1,0,0:0:0:0:
224,192,105129,1,0,0:0:0:0:
96,192,105229,1,0,0:0:0:0:
160,192,105329,1,0,0:0:0:0:
288,192,105329,1,0,0:0:0:0:
416,192,105529,1,0,0:0:0:0:
288,192,105629,1,0,0:0:0:0:
32,192,105729,1,0,0:0:0:0:
224,192,105729,1,0,0:0:0:0:
160,192,105829,1,0,0:0:0:0:
96,192,105929,1,0,0:0:0:0:
160,192,106029,1,0,0:0:0:0:
224,192,106129,1,0,0:0:0:0:
288,192,106229,1,0,0:0:0:0:
224,192,106329,1,0,0:0:0:0:
288,192,106429,1,0,0:0:0:0:
352,192,106529,1,0,0:0:0:0:
416,192,106629,1,0,0:0:0:0:
352,192,106729,1,0,0:0:0:0:
416,192,106829,1,0,0:0:0:0:
480,192,106929,1,0,0:0:0:0:
416,192,107029,1,0,0:0:0:0:
352,192,107129,1,0,0:0:0:0:
288,192,107229,1,0,0:0:0:0:
224,192,107329,1,0,0:0:0:0:
96,192,107329,1,0,0:0:0:0:
288,192,107462,1,0,0:0:0:0:
160,192,107462,1,0,0:0:0:0:
224,192,107595,1,0,0:0:0:0:
352,192,107595,1,0,0:0:0:0:
96,192,107729,1,0,0:0:0:0:
288,192,107729,1,0,0:0:0:0:
160,192,107862,1,0,0:0:0:0:
352,192,107862,1,0,0:0:0:0:
224,192,107995,1,0,0:0:0:0:
416,192,107995,1,0,0:0:0:0:
288,192,108129,1,0,0:0:0:0:
480,192,108129,1,0,0:0:0:0:
416,192,108262,1,0,0:0:0:0:
224,192,108262,1,0,0:0:0:0:
352,192,108395,1,0,0:0:0:0:
160,192,108395,1,0,0:0:0:0:
96,192,108529,1,0,0:0:0:0:
224,192,108529,1,0,0:0:0:0:
288,192,108662,1,0,0:0:0:0:
160,192,108662,1,0,0:0:0:0:
224,192,108795,1,0,0:0:0:0:
352,192,108795,1,0,0:0:0:0:
32,192,108929,1,0,0:0:0:0:
416,192,108929,1,0,0:0:0:0:
416,192,109129,1,0,0:0:0:0:
416,192,109429,1,0,0:0:0:0:
416,192,109629,1,0,0:0:0:0:
416,192,109729,1,0,0:0:0:0:
416,192,109929,1,0,0:0:0:0:
416,192,110229,1,0,0:0:0:0:
416,192,110429,1,0,0:0:0:0:
416,192,110529,1,0,0:0:0:0:
224,192,110529,1,0,0:0:0:0:
160,192,110629,1,0,0:0:0:0:
96,192,110729,1,0,0:0:0:0:
224,192,110829,1,0,0:0:0:0:
416,192,110829,1,0,0:0:0:0:
160,192,110929,1,0,0:0:0:0:
96,192,111029,1,0,0:0:0:0:
416,192,111129,1,0,0:0:0:0:
160,192,111129,1,0,0:0:0:0:
224,192,111229,1,0,0:0:0:0:
416,192,111329,1,0,0:0:0:0:
96,192,111329,1,0,0:0:0:0:
160,192,111429,1,0,0:0:0:0:
224,192,111529,1,0,0:0:0:0:
416,192,111629,1,0,0:0:0:0:
160,192,111629,1,0,0:0:0:0:
96,192,111729,1,0,0:0:0:0:
224,192,111829,1,0,0:0:0:0:
160,192,111929,1,0,0:0:0:0:
96,192,112029,1,0,0:0:0:0:
160,192,112129,1,0,0:0:0:0:
32,192,112129,1,0,0:0:0:0:
160,192,112329,1,0,0:0:0:0:
32,192,112329,1,0,0:0:0:0:
160,192,112629,1,0,0:0:0:0:
160,192,112829,1,0,0:0:0:0:
160,192,112929,1,0,0:0:0:0:
480,192,112929,1,0,0:0:0:0:
416,192,113029,1,0,0:0:0:0:
352,192,113129,1,0,0:0:0:0:
160,192,113129,1,0,0:0:0:0:
480,192,113229,1,0,0:0:0:0:
416,192,113329,1,0,0:0:0:0:
352,192,113429,1,0,0:0:0:0:
160,192,113429,1,0,0:0:0:0:
416,192,113529,1,0,0:0:0:0:
480,192,113629,1,0,0:0:0:0:
160,192,113629,1,0,0:0:0:0:
352,192,113729,1,0,0:0:0:0:
160,192,113729,1,0,0:0:0:0:
416,192,113829,1,0,0:0:0:0:
480,192,113929,1,0,0:0:0:0:
160,192,113929,1,0,0:0:0:0:
352,192,114029,1,0,0:0:0:0:
416,192,114129,1,0,0:0:0:0:
160,192,114229,1,0,0:0:0:0:
480,192,114229,1,0,0:0:0:0:
416,192,114329,1,0,0:0:0:0:
160,192,114429,1,0,0:0:0:0:
352,192,114429,1,0,0:0:0:0:
32,192,114529,1,0,0:0:0:0:
160,192,114529,1,0,0:0:0:0:
288,192,114529,1,0,0:0:0:0:
416,192,114529,1,0,0:0:0:0:
32,192,114729,1,0,0:0:0:0:
160,192,114729,1,0,0:0:0:0:
288,192,114729,1,0,0:0:0:0:
416,192,114729,1,0,0:0:0:0:
32,192,114929,1,0,0:0:0:0:
160,192,114929,1,0,0:0:0:0:
288,192,114929,1,0,0:0:0:0:
416,192,114929,1,0,0:0:0:0:
