osu file format v14

[General]
AudioFilename: Sota Fujimori - Entrapment -Extended Mix-.mp3
AudioLeadIn: 0
PreviewTime: 77757
Countdown: 0
SampleSet: Soft
StackLeniency: 0.2
Mode: 0
LetterboxInBreaks: 0
WidescreenStoryboard: 1

[Editor]
Bookmarks: 33024,65024,79424,127424,154624,181824,242624,261824
DistanceSpacing: 0.5
BeatDivisor: 8
GridSize: 32
TimelineZoom: 4.979997

[Metadata]
Title:Entrapment -Extended Mix-
TitleUnicode:Entrapment -Extended Mix-
Artist:Sota Fujimori
ArtistUnicode:Sota Fujimori
Creator:den0saur
Version:taku x den0saur x lcfc Bound
Source:jubeat Qubell
Tags:taku LowComboFC LCFC 今何度? What Temperature Is It jubeat plus
BeatmapID:1702204
BeatmapSetID:811458

[Difficulty]
HPDrainRate:5.5
CircleSize:3.8
OverallDifficulty:9
ApproachRate:9.6
SliderMultiplier:3
SliderTickRate:1

[Events]
//Background and Video events
0,0,"266188.jpg",0,0
//Break Periods
//Storyboard Layer 0 (Background)
//Storyboard Layer 1 (Fail)
//Storyboard Layer 2 (Pass)
//Storyboard Layer 3 (Foreground)
//Storyboard Sound Samples

[TimingPoints]
1024,400,4,2,1,65,1,0
1024,-50,4,2,1,65,0,0
1424,-100,4,2,1,65,0,0
2224,-62.5,4,2,1,65,0,0
2824,-100,4,2,1,65,0,0
3024,-66.6666666666667,4,2,1,65,0,0
4224,-100,4,2,1,65,0,0
7024,-111.111111111111,4,2,1,65,0,0
7424,-90.9090909090909,4,2,1,65,0,0
8224,-55.5555555555556,4,2,1,65,0,1
8424,-58.8235294117647,4,2,1,65,0,1
8624,-111.111111111111,4,2,1,65,0,0
9824,-50,4,2,1,65,0,0
10124,-100,4,2,1,65,0,0
10624,-50,4,2,1,65,0,0
11424,-83.3333333333333,4,2,1,65,0,0
11824,-55.5555555555556,4,2,1,65,0,0
12224,-43.4782608695652,4,2,1,65,0,0
12624,-58.8235294117647,4,2,1,65,0,0
13024,-41.6666666666667,4,2,1,65,0,0
13424,-111.111111111111,4,2,1,65,0,0
13824,-111.111111111111,4,2,80,65,0,0
14224,-58.8235294117647,4,2,80,65,0,0
14624,-66.6666666666667,4,2,1,65,0,0
14824,-74.0740740740741,4,2,1,65,0,0
15024,-111.111111111111,4,2,1,65,0,0
15224,-95.2380952380952,4,2,1,65,0,0
15424,-83.3333333333333,4,2,1,65,0,0
15624,-133.333333333333,4,2,1,65,0,0
15824,-222.222222222222,4,2,1,65,0,0
16024,-166.666666666667,4,2,1,65,0,0
16224,-30.3030303030303,4,2,1,65,0,0
16274,-30.3030303030303,4,2,1,5,0,0
16424,-37.037037037037,4,2,80,65,0,0
17524,-37.037037037037,4,2,1,65,0,0
17624,-111.111111111111,4,2,1,65,0,0
17824,-74.0740740740741,4,2,1,65,0,0
18024,-83.3333333333333,4,2,1,65,0,0
18224,-95.2380952380952,4,2,1,65,0,0
18424,-111.111111111111,4,2,1,65,0,0
18624,-166.666666666667,4,2,1,55,0,0
18824,-133.333333333333,4,2,1,55,0,0
19024,-111.111111111111,4,2,1,55,0,0
19224,-200,4,2,1,55,0,0
19424,-133.333333333333,4,2,1,70,0,0
19824,-57.1428571428571,4,2,1,70,0,0
20224,-100,4,2,1,60,0,0
21824,-200,4,2,1,60,0,0
22024,-80,4,2,1,60,0,0
22624,-80,4,2,81,60,0,0
23024,-80,4,2,1,60,0,0
23824,-200,4,2,1,60,0,0
25024,-80,4,2,1,60,0,0
25824,-62.5,4,2,1,60,0,0
26224,-133.333333333333,4,2,1,60,0,0
26424,-90.9090909090909,4,2,1,60,0,0
27024,-28.5714285714286,4,2,1,70,0,1
27824,-25,4,2,1,60,0,0
28424,-200,4,2,1,60,0,0
29024,-100,4,2,1,60,0,0
30224,-50,4,2,1,60,0,0
30424,-200,4,2,1,60,0,0
30624,-50,4,2,1,60,0,0
30824,-400,4,2,1,60,0,0
31424,-55.5555555555556,4,2,1,70,0,0
31824,-54.054054054054,4,2,1,75,0,0
32624,-51.2820512820513,4,2,1,75,0,0
32824,-66.6666666666667,4,2,1,75,0,0
33024,-76.9230769230769,4,2,1,70,0,0
39424,-58.8235294117647,4,2,1,80,0,1
39824,-41.6666666666667,4,2,1,80,0,1
40024,-83.3333333333333,4,2,1,80,0,1
41424,-41.6666666666667,4,2,1,80,0,1
41624,-33.3333333333333,4,2,1,80,0,1
41824,-66.6666666666667,4,2,1,80,0,1
42224,-50,4,2,1,80,0,1
42424,-83.3333333333333,4,2,1,80,0,1
42624,-58.8235294117647,4,2,1,80,0,1
43024,-41.6666666666667,4,2,1,80,0,1
43224,-33.3333333333333,4,2,1,80,0,1
44024,-83.3333333333333,4,2,1,80,0,1
44224,-58.8235294117647,4,2,1,80,0,1
44624,-66.6666666666667,4,2,1,80,0,1
44824,-83.3333333333333,4,2,1,80,0,1
45024,-58.8235294117647,4,2,1,80,0,1
45424,-41.6666666666667,4,2,1,80,0,1
45624,-83.3333333333333,4,2,1,80,0,0
45824,-58.8235294117647,4,2,1,80,0,1
46224,-41.6666666666667,4,2,1,80,0,1
46424,-83.3333333333333,4,2,1,80,0,1
47624,-50,4,2,1,80,0,1
47824,-83.3333333333333,4,2,1,80,0,1
48024,-66.6666666666667,4,2,1,80,0,1
48624,-50,4,2,1,80,0,1
48824,-83.3333333333333,4,2,1,80,0,1
49024,-58.8235294117647,4,2,1,80,0,1
49424,-33.3333333333333,4,2,1,80,0,1
49624,-41.6666666666667,4,2,1,80,0,1
50424,-83.3333333333333,4,2,1,80,0,1
51424,-58.8235294117647,4,2,1,80,0,0
51824,-41.6666666666667,4,2,1,80,0,1
52124,-41.6666666666667,4,2,1,80,0,0
52224,-58.8235294117647,4,2,1,80,0,1
52624,-41.6666666666667,4,2,1,80,0,1
52824,-83.3333333333333,4,2,1,80,0,1
53824,-33.3333333333333,4,2,1,80,0,1
55024,-66.6666666666667,4,2,1,80,0,1
55424,-58.8235294117647,4,2,1,80,0,1
55824,-41.6666666666667,4,2,1,80,0,1
56024,-33.3333333333333,4,2,1,80,0,1
56824,-83.3333333333333,4,2,1,80,0,1
57024,-83.3333333333333,4,2,81,70,0,0
58224,-83.3333333333333,4,2,1,70,0,0
58624,-58.8235294117647,4,2,1,80,0,1
59024,-41.6666666666667,4,2,1,80,0,1
59224,-83.3333333333333,4,2,1,80,0,1
60424,-50,4,2,1,80,0,1
60624,-83.3333333333333,4,2,1,80,0,1
60824,-66.6666666666667,4,2,1,80,0,1
61424,-50,4,2,1,80,0,1
61624,-83.3333333333333,4,2,1,80,0,1
61824,-58.8235294117647,4,2,1,80,0,1
62224,-33.3333333333333,4,2,1,80,0,1
62424,-41.6666666666667,4,2,1,80,0,1
63224,-83.3333333333333,4,2,1,80,0,1
65024,-100,4,2,1,60,0,0
65424,-133.333333333333,4,2,1,60,0,0
66624,-100,4,2,1,60,0,0
67024,-100,4,2,81,60,0,0
67424,-100,4,2,1,60,0,0
68024,-57.1428571428571,4,2,1,60,0,0
68224,-100,4,2,1,60,0,0
68624,-83.3333333333333,4,2,1,60,0,0
69824,-100,4,2,1,60,0,0
70224,-200,4,2,1,60,0,0
71024,-71.4285714285714,4,2,1,60,0,0
71424,-83.3333333333333,4,2,1,60,0,0
71824,-111.111111111111,4,2,1,60,0,0
72624,-99.9999999999999,4,2,1,60,0,0
73424,-99.9999999999999,4,2,81,60,0,0
73824,-99.9999999999999,4,2,1,60,0,0
74424,-200,4,2,1,60,0,0
74624,-181.818181818181,4,2,1,60,0,0
74824,-50,4,2,1,60,0,0
75024,-181.818181818181,4,2,1,60,0,0
75224,-50,4,2,1,60,0,0
76224,-100,4,2,1,60,0,0
76624,-200,4,2,1,60,0,0
77424,-71.4285714285714,4,2,1,60,0,0
77824,-25,4,2,1,60,0,0
78224,-50,4,2,1,70,0,0
78624,-100,4,2,1,80,0,0
79024,-100,4,2,1,90,0,0
79424,-41.6666666666667,4,2,1,75,0,1
79624,-83.3333333333333,4,2,1,75,0,1
80224,-66.6666666666667,4,2,1,75,0,1
80424,-66.6666666666667,4,2,1,35,0,1
80624,-83.3333333333333,4,2,1,35,0,1
80724,-66.6666666666667,4,2,1,75,0,1
80924,-41.6666666666667,4,2,1,75,0,1
81024,-100,4,2,1,75,0,1
81224,-200,4,2,1,75,0,1
81624,-200,4,2,1,75,0,1
82024,-41.6666666666667,4,2,1,75,0,1
82224,-25,4,2,1,75,0,1
82424,-133.333333333333,4,2,1,75,0,1
82624,-50,4,2,1,75,0,1
82824,-66.6666666666667,4,2,1,75,0,1
83224,-55.5555555555556,4,2,1,75,0,1
83424,-133.333333333333,4,2,1,75,0,1
84224,-66.6666666666667,4,2,1,75,0,1
84424,-100,4,2,1,75,0,1
84624,-66.6666666666667,4,2,1,75,0,1
84824,-100,4,2,1,75,0,1
85024,-100,4,2,1,75,0,0
85624,-41.6666666666667,4,2,1,75,0,0
85824,-41.6666666666667,4,2,1,75,0,1
86024,-83.3333333333333,4,2,1,75,0,1
86624,-66.6666666666667,4,2,1,75,0,1
87024,-83.3333333333333,4,2,1,75,0,1
87424,-133.333333333333,4,2,1,75,0,1
87624,-41.6666666666667,4,2,1,75,0,1
87824,-133.333333333333,4,2,1,75,0,1
88024,-83.3333333333333,4,2,1,75,0,1
88624,-41.6666666666667,4,2,1,75,0,1
88824,-125,4,2,1,75,0,1
89024,-41.6666666666667,4,2,1,75,0,1
89224,-333.333333333333,4,2,1,75,0,1
89424,-66.6666666666667,4,2,1,75,0,1
89824,-83.3333333333333,4,2,1,75,0,1
90224,-166.666666666667,4,2,1,75,0,1
90624,-62.5,4,2,1,75,0,1
90824,-100,4,2,1,75,0,1
91024,-76.9230769230769,4,2,1,75,0,1
91224,-100,4,2,1,75,0,1
91424,-100,4,2,1,75,0,0
91824,-41.6666666666667,4,2,1,75,0,0
92224,-41.6666666666667,4,2,1,75,0,1
92424,-83.3333333333333,4,2,1,75,0,1
93024,-66.6666666666667,4,2,1,75,0,1
93724,-41.6666666666667,4,2,1,75,0,1
94024,-100,4,2,1,75,0,1
95024,-41.6666666666667,4,2,1,75,0,1
95424,-83.3333333333333,4,2,1,75,0,1
95624,-200,4,2,1,75,0,1
95824,-100,4,2,1,75,0,1
96024,-50,4,2,1,75,0,1
96224,-133.333333333333,4,2,1,75,0,1
97024,-66.6666666666667,4,2,1,75,0,1
97224,-100,4,2,1,75,0,1
97424,-66.6666666666667,4,2,1,75,0,1
97624,-100,4,2,1,75,0,1
97824,-58.8235294117647,4,2,1,80,0,1
98224,-41.6666666666667,4,2,1,90,0,0
98624,-41.6666666666667,4,2,1,75,0,1
98824,-83.3333333333333,4,2,1,75,0,1
99424,-66.6666666666667,4,2,1,75,0,1
99824,-83.3333333333333,4,2,1,75,0,1
100224,-125,4,2,1,75,0,1
100424,-41.6666666666667,4,2,1,75,0,1
100624,-133.333333333333,4,2,1,75,0,1
100824,-83.3333333333333,4,2,1,75,0,1
101424,-83.3333333333333,4,2,1,75,0,0
101824,-83.3333333333333,4,2,1,75,0,1
102024,-133.333333333333,4,2,1,75,0,1
102224,-100,4,2,1,75,0,1
102424,-66.6666666666667,4,2,1,75,0,1
102624,-133.333333333333,4,2,1,75,0,1
103424,-66.6666666666667,4,2,1,70,0,0
104024,-41.6666666666667,4,2,1,70,0,1
105024,-83.3333333333333,4,2,1,65,0,0
105424,-100,4,2,1,65,0,0
106224,-62.5,4,2,1,65,0,0
106824,-100,4,2,1,65,0,0
107024,-62.5,4,2,1,65,0,0
108224,-100,4,2,1,65,0,0
109224,-41.6666666666667,4,2,1,65,0,0
109424,-62.5,4,2,1,65,0,0
109824,-100,4,2,1,70,0,0
110224,-50,4,2,1,70,0,0
110624,-100,4,2,1,70,0,0
111024,-50,4,2,1,70,0,0
111424,3200,4,2,1,70,1,0
111424,-2000,4,2,82,70,0,0
114224,-2000,4,2,1,85,0,0
114624,400,4,2,1,60,1,0
114624,-100,4,2,1,60,0,0
116224,-83.3333333333333,4,2,1,60,0,0
116624,-100,4,2,1,60,0,0
117624,-76.9230769230769,4,2,1,60,0,0
118024,-250,4,2,1,60,0,0
118224,-111.111111111111,4,2,1,60,0,0
118424,-76.9230769230769,4,2,1,60,0,0
119424,-111.111111111111,4,2,1,60,0,0
119624,-83.3333333333333,4,2,1,60,0,0
119824,-125,4,2,1,60,0,0
120024,-250,4,2,1,60,0,0
120224,-71.4285714285714,4,2,1,60,0,0
120424,-62.5,4,2,1,60,0,0
120624,-55.5555555555556,4,2,1,60,0,0
120824,-50,4,2,1,60,0,0
121024,-400,4,2,1,70,0,0
121424,-133.333333333333,4,2,1,70,0,0
121824,-100,4,2,1,60,0,0
122624,-133.333333333333,4,2,1,60,0,0
123024,-100,4,2,1,60,0,0
123424,-100,4,2,1,60,0,0
124024,-76.9230769230769,4,2,1,60,0,0
124424,-250,4,2,1,60,0,0
124624,-111.111111111111,4,2,1,60,0,0
124824,-76.9230769230769,4,2,1,60,0,0
125624,-200,4,2,1,60,0,0
125824,-100,4,2,1,60,0,0
126424,-200,4,2,1,60,0,0
126624,-76.9230769230769,4,2,1,60,0,0
126824,-142.857142857143,4,2,1,60,0,0
127024,-41.6666666666667,4,2,1,70,0,0
127224,-58.8235294117647,4,2,1,70,0,1
127424,-100,4,2,1,60,0,0
129024,-83.3333333333333,4,2,1,60,0,0
129424,-100,4,2,1,60,0,0
130224,-166.666666666667,4,2,1,60,0,0
130424,-76.9230769230769,4,2,1,60,0,0
130824,-200,4,2,1,60,0,0
131024,-111.111111111111,4,2,1,60,0,0
131224,-76.9230769230769,4,2,1,60,0,0
131824,-200,4,2,1,60,0,0
132424,-76.9230769230769,4,2,1,60,0,0
132624,-90.9090909090909,4,2,1,60,0,0
132824,-166.666666666667,4,2,1,60,0,0
133024,-71.4285714285714,4,2,1,60,0,0
133224,-86.9565217391304,4,2,1,60,0,0
133424,-100,4,2,1,70,0,0
133624,-66.6666666666667,4,2,1,70,0,0
133824,-66.6666666666667,4,2,1,85,0,0
134624,-133.333333333333,4,2,1,70,0,0
134824,-83.3333333333333,4,2,1,70,0,0
135024,-83.3333333333333,4,2,1,60,0,0
135424,-45.4545454545455,4,2,1,60,0,0
135624,-100,4,2,1,60,0,0
136224,-62.5,4,2,1,60,0,0
136624,-166.666666666667,4,2,1,60,0,0
136824,-76.9230769230769,4,2,1,60,0,0
137424,-66.6666666666667,4,2,1,60,0,0
138224,-200,4,2,1,60,0,0
139024,-66.6666666666667,4,2,1,60,0,0
139224,-200,4,2,1,60,0,0
139424,-66.6666666666667,4,2,1,60,0,0
139624,-166.666666666667,4,2,1,70,0,0
140024,-40,4,2,1,70,0,1
140224,-71.4285714285714,4,2,1,70,0,0
140824,-76.9230769230769,4,2,1,70,0,0
141224,-71.4285714285714,4,2,1,70,0,0
141824,-133.333333333333,4,2,3,50,0,0
146424,-181.818181818181,4,2,3,50,0,0
146924,-153.846153846153,4,2,3,50,0,0
147224,-133.333333333333,4,2,3,50,0,0
151224,-200,4,2,3,50,0,0
151424,-133.333333333333,4,2,3,50,0,0
153024,-83.3333333333333,4,2,3,50,0,1
153524,-83.3333333333333,4,2,3,50,0,0
154624,-100,4,2,3,55,0,0
157424,-66.6666666666667,4,2,3,55,0,0
157624,-50,4,2,3,55,0,0
157824,-100,4,2,3,55,0,0
159824,-80,4,2,3,55,0,0
160024,-100,4,2,3,55,0,0
162824,-66.6666666666667,4,2,3,55,0,0
162974,-100,4,2,3,5,0,0
163024,-100,4,2,3,55,0,0
163824,-66.6666666666667,4,2,3,55,0,0
164024,-25,4,2,3,55,0,0
164224,-100,4,2,3,55,0,0
167024,-100,4,2,3,65,0,1
167224,-100,4,2,3,70,0,1
167324,-100,4,2,3,75,0,1
167424,-80,4,2,3,80,0,0
167524,-80,4,2,3,55,0,0
170224,-57.1428571428571,4,2,3,55,0,0
170424,-44.4444444444445,4,2,3,55,0,0
170624,-80,4,2,3,55,0,0
172624,-66.6666666666667,4,2,3,55,0,0
172924,-80,4,2,3,55,0,0
173424,-25,4,2,3,55,0,1
173824,-80,4,2,3,55,0,0
175624,-57.1428571428571,4,2,3,55,0,0
175774,-80,4,2,3,5,0,0
175824,-80,4,2,3,55,0,0
176424,-66.6666666666667,4,2,3,55,0,0
176624,-50,4,2,3,55,0,0
176824,-25,4,2,3,55,0,0
177024,-80,4,2,3,55,0,0
179024,-66.6666666666667,4,2,3,55,0,0
179424,-80,4,2,3,55,0,0
179824,-80,4,2,3,65,0,1
180024,-80,4,2,3,70,0,1
180124,-80,4,2,3,75,0,1
180224,-80,4,2,3,80,0,0
180324,-80,4,2,3,75,0,0
180424,-80,4,2,3,70,0,0
180524,-80,4,2,3,65,0,0
180624,-80,4,2,3,60,0,0
180724,-80,4,2,3,57,0,0
180824,-80,4,2,3,54,0,0
180924,-80,4,2,3,52,0,0
181024,-200,4,2,1,50,0,0
181174,-200,4,2,1,5,0,0
181224,-200,4,2,1,50,0,0
181374,-66.6666666666667,4,2,1,5,0,0
181424,-66.6666666666667,4,2,1,70,0,1
181724,-66.6666666666667,4,2,1,5,0,1
181824,-1000,4,2,1,70,0,0
182624,-25,4,2,1,70,0,0
182674,-25,4,2,1,5,0,0
183024,-125,4,2,1,70,0,0
183824,-1000,4,2,1,70,0,0
184224,-25,4,2,1,70,0,0
184274,-25,4,2,1,5,0,0
184424,-100,4,2,1,70,0,0
185024,-1000,4,2,1,70,0,0
185424,-25,4,2,1,80,0,0
185474,-25,4,2,1,5,0,0
185824,-25,4,2,1,70,0,0
185874,-25,4,2,1,5,0,0
186224,-1000,4,2,1,70,0,0
187424,-25,4,2,1,70,0,0
187474,-25,4,2,1,5,0,0
187624,-125,4,2,1,70,0,0
187824,-50,4,2,1,70,0,0
188424,-125,4,2,1,70,0,0
189024,-25,4,2,1,70,0,0
189074,-25,4,2,1,5,0,0
189424,-125,4,2,1,70,0,0
190224,-1000,4,2,1,70,0,0
190624,-25,4,2,1,70,0,0
190674,-25,4,2,1,5,0,0
190824,-1000,4,2,1,70,0,0
191624,-25,4,2,1,80,0,0
191674,-25,4,2,1,70,0,0
192274,-25,4,2,1,5,0,0
192624,-1000,4,2,1,70,0,0
193024,-100,4,2,1,70,0,0
193824,-166.666666666667,4,2,1,70,0,0
194024,-83.3333333333333,4,2,1,70,0,0
194224,-55.5555555555556,4,2,1,70,0,0
194624,-83.3333333333333,4,2,1,80,0,1
194824,-62.5,4,2,1,80,0,1
195024,-50,4,2,1,80,0,1
195424,-76.9230769230769,4,2,1,80,0,1
195824,-62.5,4,2,1,80,0,1
196224,-76.9230769230769,4,2,1,80,0,1
196424,-76.9230769230769,4,2,1,80,0,1
196624,-76.9230769230769,4,2,1,80,0,1
197224,-66.6666666666667,4,2,1,80,0,1
197624,-100,4,2,1,80,0,1
198224,-58.8235294117647,4,2,1,80,0,1
198624,-55.5555555555556,4,2,1,80,0,1
199024,-76.9230769230769,4,2,1,80,0,1
200224,-50,4,2,1,80,0,1
200424,-41.6666666666668,4,2,1,90,0,0
200824,-25.0000000000001,4,2,1,93,0,0
201024,-43.4782608695656,4,2,1,80,0,0
201224,-100,4,2,1,80,0,0
201424,-80,4,2,1,80,0,0
201624,-50,4,2,1,80,0,0
201824,-58.8235294117647,4,2,1,80,0,1
203024,-200,4,2,1,80,0,1
203424,-66.6666666666667,4,2,1,80,0,1
203624,-125,4,2,1,80,0,1
203824,-83.3333333333333,4,2,1,80,0,1
203924,-83.3333333333333,4,2,1,80,0,1
204024,-62.5000000000004,4,2,1,80,0,1
204124,-50,4,2,1,80,0,1
204224,-41.6666666666667,4,2,1,80,0,1
204424,-200,4,2,1,80,0,1
205024,-76.9230769230769,4,2,1,80,0,1
205424,-90.9090909090909,4,2,1,80,0,1
205824,-90.9090909090909,4,2,1,85,0,1
207424,-200,4,2,1,50,0,0
208524,-133.333333333333,4,2,1,50,0,0
209024,-200,4,2,1,50,0,0
210824,-166.666666666667,4,2,1,50,0,0
210974,-200,4,2,1,5,0,0
211024,-200,4,2,1,50,0,0
212024,-100,4,2,1,50,0,0
212824,-133.333333333333,4,2,1,50,0,0
213824,-200,4,2,1,50,0,0
214924,-133.333333333333,4,2,1,50,0,0
215424,-200,4,2,1,50,0,0
217224,-142.857142857143,4,2,81,50,0,0
217374,-200,4,2,1,5,0,0
217424,-200,4,2,1,50,0,0
218624,-90.9090909090909,4,2,1,60,0,0
218724,-125,4,2,1,60,0,0
218824,-181.818181818182,4,2,1,60,0,0
218924,-333.333333333333,4,2,1,60,0,0
219024,-125,4,2,1,70,0,0
219124,-90.9090909090909,4,2,1,70,0,0
219224,-71.4285714285714,4,2,1,70,0,0
219324,-58.8235294117647,4,2,1,70,0,0
219424,-47.6190476190476,4,2,1,80,0,0
219524,-43.4782608695652,4,2,1,80,0,0
219624,-38.4615384615385,4,2,1,80,0,0
219824,-200,4,2,1,90,0,1
219924,-200,4,2,1,90,0,0
220224,-200,4,2,1,70,0,0
220324,-200,4,2,1,50,0,0
221424,-333.333333333333,4,2,1,50,0,0
221824,-200,4,2,1,50,0,0
223024,-333.333333333333,4,2,1,50,0,0
223424,-200,4,2,1,50,0,0
225824,-333.333333333333,4,2,1,70,0,0
226624,-33.3333333333333,4,2,1,60,0,0
227024,-50,4,2,1,70,0,0
227424,-125,4,2,1,80,0,0
227824,-100,4,2,1,90,0,0
228224,-58.8235294117647,4,2,1,80,0,1
228624,-62.5,4,2,1,80,0,1
228824,-55.5555555555556,4,2,1,80,0,1
229024,-76.9230769230769,4,2,1,80,0,1
229424,-62.5,4,2,1,80,0,1
230224,-83.3333333333333,4,2,1,80,0,1
230624,-71.4285714285714,4,2,1,80,0,1
231224,-58.8235294117647,4,2,1,80,0,1
231424,-142.857142857143,4,2,1,80,0,1
231624,-90.9090909090909,4,2,80,80,0,1
231724,-62.5,4,2,80,80,0,1
231824,-54.054054054054,4,2,80,80,0,1
231924,-47.6190476190476,4,2,80,80,0,1
232024,-38.4615384615385,4,2,80,80,0,1
232224,-76.9230769230769,4,2,1,80,0,1
232424,-76.9230769230769,4,2,80,80,0,1
232524,-55.5555555555556,4,2,80,80,0,1
232624,-48.780487804878,4,2,80,80,0,1
232724,-43.4782608695652,4,2,80,80,0,1
232824,-33.3333333333333,4,2,80,80,0,1
233024,-83.3333333333333,4,2,1,80,0,1
233824,-133.333333333333,4,2,1,80,0,1
234224,-133.333333333333,4,2,1,80,0,0
234624,-58.8235294117647,4,2,1,80,0,1
235024,-66.6666666666667,4,2,1,80,0,1
235424,-100,4,2,1,80,0,1
235824,-58.8235294117647,4,2,1,80,0,1
236224,-83.3333333333333,4,2,1,80,0,1
236624,-43.4782608695652,4,2,1,80,0,1
236824,-41.6666666666667,4,2,1,80,0,1
237024,-41.6666666666667,4,2,81,80,0,0
237424,-41.6666666666667,4,2,1,80,0,0
237824,-66.6666666666667,4,2,1,80,0,1
238024,-83.3333333333333,4,2,80,80,0,1
238624,-83.3333333333333,4,2,1,80,0,1
238824,-83.3333333333333,4,2,80,80,0,1
239424,-83.3333333333333,4,2,1,80,0,1
239824,-66.6666666666667,4,2,1,80,0,1
240024,-90.9090909090909,4,2,1,80,0,1
240224,-55.5555555555556,4,2,1,80,0,1
240624,-16.6666666666667,4,2,1,70,0,1
240674,-16.6666666666667,4,2,1,5,0,0
241024,-111.111111111111,4,2,1,50,0,0
241124,-200,4,2,1,56,0,0
241224,-200,4,2,1,62,0,0
241424,-200,4,2,1,65,0,0
241524,-200,4,2,1,62,0,0
241624,-200,4,2,1,59,0,0
241724,-200,4,2,1,56,0,0
241824,-71.4285714285714,4,2,1,53,0,0
241924,-90.9090909090909,4,2,1,50,0,0
242024,-142.857142857143,4,2,1,45,0,0
242124,-166.666666666667,4,2,1,40,0,0
242224,-166.666666666667,4,2,1,80,0,0
242624,-41.6666666666667,4,2,1,80,0,1
242824,-83.3333333333333,4,2,1,80,0,1
243424,-66.6666666666667,4,2,1,80,0,1
243824,-83.3333333333333,4,2,1,80,0,1
244124,-41.6666666666667,4,2,1,80,0,1
244424,-100,4,2,1,80,0,1
245424,-41.6666666666667,4,2,1,80,0,1
245824,-83.3333333333333,4,2,1,80,0,1
246024,-133.333333333333,4,2,1,80,0,1
246224,-100,4,2,1,80,0,1
246424,-66.6666666666667,4,2,1,80,0,1
246624,-133.333333333333,4,2,1,80,0,1
247424,-66.6666666666667,4,2,1,80,0,1
247624,-100,4,2,1,80,0,1
247824,-66.6666666666667,4,2,1,80,0,1
248024,-100,4,2,1,80,0,1
248624,-500,4,2,1,80,0,0
249024,-41.6666666666667,4,2,1,80,0,1
249224,-83.3333333333333,4,2,1,80,0,1
249824,-66.6666666666667,4,2,1,80,0,1
250224,-83.3333333333333,4,2,1,80,0,1
250524,-125,4,2,1,80,0,1
250824,-41.6666666666667,4,2,1,80,0,1
251024,-133.333333333333,4,2,1,80,0,0
252224,-83.3333333333333,4,2,1,80,0,1
252424,-133.333333333333,4,2,1,80,0,1
252624,-100,4,2,1,80,0,1
252824,-66.6666666666667,4,2,1,80,0,1
253024,-133.333333333333,4,2,1,80,0,1
253824,-66.6666666666667,4,2,1,80,0,1
254424,-41.6666666666667,4,2,1,80,0,1
255024,-41.6666666666667,4,2,1,80,0,0
255424,-83.3333333333333,4,2,1,65,0,0
255824,-100,4,2,1,65,0,0
256624,-62.5,4,2,1,65,0,0
257224,-100,4,2,1,65,0,0
257424,-62.5,4,2,1,65,0,0
258624,-83.3333333333333,4,2,1,65,0,0
259024,-100,4,2,1,65,0,0
259424,-83.3333333333333,4,2,1,65,0,0
259624,-41.6666666666667,4,2,1,65,0,0
259824,-68.9655172413793,4,2,1,65,0,0
260224,-100,4,2,1,65,0,0
260624,-50,4,2,1,65,0,0
261024,-100,4,2,1,65,0,0
261424,-50,4,2,1,65,0,0
261824,-25,4,2,1,65,0,1
263424,-25,4,2,1,5,0,0

[Colours]
Combo1 : 86,90,254
Combo2 : 183,252,88
Combo3 : 88,252,232
Combo4 : 242,206,98
Combo5 : 182,113,227
Combo6 : 201,201,201
Combo7 : 255,0,0
Combo8 : 253,87,174

[HitObjects]
512,200,1024,86,0,B|448:206|448:206|444:203|444:203|440:211|440:211|353:220,1,150,4|0,1:0|0:0,0:0:0:0:
204,97,1224,2,0,P|258:59|283:119,1,150,2|0,0:1|0:0,0:0:0:0:
391,314,1424,6,0,B|409:347|409:347|441:326,1,75,8|0,1:2|0:0,0:0:0:0:
486,106,1624,2,0,B|468:73|468:73|436:94,1,75,0|0,0:2|0:0,0:0:0:0:
202,227,1824,2,0,B|219:193|219:193|251:214,1,75,8|0,1:2|0:0,0:0:0:0:
436,93,2024,6,2,L|509:84,1,75,0|8,0:0|1:2,0:1:0:0:
250,214,2224,2,2,B|74:195|74:195|102:198|102:198|74:195|74:195|102:198|102:198|74:195|74:195|102:198|102:198|74:195|74:195|47:193|47:193|108:198|117:257,1,480,0|0,0:2|1:0,0:1:0:0:
117,259,2824,102,0,L|137:163,1,75,2|0,0:3|0:0,0:0:0:0:
27,342,3024,2,0,P|-3:332|32:337,1,112.5,8|0,1:2|0:0,0:0:0:0:
248,317,3224,5,2,0:3:0:0:
269,316,3324,1,2,0:3:0:0:
252,328,3424,1,10,1:2:0:0:
80,113,3624,1,2,0:3:0:0:
40,110,3724,1,10,1:2:0:0:
75,126,3824,1,2,0:3:0:0:
397,1,4024,1,2,1:3:0:0:
465,0,4124,1,2,0:3:0:0:
406,23,4224,102,0,L|414:97,1,75,2|0,1:3|0:0,0:0:0:0:
414,97,4424,2,0,P|438:77|416:83,1,75,2|0,0:1|0:0,0:0:0:0:
258,75,4624,2,0,L|249:149,1,75,8|0,1:2|0:0,0:0:0:0:
250,149,4824,2,0,P|226:129|248:135,1,75,2|0,0:3|0:0,0:0:0:0:
372,345,5024,2,0,L|363:270,1,75,8|0,1:2|0:0,0:0:0:0:
364,270,5224,6,2,P|393:247|430:240,1,75,0|0,0:0|0:0,0:1:0:0:
229,337,5424,2,2,P|137:314|62:160,1,262.5,8|0,1:2|0:0,0:1:0:0:
61,174,5824,70,0,L|145:160,3,75,8|0|0|0,1:2|0:0|0:0|0:0,0:0:0:0:
293,82,6224,2,0,L|208:68,3,75,8|0|0|0,0:0|0:0|0:0|0:0,0:0:0:0:
122,0,6624,1,8,0:1:0:0:
122,0,6824,6,0,L|126:40,3,37.5,2|0|0|0,0:3|0:0|0:0|0:0,0:0:0:0:
218,70,7024,2,0,L|214:110,10,22.4999993133545,2|0|0|0|0|0|0|0|0|0|0,0:0|0:0|0:0|0:0|0:0|0:0|0:0|0:0|0:0|0:0|0:0,0:0:0:0:
159,340,7424,5,4,1:0:0:0:
243,279,7624,1,2,0:0:0:0:
242,269,7724,1,2,0:0:0:0:
241,259,7824,1,2,0:0:0:0:
239,249,7924,1,2,0:0:0:0:
238,239,8024,2,0,L|326:252,1,82.5000025177003,2|0,0:0|0:0,0:0:0:0:
159,340,8224,6,0,P|18:355|151:275,1,404.999987640381,8|0,0:1|0:0,1:0:0:0:
23,271,8424,2,0,P|83:287|141:263,1,127.50000243187,2|0,0:1|0:0,0:0:0:0:
271,384,8624,101,2,1:3:0:0:
350,370,8724,1,2,0:3:0:0:
444,300,8824,1,2,0:3:0:0:
432,219,8924,1,2,0:3:0:0:
319,251,9024,6,0,L|327:201,2,33.7499989700318,8|0|0,0:2|0:0|0:0,0:0:0:0:
273,28,9224,1,0,1:0:0:0:
273,28,9424,1,0,1:0:0:0:
273,28,9824,102,0,B|73:61|73:61|166:30,1,300,8|0,0:1|1:0,0:0:0:0:
427,37,10124,6,2,B|458:17|458:17|475:51,2,75,2|0|0,0:3|0:0|0:0,0:1:0:0:
388,244,10424,2,2,B|406:277|406:277|438:256,1,75,2|0,0:3|0:0,0:1:0:0:
426,145,10624,102,0,B|226:111|226:111|319:142,1,300,0|0,1:1|0:0,0:0:0:0:
319,142,10924,2,0,P|334:84|261:28,2,150,0|2|0,0:3|0:3|0:3,0:0:0:0:
228,200,11224,1,0,0:0:0:0:
212,207,11324,1,0,0:0:0:0:
196,214,11424,2,0,L|207:310,1,89.9999972534181,8|0,0:1|0:0,0:0:0:0:
294,332,11624,2,0,L|304:240,1,89.9999972534181
76,253,11824,6,2,P|19:296|29:367,1,134.999995880127,2|0,1:0|0:0,0:1:0:0:
37,360,12024,2,0,P|93:316|83:245,1,134.999995880127
279,52,12224,102,2,B|381:83|366:12|469:42,1,172.500003290176,2|0,0:1|0:0,0:2:0:0:
447,57,12424,2,2,B|345:89|360:18|258:47,1,172.500003290176,0|0,1:0|0:0,0:2:0:0:
209,290,12624,6,0,B|272:298|272:298|303:243,1,127.50000243187,0|0,1:0|0:0,0:0:0:0:
200,109,12824,2,0,B|136:100|136:100|105:155,1,127.50000243187
209,290,13024,86,0,B|316:187|462:247|462:247|367:302,1,359.999989013672,8|0,0:1|1:0,0:0:0:0:
388,290,13424,102,0,L|384:250,10,22.4999993133545,2|0|0|0|0|0|0|0|0|0|0,0:0|0:0|0:0|0:0|0:0|0:0|1:0|0:0|0:0|0:0|0:0,0:0:0:0:
305,329,13824,85,2,1:3:0:0:
305,329,13924,1,2,0:3:0:0:
305,329,14024,2,0,L|297:251,1,67.4999979400635,2|2,0:3|0:3,0:0:0:0:
222,368,14224,5,2,0:3:0:0:
222,368,14324,1,2,0:3:0:0:
222,368,14424,2,0,L|207:226,1,127.50000243187,2|2,0:3|0:3,0:0:0:0:
93,375,14624,70,2,P|68:346|0:320,1,112.500004291535,8|0,0:1|0:0,0:1:0:0:
91,258,14824,2,2,P|72:225|12:188,1,101.250000386238,0|0,0:0|0:0,0:1:0:0:
292,69,15024,54,2,P|294:35|285:3,1,67.4999979400635,0|0,1:0|0:0,0:1:0:0:
207,99,15224,2,2,P|202:62|160:4,1,78.7499975967408,0|0,0:0|0:0,0:1:0:0:
134,163,15424,2,2,P|122:127|70:79,1,89.9999972534181,0|0,0:0|0:0,0:1:0:0:
376,67,15624,54,2,P|384:34|381:1,1,56.2500021457673,0|0,1:0|0:0,0:1:0:0:
484,160,15824,2,2,P|498:151|510:140,1,33.7499989700318,0|0,1:0|0:0,0:1:0:0:
449,97,16024,2,2,P|460:77|466:56,1,44.999998626709,0|0,0:0|0:0,0:1:0:0:
333,376,16224,22,0,L|322:253,1,123.750001180172,8|0,0:1|0:0,0:0:0:0:
335,244,16424,5,2,1:3:0:0:
261,229,16524,1,2,0:3:0:0:
187,208,16624,1,2,0:3:0:0:
113,190,16724,1,2,0:3:0:0:
39,173,16824,1,2,1:3:0:0:
32,185,17024,101,2,1:3:0:0:
81,254,17124,1,2,0:3:0:0:
165,269,17224,1,2,0:3:0:0:
236,221,17324,1,2,0:3:0:0:
307,173,17424,1,2,0:3:0:0:
391,188,17524,1,2,0:1:0:0:
441,258,17624,2,0,L|444:297,3,22.4999993133545,0|0|0|0,3:0|3:0|3:0|3:0,0:0:0:0:
441,258,17824,22,2,P|459:225|519:188,1,101.250000386238,8|0,0:1|0:0,0:1:0:0:
398,163,18024,2,2,P|409:127|461:79,1,89.9999972534181,0|0,0:0|0:0,0:1:0:0:
325,99,18224,2,2,P|329:62|371:4,1,78.7499975967408,0|0,1:0|0:0,0:1:0:0:
240,69,18424,2,2,P|237:35|246:3,1,67.4999979400635,0|0,0:0|0:0,0:1:0:0:
83,94,18624,54,2,P|71:74|65:53,1,44.999998626709,0|0,0:0|0:0,0:1:0:0:
156,67,18824,2,2,P|147:34|150:1,1,56.2500021457673,0|0,0:0|0:0,0:1:0:0:
295,236,19024,2,2,P|309:206|312:172,1,67.4999979400635,0|0,0:0|0:0,0:1:0:0:
222,209,19224,2,2,P|224:175|215:143,1,37.5,0|0,0:0|0:0,0:1:0:0:
37,360,19424,22,0,L|31:312,1,28.1250010728836,2|0,0:0|0:0,0:0:0:0:
115,346,19524,2,0,L|109:301,1,28.1250010728836,2|0,0:0|0:0,0:0:0:0:
193,332,19624,2,0,L|187:287,3,28.1250010728836,2|0|0|0,0:0|0:0|0:0|0:0,0:0:0:0:
333,376,19824,6,0,L|378:382,11,43.7500004172325,10|0|0|0|0|0|0|0|0|0|0|0,0:1|0:0|0:0|0:0|0:0|0:0|0:0|0:0|0:0|0:0|0:0|0:0,0:0:0:0:
333,376,20224,6,0,P|314:303|344:230,1,150,4|0,1:0|0:0,0:0:0:0:
428,169,20524,1,2,0:0:0:0:
414,177,20624,2,0,L|488:186,1,75,2|0,0:0|0:0,0:0:0:0:
189,304,20824,2,0,L|114:294,1,75,2|0,0:0|0:0,0:0:0:0:
333,376,21024,1,8,0:1:0:0:
333,376,21424,85,2,1:3:0:0:
352,383,21524,1,2,0:3:0:0:
371,241,21624,1,2,0:3:0:0:
353,246,21724,1,2,0:3:0:0:
412,317,21824,2,0,L|437:318,2,18.75,0|0|0,3:0|3:0|3:0,0:0:0:0:
44,230,22024,21,0,1:0:0:0:
44,230,22124,1,2,0:0:0:0:
114,294,22224,1,2,1:3:0:0:
151,267,22324,1,2,0:0:0:0:
153,222,22424,1,2,0:0:0:0:
124,185,22524,1,0,0:0:0:0:
209,101,22624,5,10,0:1:0:0:
231,10,22724,1,2,0:1:0:0:
322,31,22824,1,2,1:1:0:0:
301,123,22924,1,2,0:1:0:0:
240,60,23024,69,2,0:0:0:0:
272,41,23124,1,2,0:0:0:0:
292,72,23224,1,2,0:0:0:0:
260,92,23324,1,2,0:0:0:0:
260,92,23824,22,0,L|266:63,2,18.75,0|0|0,3:0|3:0|3:0,0:0:0:0:
265,312,24224,1,8,0:1:0:0:
265,312,24624,85,2,1:3:0:0:
277,309,24724,1,2,0:3:0:0:
289,305,24824,2,0,L|284:278,2,18.75,0|0|0,3:0|3:0|3:0,0:0:0:0:
374,235,25024,2,0,B|399:273|399:273|386:318,1,93.75
183,310,25224,21,0,1:0:0:0:
183,310,25324,1,2,0:0:0:0:
113,372,25424,1,0,1:0:0:0:
76,345,25524,1,2,0:3:0:0:
74,300,25624,1,2,0:0:0:0:
103,263,25724,1,0,0:0:0:0:
183,310,25824,86,0,B|302:324,1,120,8|0,0:1|0:0,0:0:0:0:
387,320,26024,2,0,B|267:305,1,120,8|0,0:1|0:0,0:0:0:0:
248,125,26224,2,0,L|295:119,3,28.1250010728836,2|0|0|0,0:3|0:0|0:0|0:0,0:0:0:0:
237,43,26424,2,0,L|288:37,4,27.5000008392334,8|0|0|0|0,1:0|0:0|0:0|0:0|0:0,0:0:0:0:
359,0,26624,21,8,0:0:0:0:
359,0,27024,6,0,P|369:30|366:63,12,65.6250006258488,0|0|0|0|0|0|0|0|0|0|0|0|0,3:0|3:0|3:0|3:0|3:0|3:0|3:0|3:0|3:0|3:0|3:0|3:0|3:0,0:0:0:0:
46,54,27424,1,12,0:1:0:0:
46,54,27824,69,0,1:0:0:0:
135,43,27924,1,0,0:0:0:0:
210,88,28024,1,0,0:0:0:0:
232,86,28124,1,2,0:3:0:0:
238,70,28224,1,2,0:0:0:0:
219,69,28324,1,2,0:0:0:0:
114,117,28424,22,0,L|112:139,2,18.75,0|0|2,1:0|0:0|0:3,0:0:0:0:
206,272,28624,85,2,1:2:0:0:
294,302,28724,1,0,0:0:0:0:
277,216,28824,1,2,0:3:0:0:
362,241,28924,1,2,0:3:0:0:
438,148,29024,22,0,L|442:63,2,75,10|0|0,3:1|3:0|3:0,0:0:0:0:
438,148,29824,85,0,1:0:0:0:
436,136,29924,1,0,0:0:0:0:
434,124,30024,1,0,0:0:0:0:
433,113,30124,1,0,0:0:0:0:
430,102,30224,22,0,L|245:79,1,150,2|0,0:0|0:0,0:0:0:0:
281,83,30424,2,0,L|278:61,2,18.75,0|0|0,1:0|0:0|0:0,0:0:0:0:
188,203,30624,86,0,L|39:221,1,150,8|0,0:1|0:0,0:0:0:0:
39,221,30824,2,0,L|36:242,1,18.75
133,316,31024,21,0,1:0:0:0:
135,328,31124,1,0,0:0:0:0:
137,340,31224,1,0,0:0:0:0:
138,351,31324,1,0,0:0:0:0:
292,339,31424,6,0,P|311:289|242:269,1,134.999995880127,2|0,0:1|0:0,0:0:0:0:
248,264,31623,2,0,P|228:313|298:334,1,134.999995880127,2|0,1:0|0:0,0:0:0:0:
270,302,31824,6,2,L|286:2,1,277.499998941422,2|0,1:0|0:0,0:1:0:0:
481,384,32224,102,2,L|497:81,1,277.499998941422,10|0,0:1|1:0,0:1:0:0:
77,298,32624,6,2,L|64:79,1,219.375000836849,10|0,0:1|0:0,0:1:0:0:
64,79,32824,2,0,L|-5:69,4,37.5000014305115,0|0|0|0|0,1:0|0:0|0:0|0:0|0:0,0:0:0:0:
171,32,33024,5,12,0:2:0:0:
251,45,33124,1,0,0:0:0:0:
331,58,33224,2,0,L|315:154,1,97.4999955368044,2|0,0:3|1:0,0:0:0:0:
277,383,33424,1,8,0:0:0:0:
171,32,33624,21,2,1:3:0:0:
251,45,33724,1,0,0:0:0:0:
331,58,33824,2,0,L|315:154,1,97.4999955368044,8|0,0:0|0:0,0:0:0:0:
277,383,34024,1,0,0:0:0:0:
290,303,34124,1,0,1:0:0:0:
210,290,34224,85,2,0:3:0:0:
194,297,34324,1,2,0:3:0:0:
116,248,34424,2,0,P|115:200|150:169,1,97.4999955368044,8|0,0:0|0:0,0:0:0:0:
7,64,34624,22,0,P|6:111|41:142,1,97.4999955368044,8|0,0:0|0:0,0:0:0:0:
245,121,34824,1,2,0:3:0:0:
325,108,34924,1,0,1:0:0:0:
405,95,35024,2,0,L|424:-1,1,97.4999955368044,8|0,0:0|0:0,0:0:0:0:
448,314,35224,1,2,1:0:0:0:
245,121,35424,85,10,0:0:0:0:
325,108,35524,1,0,0:0:0:0:
405,95,35624,2,0,L|424:-1,1,97.4999955368044,2|0,0:3|1:2,0:0:0:0:
448,314,35824,1,0,0:0:0:0:
454,333,35924,1,0,0:0:0:0:
373,356,36024,2,0,L|354:301,3,32.4999985122681,8|0|0|0,1:2|3:0|3:0|3:0,0:0:0:0:
289,375,36224,22,0,B|269:330|269:330|281:282,1,97.4999955368044,8|0,0:2|0:0,0:0:0:0:
405,95,36424,1,2,0:3:0:0:
377,171,36524,1,2,1:3:0:0:
297,184,36624,2,0,L|190:164,1,97.4999955368044,8|0,0:0|0:0,0:0:0:0:
3,127,36824,2,0,L|98:144,1,97.4999955368044,2|0,1:3|0:0,0:0:0:0:
149,347,37024,2,0,P|181:313|183:265,1,97.4999955368044,8|0,0:0|0:0,0:0:0:0:
155,69,37224,85,2,0:0:0:0:
163,80,37324,1,0,1:0:0:0:
265,8,37424,21,2,0:3:0:0:
247,87,37524,1,2,0:3:0:0:
372,15,37624,85,8,1:2:0:0:
325,109,37724,1,0,0:0:0:0:
472,53,37824,21,2,1:3:0:0:
384,162,37924,1,2,0:3:0:0:
296,271,38024,1,2,0:0:0:0:
296,271,38224,86,0,L|310:320,6,32.4999985122681,8|0|0|0|0|0|0,0:0|0:0|0:0|0:0|0:0|0:0|0:0,0:0:0:0:
220,221,38524,1,0,0:0:0:0:
212,250,38624,6,0,B|146:239|149:300|77:289,1,146.249993305207,2|0,0:0|0:0,0:0:0:0:
0,325,38824,2,0,B|66:314|63:375|134:364,1,146.249993305207,2|0,0:0|0:0,0:0:0:0:
202,327,39024,1,10,0:1:0:0:
202,327,39424,6,0,P|148:212|162:87,1,255.000004863739,4|2,1:0|0:0,0:0:0:0:
205,15,39724,1,0,1:0:0:0:
287,30,39824,102,0,B|306:85|306:85|94:35,1,269.999991760254,2|0,0:0|0:0,0:0:0:0:
11,24,40024,6,0,L|29:111,1,89.9999972534181,2|0,1:2|0:0,0:0:0:0:
76,289,40224,21,2,1:3:0:0:
107,265,40324,1,2,0:0:0:0:
145,269,40424,1,2,0:0:0:0:
255,335,40524,37,2,1:2:0:0:
317,383,40624,1,2,0:3:0:0:
393,375,40724,1,2,0:0:0:0:
496,245,40824,22,0,L|489:216,3,29.9999990844727,8|0|0|0,3:1|3:0|3:0|3:0,0:0:0:0:
470,133,41024,5,0,1:0:0:0:
470,133,41224,101,0,0:0:0:0:
332,108,41324,1,0,1:0:0:0:
193,82,41424,2,0,P|192:207|314:226,1,269.999991760254
389,167,41624,6,2,B|411:212|411:212|377:397,1,225.000008583069,0|0,1:0|0:0,0:1:0:0:
110,347,41824,101,2,1:2:0:0:
103,222,41924,1,0,1:0:0:0:
129,336,42024,2,0,P|118:282|88:235,1,112.500004291535,2|0,0:3|1:0,0:0:0:0:
213,373,42224,70,0,P|260:272|261:161,1,225,10|0,0:1|0:0,0:0:0:0:
174,173,42424,102,0,L|179:202,3,29.9999990844727,2|0|0|0,0:1|0:0|0:0|0:0,0:0:0:0:
154,40,42624,70,0,P|274:11|319:128,1,255.000004863739,0|2,1:0|0:0,0:0:0:0:
352,275,42924,1,0,1:0:0:0:
431,240,43024,102,0,B|471:195|471:195|254:248,1,269.999991760254,2|0,0:0|0:0,0:0:0:0:
213,373,43224,6,2,P|213:262|265:155,1,225.000008583069,2|0,1:2|0:0,0:1:0:0:
506,53,43424,21,2,1:3:0:0:
475,29,43524,1,2,0:0:0:0:
437,33,43624,1,2,0:0:0:0:
323,111,43724,37,2,1:3:0:0:
260,160,43824,1,2,0:3:0:0:
181,151,43924,1,2,0:0:0:0:
49,50,44024,22,0,L|56:20,3,29.9999990844727,8|0|0|0,0:1|0:0|0:0|0:0,0:0:0:0:
21,145,44224,6,0,B|-41:203|-41:203|6:366,1,255.000004863739,2|2,1:2|0:2,0:0:0:0:
198,290,44524,1,2,1:2:0:0:
256,356,44624,2,0,B|290:312|290:312|274:257,1,112.500004291535,2|0,0:3|0:0,0:0:0:0:
207,97,44824,102,0,L|199:126,3,29.9999990844727,2|0|0|0,1:3|0:0|0:0|0:0,0:0:0:0:
424,20,45024,54,0,B|506:124|506:124|269:173|269:173|308:43,1,510.000009727478,2|0,1:2|0:0,0:0:0:0:
469,131,45157,2,0,B|269:173|269:173|308:43,1,340.000006484985,0|0,1:0|0:0,0:0:0:0:
305,163,45290,2,0,B|270:171|270:171|308:43,1,170.000003242493,0|0,1:0|0:0,0:0:0:0:
307,43,45424,6,2,P|221:68|119:78,1,179.999994506836,10|0,0:1|0:0,0:1:0:0:
8,58,45624,102,0,L|-2:-7,3,44.999998626709,0|0|0|0,3:0|3:0|3:0|3:0,0:0:0:0:
39,291,45824,70,0,B|176:264|106:372|278:336,1,255.000004863739,6|2,1:0|0:0,0:0:0:0:
444,207,46124,1,0,1:0:0:0:
469,131,46224,102,0,P|343:127|305:247,1,269.999991760254,2|0,0:0|0:0,0:0:0:0:
402,362,46424,6,0,P|399:317|389:273,1,89.9999972534181,2|0,1:2|0:0,0:0:0:0:
137,65,46624,21,2,1:3:0:0:
99,61,46724,1,2,0:0:0:0:
68,85,46824,1,2,0:0:0:0:
208,117,46924,37,2,1:2:0:0:
284,125,47024,1,2,0:3:0:0:
346,77,47124,1,2,0:0:0:0:
21,177,47224,22,0,L|26:207,3,29.9999990844727,8|0|0|0,3:1|3:0|3:0|3:0,0:0:0:0:
39,291,47424,5,2,1:0:0:0:
260,30,47624,102,2,B|324:-16|324:-16|280:137,1,225,0|0,0:0|0:0,0:1:0:0:
284,125,47824,6,0,L|388:100,1,89.9999972534181,2|0,0:0|0:0,0:0:0:0:
242,229,48024,102,0,B|196:199|196:199|228:309,1,168.750006437302,2|0,1:3|0:0,1:0:0:0:
427,332,48224,5,2,1:2:0:0:
302,339,48324,1,0,1:0:0:0:
416,313,48424,2,0,P|362:324|315:354,1,112.500004291535,2|2,0:3|1:3,0:0:0:0:
361,136,48624,54,0,P|275:207|227:308,1,225,10|0,0:1|0:0,0:0:0:0:
175,375,48824,102,2,L|131:384,3,29.9999990844727,2|0|0|0,0:1|0:0|0:0|0:0,0:1:0:0:
427,332,49024,54,0,B|473:209|355:240|416:89,1,255.000004863739,2|2,1:0|0:0,0:0:0:0:
270,15,49324,1,0,1:0:0:0:
185,25,49424,6,2,B|137:64|137:64|342:40|342:40|322:69|330:115,1,337.500012874604,2|0,0:0|0:0,0:1:0:0:
490,134,49624,102,2,P|493:49|421:2,1,179.999994506836,2|0,1:2|0:0,0:1:0:0:
247,144,49824,37,2,1:3:0:0:
243,182,49924,1,2,0:0:0:0:
267,213,50024,1,2,0:0:0:0:
405,384,50124,37,2,1:3:0:0:
413,308,50224,1,2,0:3:0:0:
365,246,50324,1,2,0:0:0:0:
141,264,50424,38,0,L|112:272,3,29.9999990844727,8|0|0|0,0:1|0:0|0:0|0:0,0:0:0:0:
54,328,50624,21,8,1:2:0:0:
30,297,50724,1,2,0:3:0:0:
34,259,50824,1,2,0:0:0:0:
26,38,50924,37,10,1:2:0:0:
74,100,51024,1,2,0:0:0:0:
66,176,51124,1,0,0:0:0:0:
139,383,51224,22,0,L|130:354,3,29.9999990844727,8|8|8|8,1:2|0:0|0:0|0:0,0:0:0:0:
201,317,51424,54,0,B|317:341|317:341|291:250|291:250|205:232|205:232|178:145|178:145|310:169,1,510.000009727478,10|0,1:2|0:0,0:0:0:0:
302,292,51557,2,0,B|291:251|291:251|206:232|206:232|177:146|177:146|294:166,1,340.000006484985,0|0,1:0|0:0,0:0:0:0:
193,195,51690,2,0,B|178:146|178:146|294:166,1,170.000003242493,0|0,1:0|0:0,0:0:0:0:
294,166,51824,6,2,B|353:92|353:92|56:38|56:38|97:175,1,539.999983520508,10|0,0:1|0:0,0:1:0:0:
2,383,52224,54,0,B|47:309|47:309|0:147,1,255.000004863739,6|2,1:0|0:0,0:0:0:0:
173,18,52524,1,0,1:2:0:0:
260,31,52624,102,0,B|315:39|315:39|168:104|168:104|221:112,1,269.999991760254,2|0,0:0|0:0,0:0:0:0:
381,188,52824,6,0,P|339:173|295:165,1,89.9999972534181,2|0,1:2|0:0,0:0:0:0:
132,297,53024,21,2,1:1:0:0:
163,321,53124,1,2,0:3:0:0:
201,317,53224,1,2,0:3:0:0:
289,384,53324,37,0,1:0:0:0:
351,336,53424,1,2,0:1:0:0:
427,344,53524,1,0,0:0:0:0:
509,218,53624,22,0,L|500:177,3,29.9999990844727,10|0|0|0,0:1|0:0|0:0|0:0,0:0:0:0:
434,360,53824,38,2,B|509:58|509:58|408:153,1,450.000017166138,8|0,1:2|0:0,1:0:0:0:
264,271,54124,1,0,1:0:0:0:
279,367,54224,38,2,B|354:65|354:65|253:160,1,450.000017166138,0|0,0:0|1:0,1:0:0:0:
109,278,54524,1,0,0:0:0:0:
124,374,54624,70,2,B|199:72|199:72|98:167,1,450.000017166138,0|0,1:0|1:0,1:0:0:0:
20,346,54924,1,0,1:0:0:0:
2,249,55024,22,0,B|49:258|49:258|62:266|62:266|110:277,1,112.500004291535,10|0,0:1|0:0,0:0:0:0:
372,299,55224,2,0,B|324:288|324:288|311:280|311:280|265:270,1,112.500004291535,10|0,0:1|0:0,0:0:0:0:
224,367,55424,54,0,P|188:281|195:93,1,255.000004863739,4|0,1:0|0:0,0:0:0:0:
310,32,55724,1,0,1:0:0:0:
396,52,55824,102,0,P|367:164|266:106,1,269.999991760254,2|0,0:3|0:0,0:0:0:0:
142,61,56024,6,2,B|64:30|64:30|100:176,1,225.000008583069,0|0,1:0|0:0,0:1:0:0:
387,378,56224,21,2,1:2:0:0:
349,382,56324,1,2,0:0:0:0:
318,358,56424,1,2,0:0:0:0:
267,241,56524,37,2,1:3:0:0:
205,289,56624,1,2,0:0:0:0:
129,281,56724,1,2,0:3:0:0:
4,172,56824,22,0,L|9:142,3,29.9999990844727,8|0|0|0,3:1|3:0|3:0|3:0,0:0:0:0:
25,65,57024,53,6,1:0:0:0:
25,65,57290,1,2,1:0:0:0:
253,20,57424,37,2,0:1:0:0:
200,89,57557,2,2,L|209:128,1,29.9999990844727,0|0,1:0|0:0,1:2:0:0:
314,178,57690,1,0,1:0:0:0:
153,251,57824,69,2,1:0:0:0:
282,320,57957,1,2,1:0:0:0:
206,366,58090,1,2,1:0:0:0:
360,276,58224,38,2,L|369:237,1,29.9999990844727,8|0,0:1|0:0,1:2:0:0:
135,171,58424,2,0,L|129:141,3,29.9999990844727,0|0|0|0,3:0|3:0|3:0|3:0,0:0:0:0:
26,192,58624,22,0,B|159:174|100:265|265:242,1,255.000004863739,6|2,1:0|0:0,0:0:0:0:
427,333,58924,1,0,1:0:0:0:
352,375,59024,102,0,P|305:248|303:114,1,269.999991760254,2|0,0:0|0:0,0:0:0:0:
317,33,59224,6,0,P|359:31|375:71,1,89.9999972534181,2|0,1:2|0:0,0:0:0:0:
204,299,59424,21,2,1:3:0:0:
180,268,59524,1,2,0:0:0:0:
184,230,59624,1,2,0:0:0:0:
144,49,59724,37,2,1:0:0:0:
96,111,59824,1,0,0:0:0:0:
104,187,59924,1,0,0:0:0:0:
32,301,60024,22,0,L|21:329,3,29.9999990844727,8|0|0|0,0:1|0:0|0:0|0:0,0:0:0:0:
170,373,60224,5,0,1:0:0:0:
170,373,60424,102,2,P|280:372|364:301,1,225,0|0,0:0|0:0,0:1:0:0:
364,301,60624,6,0,P|327:322|280:324,1,89.9999972534181,2|0,0:3|0:0,0:0:0:0:
96,111,60824,102,2,P|153:171|234:184,1,168.750006437302,0|0,1:0|0:0,0:1:0:0:
326,136,61024,5,2,1:3:0:0:
333,11,61124,1,0,1:0:0:0:
307,125,61224,2,0,P|318:71|348:24,1,112.500004291535,2|0,0:3|1:0,0:0:0:0:
490,316,61424,54,0,P|427:219|409:109,1,225,10|0,0:1|0:0,0:0:0:0:
469,48,61624,102,2,L|498:54,3,29.9999990844727,2|0|0|0,0:1|0:0|0:0|0:0,0:1:0:0:
241,49,61824,54,0,B|185:89|185:89|203:209|203:209|266:223,1,255.000004863739,2|0,1:0|0:0,0:0:0:0:
509,285,62124,1,0,1:0:0:0:
461,217,62224,6,2,B|359:244|359:244|338:335|338:335|202:307,1,337.500012874604,0|0,0:0|0:0,0:1:0:0:
60,333,62424,102,2,B|108:329|117:288|117:288|102:187,1,179.999994506836,0|0,1:0|0:0,0:1:0:0:
22,61,62624,37,2,1:3:0:0:
53,37,62724,1,2,0:0:0:0:
91,41,62824,1,2,0:0:0:0:
296,149,62924,37,2,1:2:0:0:
220,157,63024,1,2,0:3:0:0:
158,109,63124,1,2,0:0:0:0:
359,84,63224,38,0,L|388:88,3,29.9999990844727,8|0|0|0,0:1|0:0|0:0|0:0,0:0:0:0:
246,64,63424,101,8,1:2:0:0:
256,192,63524,12,8,64624,0:1:0:0:
107,100,65024,54,2,B|29:47|29:47|43:178,1,225,4|0,1:1|0:0,0:0:0:0:
209,280,65424,2,2,B|150:319|150:319|161:221,1,168.750006437302,0|0,0:0|0:0,0:0:0:0:
284,171,65824,101,8,0:0:0:0:
284,171,66024,1,0,0:0:0:0:
364,218,66224,1,8,0:0:0:0:
481,83,66424,1,0,0:0:0:0:
482,311,66624,6,2,L|333:324,1,150,0|0,0:0|0:0,0:0:0:0:
333,324,66824,2,2,P|324:359|296:383,1,75,0|0,0:0|0:0,0:0:0:0:
209,280,67024,101,2,0:1:0:0:
134,273,67124,1,2,0:1:0:0:
59,267,67224,1,2,0:1:0:0:
0,371,67424,1,8,0:0:0:0:
342,221,67624,1,0,0:0:0:0:
334,208,67724,1,0,0:0:0:0:
289,244,67824,6,0,L|301:130,1,75,10|0,0:2|0:0,0:1:0:0:
443,67,68024,102,2,P|391:24|435:77,1,196.875001877546,0|0,0:0|0:0,1:1:0:0:
413,51,68224,6,0,P|341:55|256:86,1,150
268,79,68424,2,0,P|195:62|128:27,1,150
128,27,68624,2,2,P|54:46|100:106,1,179.999994506836,0|0,0:0|0:0,0:0:0:0:
100,106,68824,2,2,P|173:125|127:185,1,179.999994506836,0|0,0:0|0:0,0:0:0:0:
3,185,69024,101,8,0:0:0:0:
3,185,69224,1,0,0:0:0:0:
214,276,69424,1,8,0:0:0:0:
214,276,69624,1,0,0:0:0:0:
509,275,69824,6,0,P|482:249|446:244,1,75
380,175,70024,2,0,P|347:192|329:225,1,75
363,338,70224,101,10,0:0:0:0:
363,338,70324,1,0,0:0:0:0:
363,338,70424,2,0,L|367:380,1,37.5
257,130,70624,101,10,0:0:0:0:
257,130,70724,1,0,0:0:0:0:
257,130,70824,2,0,L|261:88,1,37.5
329,224,71024,6,2,B|386:162|363:48|363:48|374:116|459:155,1,314.999990386963,8|0,0:0|0:0,0:1:0:0:
439,145,71424,6,2,B|364:47|237:92|237:92|264:142,1,269.999991760254,0|0,0:0|0:0,0:0:0:0:
81,268,71824,2,2,B|136:340|230:307|230:307|210:270,1,202.499993820191,0|0,0:0|0:0,0:0:0:0:
329,225,72224,1,8,0:0:0:0:
329,225,72424,1,0,0:0:0:0:
81,11,72624,102,2,P|135:78|140:152,1,150,8|0,0:0|0:0,0:0:0:0:
233,184,72924,5,2,0:3:0:0:
142,139,73024,2,2,P|88:206|83:280,1,150,2|0,0:3|0:0,0:0:0:0:
80,267,73224,2,2,P|121:297|139:328,1,75,0|0,0:0|0:0,0:0:0:0:
329,225,73424,101,2,0:1:0:0:
404,218,73524,1,2,0:1:0:0:
479,212,73624,1,2,0:1:0:0:
294,384,73824,6,0,P|282:348|290:312,1,75,8|0,0:0|0:0,0:0:0:0:
388,376,74024,1,0,0:0:0:0:
388,376,74124,1,0,0:0:0:0:
388,376,74224,2,0,P|395:340|382:301,1,75,8|0,0:0|0:0,0:0:0:0:
217,41,74424,2,2,L|224:89,1,37.5,0|0,0:0|0:0,1:0:0:0:
430,119,74624,102,0,L|523:136,1,82.5000025177003
512,134,74824,2,0,B|411:90|411:90|315:153,1,225,0|0,0:0|0:0,1:0:0:0:
108,230,75024,6,0,L|20:246,1,82.5000025177003
27,245,75224,2,0,B|127:201|127:201|223:264,1,225,0|0,0:0|0:0,1:0:0:0:
411,314,75424,101,8,0:0:0:0:
411,314,75624,1,0,0:0:0:0:
320,99,75824,1,8,0:0:0:0:
320,99,76024,1,0,0:0:0:0:
512,134,76224,6,0,P|485:160|449:165,1,75
383,234,76424,2,0,P|350:217|332:184,1,75
109,68,76624,101,10,0:0:0:0:
109,68,76724,1,0,0:0:0:0:
109,68,76824,2,0,L|113:26,1,37.5
21,57,77024,101,10,0:0:0:0:
21,57,77124,1,0,0:0:0:0:
21,57,77224,2,0,L|25:15,1,37.5
0,297,77424,6,2,B|-41:274|-41:274|226:236,1,314.999990386963,8|0,0:0|0:0,0:1:0:0:
332,184,77824,38,0,L|324:109,10,75,2|0|0|0|0|0|0|0|0|0|0,0:0|0:0|0:0|0:0|0:0|0:0|0:0|0:0|0:0|0:0|0:0,0:0:0:0:
332,183,78224,2,0,L|545:204,3,150,2|0|0|0,0:0|0:0|0:0|0:0,0:0:0:0:
482,197,78624,2,0,L|476:253,6,37.5,2|0|0|0|0|0|0,0:0|0:0|0:0|0:0|0:0|0:0|0:0,0:0:0:0:
396,310,79024,5,10,0:1:0:0:
393,297,79424,54,0,P|279:286|158:395,1,269.999991760254,4|0,1:0|0:0,0:0:0:0:
82,369,79624,2,0,P|48:335|53:284,1,89.9999972534181,0|0,0:0|1:0,0:0:0:0:
0,96,79824,53,2,0:0:0:0:
167,42,79924,1,2,0:0:0:0:
0,96,80024,1,2,1:3:0:0:
167,42,80124,1,2,0:3:0:0:
0,227,80224,54,2,P|86:73|60:-16,1,225.000008583069,2|0,1:3|0:0,0:0:0:0:
80,33,80424,2,2,P|130:131|230:179,1,225.000008583069,2|0,0:3|0:0,0:0:0:0:
230,179,80624,2,2,P|264:146|308:136,2,89.9999972534181,2|2|8,0:3|0:3|0:1,0:0:0:0:
460,57,80924,54,2,B|500:158|437:132|478:251,1,179.999994506836,0|0,0:0|0:0,0:1:0:0:
472,233,81024,2,0,P|488:187|482:152,1,75,0|0,1:0|0:0,0:0:0:0:
342,33,81224,54,0,L|297:27,1,37.5,2|0,0:0|1:0,0:0:0:0:
161,79,81424,2,0,L|167:40,1,37.5,2|0,0:3|0:0,0:0:0:0:
37,42,81624,2,0,L|0:36,1,37.5,2|0,1:3|0:0,0:0:0:0:
15,219,81824,53,0,1:0:0:0:
99,181,81924,1,0,1:0:0:0:
189,199,82024,86,2,P|220:220|276:219,5,59.9999981689454,0|0|0|0|0|0,0:0|0:0|0:0|0:0|0:0|0:0,0:1:0:0:
268,314,82224,6,2,P|318:312|358:283,5,100,8|0|0|0|0|2,0:1|0:0|0:0|0:0|0:0|0:1,0:1:0:0:
462,313,82424,86,2,L|446:178,1,112.500004291535,0|0,0:0|0:0,1:2:0:0:
448,201,82624,102,2,B|484:65|484:65|464:112|414:117,1,225,0|0,1:0|0:0,0:1:0:0:
302,15,82824,53,0,0:0:0:0:
263,142,82924,1,0,1:0:0:0:
277,23,83024,2,0,P|272:77|288:131,1,112.500004291535,0|0,0:0|1:0,0:0:0:0:
91,175,83224,2,0,P|135:227|196:260,1,134.999995880127,0|0,1:0|0:0,0:0:0:0:
371,337,83424,54,0,P|366:305|348:268,1,56.2500021457673,2|0,1:2|0:0,0:0:0:0:
371,337,83624,2,0,P|390:310|403:271,1,56.2500021457673,2|0,0:0|1:0,0:0:0:0:
470,141,83824,53,2,0:0:0:0:
392,155,83924,1,2,0:0:0:0:
424,108,84024,1,0,3:3:0:0:
438,187,84124,1,0,3:3:0:0:
295,225,84224,54,0,L|319:1,1,225.000008583069,0|0,1:0|0:0,0:1:0:0:
318,1,84424,54,0,P|333:38|324:90,1,75,0|0,0:0|1:0,0:0:0:0:
157,226,84624,2,0,P|169:179|215:135,1,112.500004291535,0|0,0:0|1:0,0:0:0:0:
211,116,84774,1,0,1:0:0:0:
208,95,84824,2,0,L|220:10,1,75,0|0,1:0|0:0,0:0:0:0:
0,28,85024,101,2,1:3:0:0:
124,109,85157,1,2,1:3:0:0:
0,176,85290,1,2,1:3:0:0:
46,282,85424,2,0,L|37:359,1,75,2|0,1:3|0:0,0:0:0:0:
241,252,85624,2,0,L|230:357,3,89.9999972534181,0|0|0|0,3:0|3:0|3:0|3:0,0:0:0:0:
253,304,85824,70,0,B|360:284|360:284|359:295|359:295|416:302|416:302|442:266|442:266|501:255,1,269.999991760254,0|0,1:0|0:0,0:0:0:0:
497,336,86024,2,0,L|510:212,1,89.9999972534181,0|0,0:0|1:0,0:0:0:0:
445,14,86224,53,2,0:0:0:0:
339,154,86324,1,2,0:0:0:0:
445,14,86424,1,2,1:3:0:0:
339,154,86524,1,2,0:3:0:0:
435,197,86624,54,0,B|438:113|438:113|367:68|367:68|352:-12,1,225.000008583069,2|0,1:3|0:0,0:0:0:0:
356,12,86824,2,0,B|333:64|333:64|253:91|253:91|237:174,1,225.000008583069,2|0,0:3|0:0,0:0:0:0:
237,173,87024,2,0,B|199:195|199:195|120:184,2,89.9999972534181,2|2|2,0:3|0:1|0:3,0:0:0:0:
106,55,87324,1,0,0:0:0:0:
52,142,87424,54,0,P|62:197|62:274,1,112.500004291535,0|0,1:0|0:0,0:0:0:0:
63,253,87624,54,2,L|80:59,1,179.999994506836,0|0,0:0|1:0,0:1:0:0:
0,355,87824,54,0,P|27:344|59:345,1,56.2500021457673
178,270,88024,2,0,P|217:286|264:284,1,89.9999972534181,0|0,1:0|0:0,0:0:0:0:
361,328,88224,53,0,1:0:0:0:
410,190,88324,1,0,1:0:0:0:
508,307,88424,1,0,3:0:0:0:
431,269,88524,1,0,1:0:0:0:
410,190,88624,22,0,L|423:83,3,89.9999972534181,0|0|0|0,3:0|3:0|3:0|3:0,0:0:0:0:
448,69,88824,102,2,L|440:-14,1,60,0|0,0:0|0:0,0:0:0:0:
285,35,89024,38,2,B|249:57|198:49|198:49|250:60|286:118,1,179.999994506836,4|0,1:2|0:0,0:1:0:0:
327,261,89224,54,0,L|323:298,1,33.7499989700318
330,311,89424,54,0,P|241:307|153:362,1,168.750006437302
196,346,89624,2,0,P|143:280|66:250,1,168.750006437302,0|0,1:0|0:0,0:0:0:0:
77,268,89824,2,0,L|65:162,2,89.9999972534181,0|0|0,1:0|0:0|0:0,0:0:0:0:
123,101,90124,53,0,1:0:0:0:
137,87,90224,2,0,L|143:34,2,44.999998626709,0|0|8,0:0|0:0|0:1,0:1:0:0:
31,0,90524,1,0,3:0:0:0:
230,77,90624,54,0,B|386:95|386:95|299:148,1,240,0|0,1:0|0:0,0:0:0:0:
315,138,90824,54,0,P|312:192|327:216,1,75,0|0,0:0|1:0,0:0:0:0:
503,194,91024,2,0,P|503:130|487:100,1,97.4999955368044
287,33,91224,2,0,P|252:47|229:76,1,75
228,284,91424,6,0,P|293:334|386:325,2,150,0|0|0,1:0|0:0|0:0,1:0:0:0:
228,284,91824,6,0,L|244:388,3,89.9999972534181,2|2|2|2,0:0|0:0|0:0|0:0,0:0:0:0:
191,339,92024,6,0,L|-6:318,1,179.999994506836,10|0,0:1|0:0,0:0:0:0:
52,179,92224,6,0,L|354:212,1,269.999991760254,4|0,1:0|0:0,0:0:0:0:
393,245,92424,2,0,P|402:189|372:146,1,89.9999972534181,0|0,0:0|1:0,0:0:0:0:
342,0,92624,53,2,0:0:0:0:
511,58,92724,1,2,0:0:0:0:
342,0,92824,1,2,1:3:0:0:
511,58,92924,1,2,0:3:0:0:
478,156,93024,54,2,P|396:117|341:-12,1,225.000008583069,0|0,1:0|0:0,0:0:0:0:
341,0,93224,2,2,P|345:110|279:198,1,225.000008583069,0|0,0:0|0:0,0:0:0:0:
279,198,93424,1,0,0:0:0:0:
252,77,93524,1,0,0:0:0:0:
180,181,93624,1,0,0:0:0:0:
149,58,93724,86,2,B|52:39|52:39|62:108|62:108|51:109|51:109|62:108|62:108|75:183|75:183|82:186|82:186|72:202|72:202|84:285,1,359.999989013672,0|0,1:0|0:0,0:1:0:0:
49,349,94024,86,0,L|116:356,1,37.5
58,362,94124,2,0,L|163:353,1,75,0|2,1:0|0:3,0:0:0:0:
325,281,94324,1,0,0:0:0:0:
240,283,94424,2,0,L|318:291,1,75,2|0,1:3|0:0,0:0:0:0:
471,375,94624,53,0,1:0:0:0:
458,269,94724,1,0,1:0:0:0:
447,164,94824,1,0,3:0:0:0:
454,131,94924,1,0,1:0:0:0:
462,94,95024,102,2,B|419:37|358:41|314:60|314:60|320:60|320:60|314:62|314:62|320:60|320:60|313:62|313:62|320:60|320:60|314:62|314:62|321:60|321:60|313:62|313:62|322:59|322:59|313:61|313:61|322:59|322:59|313:62|313:62|322:59|322:59|313:62|313:62|322:59|322:59|313:61|313:61|323:58|323:58|314:61|314:61|323:59|323:59|342:125|342:125|272:168|181:157|123:92,1,629.999980773926,4|0,0:0|0:0,0:1:0:0:
20,31,95424,70,0,P|45:90|34:135,1,89.9999972534181,0|0,1:2|0:0,0:0:0:0:
8,346,95624,54,0,B|-2:326|-2:326|0:302,1,37.5,0|0,0:0|1:0,0:0:0:0:
135,280,95824,54,0,B|146:245|146:245|176:222,1,75,0|0,0:0|1:0,0:0:0:0:
323,339,96024,54,0,B|375:303|375:303|465:315,1,150,0|0,1:0|0:0,0:0:0:0:
399,121,96224,54,0,P|419:140|431:165,1,56.2500021457673,0|0,1:0|0:0,0:0:0:0:
398,121,96424,2,0,P|398:149|389:175,1,56.2500021457673,0|0,0:0|1:0,0:0:0:0:
288,89,96624,53,2,0:0:0:0:
210,75,96724,1,2,0:0:0:0:
242,121,96824,1,0,3:0:0:0:
256,42,96924,1,0,3:0:0:0:
407,21,97024,54,0,P|441:128|424:281,1,225.000008583069,0|0,1:0|0:0,0:0:0:0:
436,239,97224,54,0,P|436:202|411:159,1,75,2|0,0:1|1:0,0:0:0:0:
375,339,97424,2,0,P|340:304|278:288,1,112.500004291535,0|0,0:0|1:0,0:0:0:0:
258,308,97574,1,0,1:0:0:0:
229,311,97624,2,0,L|138:319,1,75,0|0,1:0|0:0,0:0:0:0:
0,375,97824,70,2,B|46:212|46:212|218:198|218:198|202:105|161:40,1,510.000009727478,0|8,1:0|0:1,0:1:0:0:
47,212,97957,2,2,B|217:198|217:198|218:105|258:34,1,340.000006484985,0|8,1:0|0:1,0:1:0:0:
217,197,98090,2,2,L|208:12,1,170.000003242493,0|0,1:0|0:0,0:1:0:0:
208,27,98224,6,0,B|183:82|75:97|75:97|543:150,1,539.999983520508,8|0,0:1|0:0,0:0:0:0:
510,254,98624,86,0,B|481:328|481:328|449:91,1,269.999991760254,4|0,1:0|0:0,0:0:0:0:
413,57,98824,2,0,B|380:82|380:82|373:149,1,89.9999972534181,0|0,0:0|1:0,0:0:0:0:
324,381,99024,53,2,0:0:0:0:
306,227,99124,1,2,0:0:0:0:
324,381,99224,1,2,1:3:0:0:
306,227,99324,1,2,0:3:0:0:
324,381,99424,54,2,L|350:139,1,225.000008583069,0|0,1:0|0:0,0:0:0:0:
353,154,99624,2,2,L|328:377,1,225.000008583069,0|0,0:0|0:0,0:0:0:0:
336,374,99824,2,2,P|376:355|433:361,2,89.9999972534181,0|2|0,0:0|0:1|0:0,0:0:0:0:
238,300,100124,1,0,0:0:0:0:
387,269,100224,6,0,L|510:285,1,120,0|0,1:0|0:0,0:0:0:0:
505,284,100424,6,2,B|490:204|490:204|482:198|482:198|463:108,1,179.999994506836,0|0,0:0|1:0,0:1:0:0:
308,17,100624,22,0,P|297:51|300:81,1,56.2500021457673
247,166,100824,2,0,P|267:210|300:234,1,89.9999972534181,0|0,1:0|0:0,0:0:0:0:
187,341,101024,53,0,1:0:0:0:
138,203,101124,1,0,1:0:0:0:
40,320,101224,1,0,3:0:0:0:
122,284,101324,1,0,1:0:0:0:
138,203,101424,53,2,0:1:0:0:
138,203,101824,54,0,L|126:100,1,89.9999972534181,0|0,1:2|0:0,0:0:0:0:
256,157,102024,54,0,P|256:125|266:98,1,56.2500021457673,0|0,0:0|1:0,0:0:0:0:
31,81,102224,54,0,P|50:47|77:24,1,75
373,204,102424,54,0,P|350:149|349:95,1,112.500004291535,0|0,1:0|0:0,0:0:0:0:
499,17,102624,54,0,P|482:45|476:80,1,56.2500021457673,2|0,1:2|0:0,0:0:0:0:
447,36,102824,2,0,P|471:22|499:17,1,56.2500021457673,0|0,0:0|1:0,0:0:0:0:
489,221,103024,53,2,0:0:0:0:
501,301,103124,1,2,0:0:0:0:
427,273,103224,1,0,3:0:0:0:
439,353,103324,1,0,3:0:0:0:
363,323,103424,54,2,B|272:334|272:334|231:309|231:309|133:293,1,225.000008583069,4|0,1:2|0:0,0:0:0:0:
29,253,104024,22,0,L|41:343,3,89.9999972534181,0|0|0|0,3:0|3:0|3:0|3:0,0:0:0:0:
50,231,104224,5,2,1:3:0:0:
257,251,104357,1,2,1:3:0:0:
464,273,104490,1,2,1:3:0:0:
257,251,104624,5,14,0:1:0:0:
257,251,105024,102,0,L|242:55,1,179.999994506836,4|0,1:0|0:0,0:0:0:0:
505,24,105424,2,0,B|470:47|470:47|427:41,1,75,8|0,1:2|0:0,0:0:0:0:
369,57,105624,2,0,B|402:37|402:37|508:54,1,75
512,170,105824,2,0,L|426:156,1,75,8|0,1:2|0:0,0:0:0:0:
162,144,106124,5,8,1:2:0:0:
207,223,106224,2,2,B|188:149|188:149|302:156|325:243|317:297|317:297|316:305|316:305|317:297|317:297|316:305|316:305|317:297|317:297|316:305|316:305|317:297|317:297|316:305|316:305|317:297|317:297|316:305|316:305|317:297|317:297|316:305|316:305|317:297|317:297|316:305|316:305|304:404,1,480,0|0,0:0|1:0,0:1:0:0:
467,111,106824,102,0,P|467:70|447:37,1,75
345,72,107024,2,0,B|337:133|337:133|337:136|337:136|337:133|337:133|337:136|337:136|337:133|337:133|337:136|337:136|337:133|337:133|337:136|337:136|337:133|337:133|337:136|337:136|337:133|337:133|337:136|337:136|337:133|337:133|337:136|337:136|337:133|337:133|337:136|337:136|337:133|337:133|337:136|337:136|337:133|337:133|337:136|337:136|337:133|337:133|337:136|337:136|337:133|337:133|325:232,1,240,8|0,2:0|2:0,2:0:0:0:
100,308,107424,5,10,0:2:0:0:
40,367,107624,101,2,3:3:0:0:
82,229,107724,1,10,1:2:0:0:
180,334,107824,1,2,3:3:0:0:
100,308,108024,5,0,1:0:0:0:
214,192,108224,102,0,L|225:36,1,150,2|2,1:3|0:1,0:0:0:0:
373,166,108624,2,0,P|361:122|382:39,1,75,8|0,1:2|0:0,0:0:0:0:
62,143,108824,2,2,P|79:103|66:17,1,75,2|0,0:3|0:0,0:0:0:0:
214,192,109024,6,0,L|226:17,1,150,8|0,1:2|0:0,0:0:0:0:
224,42,109224,2,2,P|241:25|269:15,8,44.999998626709,0|0|0|0|0|0|0|0|0,0:0|0:0|0:0|0:0|0:0|0:0|0:0|0:0|0:0,0:0:0:0:
224,42,109424,2,2,B|255:141|397:151|445:72|445:72|323:101,1,360,10|0,1:2|0:0,0:1:0:0:
383,203,109824,102,0,P|426:204|474:234,3,75,8|0|0|0,0:0|0:0|0:0|0:0,0:0:0:0:
360,326,110224,6,0,P|382:304|404:298,9,50,8|0|0|0|0|0|0|0|0|0,0:2|0:0|0:0|0:0|0:0|0:0|0:0|0:0|0:0|0:0,0:0:0:0:
496,190,110624,102,0,L|487:103,1,75,8|0,0:1|0:0,0:0:0:0:
309,151,110824,2,0,L|300:64,1,75,2|0,0:3|0:0,0:0:0:0:
113,96,111024,6,0,L|107:30,9,50,2|0|0|0|0|0|0|0|0|0,0:0|0:0|0:0|0:0|0:0|0:0|0:0|0:0|0:0|0:0,0:0:0:0:
45,340,111424,70,2,L|70:344,1,26.25,4|8,1:0|0:1,0:1:0:0:
70,344,114624,22,0,L|63:264,2,75,4|0|0,1:0|0:0|0:0,0:0:0:0:
143,235,114924,1,0,0:0:0:0:
211,171,115024,2,0,P|187:264|195:338,1,150,2|0,0:0|0:0,0:0:0:0:
311,286,115324,1,0,0:0:0:0:
371,355,115424,6,0,L|457:367,1,75,8|0,0:1|0:0,0:0:0:0:
512,366,115624,2,0,L|437:355,1,75
418,244,115824,1,2,1:3:0:0:
410,207,115924,1,2,0:3:0:0:
446,199,116024,1,2,0:3:0:0:
454,236,116124,1,2,0:1:0:0:
340,264,116224,102,0,L|356:65,1,179.999994506836,0|0,3:0|1:0,0:0:0:0:
389,324,116624,1,2,1:3:0:0:
354,341,116724,1,0,0:0:0:0:
272,305,116824,1,2,0:3:0:0:
262,267,116924,1,0,0:0:0:0:
178,237,117024,6,0,P|146:235|93:264,1,75,8|0,0:1|0:0,0:0:0:0:
20,374,117224,2,0,P|47:356|72:302,1,75,0|0,1:0|0:0,0:0:0:0:
51,187,117424,101,0,3:0:0:0:
49,173,117474,1,0,3:0:0:0:
47,159,117524,1,0,3:0:0:0:
45,145,117574,1,0,3:0:0:0:
43,129,117624,6,2,B|111:42|147:127|213:18,1,194.999991073609,0|0,0:0|0:0,0:1:0:0:
203,32,118024,102,0,L|210:78,1,30,2|2,0:0|0:0,0:0:0:0:
322,21,118224,6,0,L|301:88,1,67.4999979400635,0|0,3:0|3:0,0:0:0:0:
449,85,118424,102,0,L|358:183,1,97.4999955368044,2|2,0:3|0:3,0:0:0:0:
266,189,118624,5,10,2:2:0:0:
276,273,118724,1,0,2:0:0:0:
285,356,118824,1,0,2:0:0:0:
273,348,119024,101,0,1:0:0:0:
265,274,119124,1,0,2:0:0:0:
257,196,119224,2,0,L|249:126,2,48.7499977684022,0|0|0,3:0|3:0|3:0,0:0:0:0:
98,245,119424,6,0,L|82:119,1,101.249996910095,2|0,0:3|0:0,0:0:0:0:
43,77,119624,102,2,L|54:-15,1,89.9999972534181,0|0,1:0|0:0,0:0:0:0:
189,36,119824,2,0,B|219:25|219:25|239:-8,1,60,0|0,1:0|0:0,0:0:0:0:
362,27,120024,2,0,P|380:20|397:19,1,30
501,113,120224,6,0,L|389:98,1,104.999996795654,10|0,0:1|0:0,0:0:0:0:
387,128,120424,2,0,L|505:143,1,120,0|0,1:0|0:0,0:0:0:0:
368,223,120624,102,0,L|513:242,1,134.999995880127,2|0,0:0|0:0,0:0:0:0:
505,288,120824,2,0,L|356:268,1,150,2|0,1:2|0:0,0:0:0:0:
257,348,121024,6,0,P|227:321|202:314,1,56.2500021457673
145,222,121424,102,0,P|142:182|130:159,1,56.2500021457673,2|2,0:0|0:0,0:0:0:0:
152,51,121624,2,0,P|122:24|97:17,1,56.2500021457673,2|2,0:0|0:0,0:0:0:0:
15,113,121824,6,0,L|2:206,1,75,12|0,0:0|0:0,0:0:0:0:
5,248,122024,2,0,L|15:173,1,75
145,222,122224,1,2,1:2:0:0:
174,214,122324,1,2,0:3:0:0:
166,185,122424,1,0,3:0:0:0:
137,192,122524,1,0,3:0:0:0:
165,311,122624,102,0,P|226:285|285:290,1,112.500004291535,2|0,0:3|1:0,0:0:0:0:
287,135,122924,1,0,0:0:0:0:
271,286,123024,2,0,L|354:299,1,75,2|0,1:2|0:0,0:0:0:0:
485,350,123224,1,2,0:0:0:0:
490,315,123324,1,2,0:0:0:0:
452,238,123424,6,2,P|438:190|446:151,1,75,8|0,0:1|0:0,0:0:0:0:
475,42,123624,2,0,P|440:78|402:90,1,75,0|0,1:0|0:0,0:0:0:0:
294,142,123824,101,0,3:0:0:0:
275,139,123874,1,0,3:0:0:0:
256,136,123924,1,0,3:0:0:0:
237,133,123974,1,0,3:0:0:0:
218,130,124024,6,2,B|107:111|152:185|29:162,1,194.999991073609,0|0,0:0|0:0,0:1:0:0:
28,158,124224,1,0,1:0:0:0:
73,82,124424,102,0,P|67:62|68:46,1,30,2|2,0:0|0:0,0:0:0:0:
167,52,124624,6,0,P|184:18|206:0,1,67.4999979400635,0|0,3:0|3:0,0:0:0:0:
292,101,124824,102,0,P|345:84|388:87,1,97.4999955368044,2|2,0:3|0:3,0:0:0:0:
477,191,125024,5,8,0:0:0:0:
468,272,125124,1,0,0:0:0:0:
460,353,125224,1,0,0:0:0:0:
453,343,125424,101,0,1:0:0:0:
460,270,125524,1,0,0:0:0:0:
467,197,125624,2,0,L|471:152,1,37.5,0|0,3:0|0:0,0:0:0:0:
305,250,125824,6,0,L|290:89,1,150,2|0,0:3|1:0,0:0:0:0:
67,53,126224,102,0,P|47:95|50:130,1,75,2|0,1:2|0:0,0:0:0:0:
169,117,126424,2,0,P|172:135|181:152,1,37.5,2|0,0:3|0:0,0:0:0:0:
440,188,126624,6,0,P|462:238|458:279,1,97.4999955368044,8|0,0:1|0:0,0:0:0:0:
335,250,126824,2,0,P|330:275|318:297,1,52.4999983978272,2|0,1:3|0:0,0:0:0:0:
202,384,127024,102,0,P|204:351|209:305,3,59.9999981689454,8|0|0|0,3:1|3:0|3:0|3:0,0:0:0:0:
305,227,127224,2,2,L|288:58,1,127.50000243187,4|0,1:2|0:0,0:1:0:0:
380,41,127424,6,0,L|480:24,2,75,4|0|0,1:0|0:0|0:0,0:0:0:0:
166,2,127724,1,0,0:0:0:0:
166,2,127824,2,0,L|180:151,1,150,2|0,0:0|0:0,0:0:0:0:
94,297,128124,1,0,0:0:0:0:
94,297,128224,102,0,L|104:222,1,75,8|0,0:1|0:0,0:0:0:0:
5,279,128424,2,0,L|16:204,1,75
244,266,128624,1,2,1:3:0:0:
282,273,128724,1,2,0:3:0:0:
277,308,128824,1,2,0:3:0:0:
239,302,128924,1,2,0:1:0:0:
323,196,129024,6,0,P|398:151|486:165,1,179.999994506836,0|0,3:0|0:0,0:0:0:0:
485,164,129224,2,0,P|443:173|405:146,1,89.9999972534181,0|0,1:0|0:0,0:0:0:0:
283,73,129424,1,2,1:3:0:0:
273,35,129524,1,0,0:0:0:0:
267,72,129624,1,2,0:3:0:0:
257,34,129724,1,0,0:0:0:0:
156,79,129824,102,0,L|74:92,1,75,8|0,0:1|0:0,0:0:0:0:
380,41,130024,2,0,L|461:27,1,75,0|0,1:1|0:0,0:0:0:0:
5,179,130224,2,0,L|-1:216,3,22.4999993133545
5,179,130424,6,2,B|74:195|74:195|106:241|106:241|216:267,1,194.999991073609,0|0,0:0|0:0,0:1:0:0:
171,257,130824,102,0,P|187:249|220:246,1,37.5,2|2,0:0|0:0,0:0:0:0:
268,174,131024,6,0,P|301:180|339:228,1,67.4999979400635,0|0,3:0|3:0,0:0:0:0:
416,178,131224,102,0,P|435:236|420:284,1,97.4999955368044,2|2,0:3|0:3,0:0:0:0:
306,343,131424,5,10,2:2:0:0:
306,343,131524,1,0,2:0:0:0:
306,343,131624,1,0,2:0:0:0:
306,343,131824,86,0,L|330:329,1,18.75,0|0,1:0|0:0,0:0:0:0:
261,271,131924,2,0,L|288:263,1,18.75
252,187,132024,2,0,L|279:190,1,18.75,0|0,3:0|0:0,0:0:0:0:
281,107,132124,2,0,L|306:119,1,18.75,0|0,3:0|0:0,0:0:0:0:
342,49,132224,2,0,L|361:69,1,18.75,2|0,0:3|0:0,0:0:0:0:
426,20,132324,2,0,L|432:47,1,18.75,2|0,0:3|0:0,0:0:0:0:
505,153,132424,6,2,P|460:178|410:176,1,97.4999955368044,0|0,1:0|0:0,0:0:0:0:
97,121,132624,2,0,P|135:139|188:134,1,82.5000025177003,0|0,1:0|0:0,0:0:0:0:
415,177,132824,2,0,L|405:125,1,44.999998626709
337,384,133024,6,0,B|369:354|369:354|343:239|343:239|295:226,1,209.999993591309,10|0,0:1|0:0,0:0:0:0:
296,226,133224,2,0,B|278:202|278:202|299:105,1,129.375002467632,0|0,1:1|0:0,0:0:0:0:
236,37,133424,102,0,L|228:-4,3,37.5,2|0|0|0,0:0|0:0|0:0|0:0,0:0:0:0:
152,55,133624,2,0,L|142:8,5,37.5000014305115,2|0|0|0|0|0,1:2|0:0|0:0|0:0|0:0|0:0,0:0:0:0:
320,19,133823,1,2,0:1:0:0:
320,19,134624,6,0,P|349:30|363:70,1,56.2500021457673,12|0,0:0|0:0,0:0:0:0:
456,66,134824,2,0,P|456:117|414:170,1,89.9999972534181
258,188,135024,1,2,1:2:0:0:
229,181,135124,1,2,0:3:0:0:
221,210,135224,1,0,3:0:0:0:
250,218,135324,1,0,3:0:0:0:
307,280,135424,102,0,L|297:115,1,165.000005035401,2|0,0:3|0:0,0:0:0:0:
297,115,135624,2,0,L|341:104,2,37.5,0|0|0,1:0|0:0|0:0,0:0:0:0:
442,310,135824,1,2,1:2:0:0:
471,317,135924,1,0,0:0:0:0:
479,288,136024,1,2,0:0:0:0:
450,280,136124,1,2,0:0:0:0:
355,361,136224,6,2,B|323:366|323:366|323:369|323:369|318:366|318:366|237:379,1,120,8|0,0:1|0:0,0:0:0:0:
29,201,136424,1,0,1:0:0:0:
29,201,136524,1,0,0:0:0:0:
29,201,136624,2,0,L|39:237,3,22.4999993133545
28,201,136824,102,2,B|70:177|70:177|118:189,1,97.4999955368044,0|0,0:0|0:0,0:1:0:0:
77,384,137024,2,0,P|74:335|89:289,1,97.4999955368044,0|0,1:0|0:0,0:0:0:0:
191,331,137224,2,0,P|193:365|178:334,1,97.4999955368044,2|2,0:0|0:0,0:0:0:0:
327,224,137424,2,0,P|303:274|303:330,1,112.500004291535,0|0,3:0|3:0,0:0:0:0:
303,330,137624,2,0,P|282:278|241:240,1,112.500004291535,2|2,3:0|3:0,0:0:0:0:
118,189,137824,5,8,0:0:0:0:
111,110,137924,1,0,0:0:0:0:
100,35,138024,1,0,0:0:0:0:
100,35,138224,86,0,L|93:17,1,18.75,0|0,1:0|0:0,0:0:0:0:
173,2,138324,2,0,L|170:-16,1,18.75
250,6,138424,2,0,L|254:-12,1,18.75,0|0,3:0|0:0,0:0:0:0:
319,44,138524,2,0,L|329:28,1,18.75,0|0,3:0|0:0,0:0:0:0:
361,109,138624,2,0,L|376:98,1,18.75,2|0,0:3|0:0,0:0:0:0:
374,187,138724,2,0,L|392:185,1,18.75,2|0,0:3|0:0,0:0:0:0:
252,169,138824,6,0,L|243:115,1,37.5,0|0,1:3|0:0,0:0:0:0:
245,132,139024,2,0,P|187:133|150:168,1,112.500004291535,2|0,1:2|0:0,0:0:0:0:
191,331,139224,6,0,L|188:375,1,37.5,2|0,0:3|0:0,0:0:0:0:
188,368,139424,2,0,P|119:372|75:336,1,112.500004291535,8|0,1:0|0:0,0:0:0:0:
437,262,139624,102,0,L|427:237,1,22.4999993133545,2|2,1:2|0:0,0:0:0:0:
437,262,139724,2,0,L|436:226,1,22.4999993133545,2|2,0:2|0:0,0:0:0:0:
437,262,139824,2,0,L|404:236,1,22.4999993133545,10|2,3:2|3:3,0:0:0:0:
437,262,139924,2,0,L|455:226,1,22.4999993133545,2|2,3:3|3:3,0:0:0:0:
437,262,140024,6,2,B|369:189|424:103|498:168|439:232,1,187.5,4|0,1:2|0:0,0:1:0:0:
129,247,140224,38,0,L|24:261,2,104.999996795654
129,247,140624,6,0,P|130:220|126:194,2,52.4999983978272,2|0|0,0:0|0:0|0:0,0:0:0:0:
276,359,140824,2,0,P|320:337|363:291,2,97.4999955368044
220,280,141224,102,0,P|262:185|262:79,1,209.999993591309,0|8,0:0|0:1,0:0:0:0:
263,81,141824,21,4,1:2:0:0:
247,86,141924,1,2,0:0:0:0:
230,90,142024,1,2,0:3:0:0:
25,48,142224,1,0,1:0:0:0:
141,23,142424,1,0,1:0:0:0:
43,191,142624,85,0,3:0:0:0:
62,162,142724,1,0,0:0:0:0:
116,150,142824,1,0,0:0:0:0:
159,179,142924,1,2,3:0:0:0:
191,204,143024,1,0,1:0:0:0:
213,202,143124,1,2,0:3:0:0:
212,114,143224,22,0,L|225:-16,2,112.500004291535,2|2|2,0:0|0:0|1:2,0:0:0:0:
0,240,143724,86,0,L|5:296,2,56.2500021457673,2|0|0,0:1|0:0|0:0,0:0:0:0:
248,374,144024,22,0,B|272:361|272:361|285:331,1,56.2500021457673,0|0,3:0|0:0,0:0:0:0:
140,332,144224,1,0,0:0:0:0:
140,332,144324,2,0,B|138:359|138:359|158:386,1,56.2500021457673,0|0,3:0|0:0,0:0:0:0:
231,260,144524,1,0,0:0:0:0:
231,260,144624,2,0,B|207:244|207:244|174:248,1,56.2500021457673,0|0,3:0|0:0,0:0:0:0:
382,256,144824,85,2,1:2:0:0:
396,272,144924,1,2,0:0:0:0:
416,279,145024,1,0,0:3:0:0:
437,276,145124,1,0,0:0:0:0:
448,268,145224,21,2,0:3:0:0:
391,320,145324,1,2,0:3:0:0:
324,275,145424,1,2,1:2:0:0:
267,327,145524,1,2,1:2:0:0:
179,248,145624,86,0,P|176:197|201:127,1,112.500004291535,0|0,3:0|0:0,0:0:0:0:
55,83,145924,1,0,0:0:0:0:
49,94,146024,2,0,L|118:77,1,56.2500021457673,0|0,1:0|0:0,0:0:0:0:
276,36,146224,1,0,3:0:0:0:
276,36,146424,22,2,P|289:91|345:84,1,123.75000377655,0|0,0:0|0:0,0:0:0:0:
479,220,146824,1,2,0:0:0:0:
486,235,146924,2,0,L|387:218,1,97.4999955368044,2|0,0:3|0:0,0:0:0:0:
311,314,147224,86,0,B|292:335|292:335|292:368,1,56.2500021457673,0|0,3:0|0:0,0:0:0:0:
200,373,147424,1,0,0:0:0:0:
200,373,147524,2,0,B|190:346|190:346|161:330,1,56.2500021457673,0|0,3:0|0:0,0:0:0:0:
205,248,147724,1,0,0:0:0:0:
205,248,147824,2,0,B|232:252|232:252|261:236,1,56.2500021457673,0|0,3:0|0:0,0:0:0:0:
231,85,148024,21,2,1:2:0:0:
221,77,148124,1,2,0:0:0:0:
211,69,148224,2,0,L|204:151,2,56.2500021457673,0|0|0,1:0|0:0|0:0,0:0:0:0:
55,101,148524,2,0,L|137:94,1,56.2500021457673,2|0,0:3|0:0,0:0:0:0:
364,117,148724,1,0,0:0:0:0:
364,117,148824,2,0,L|292:102,1,56.2500021457673,2|0,1:3|0:0,0:0:0:0:
424,34,149024,85,0,3:0:0:0:
454,63,149124,1,0,0:0:0:0:
467,102,149224,1,0,0:0:0:0:
462,143,149324,1,0,3:0:0:0:
408,209,149424,21,0,3:0:0:0:
495,220,149524,1,0,0:0:0:0:
426,231,149624,1,0,3:0:0:0:
468,239,149724,1,0,3:0:0:0:
443,252,149824,85,0,1:0:0:0:
436,271,149924,2,0,P|429:303|435:341,1,56.2500021457673,2|0,0:0|0:0,0:0:0:0:
236,283,150124,22,0,P|287:271|349:305,1,112.500004291535,2|0,0:3|0:0,0:0:0:0:
442,344,150424,2,0,P|415:343|389:367,1,56.2500021457673,0|0,1:0|0:0,0:0:0:0:
281,363,150624,85,0,3:0:0:0:
35,318,150824,1,0,1:0:0:0:
281,363,151024,1,0,1:0:0:0:
35,318,151224,2,0,L|30:345,2,25,2|2|2,0:3|0:3|0:3,0:0:0:0:
61,208,151424,21,2,1:2:0:0:
81,213,151524,1,0,0:0:0:0:
96,231,151624,1,0,0:0:0:0:
185,227,151724,86,0,P|188:253|170:295,2,56.2500021457673,2|0|0,0:3|0:0|0:0,0:0:0:0:
273,190,152024,21,2,0:0:0:0:
284,173,152124,1,0,0:0:0:0:
306,164,152224,2,0,P|326:180|386:191,1,56.2500021457673,0|0,3:0|0:0,0:0:0:0:
507,95,152424,1,0,0:0:0:0:
489,90,152524,2,0,P|464:99|425:145,1,56.2500021457673,0|0,3:0|0:0,0:0:0:0:
400,288,152724,1,0,0:0:0:0:
412,300,152824,2,0,P|409:327|398:353,1,56.2500021457673,0|0,3:0|0:0,0:0:0:0:
185,227,153024,86,0,B|164:125|226:122|261:62|170:-5|109:14|63:120|182:164,1,359.999989013672,2|0,0:1|0:0,0:0:0:0:
120,80,153324,2,2,P|129:124|162:154,1,89.9999972534181,0|0,0:0|0:0,0:1:0:0:
272,195,153524,21,0,0:0:0:0:
272,195,153624,2,0,B|317:183|317:183|361:203,1,89.9999972534181,0|0,3:0|0:0,0:0:0:0:
341,354,153824,2,0,B|299:365|299:365|257:346,1,89.9999972534181,0|0,3:0|0:0,0:0:0:0:
309,275,154024,1,0,1:0:0:0:
309,275,154124,1,0,1:0:0:0:
380,356,154224,85,2,0:3:0:0:
352,384,154324,1,0,0:0:0:0:
244,376,154424,1,2,0:3:0:0:
215,344,154524,1,0,0:0:0:0:
127,274,154624,22,0,P|95:279|50:319,1,75,4|0,1:2|0:0,0:0:0:0:
132,355,154824,2,0,P|143:324|131:265,1,75,2|0,0:0|0:0,0:0:0:0:
72,34,155024,37,2,1:2:0:0:
82,49,155124,1,0,0:0:0:0:
43,128,155224,1,0,1:0:0:0:
119,171,155324,1,0,1:0:0:0:
127,274,155424,1,2,3:2:0:0:
134,258,155524,1,2,0:0:0:0:
218,210,155624,2,0,L|224:254,2,37.5,0|0|0,0:0|0:0|3:0,0:0:0:0:
195,51,155824,70,0,L|256:62,1,37.5,2|0,0:0|0:0,0:0:0:0:
212,72,155924,1,0,0:0:0:0:
184,37,156024,1,2,1:3:0:0:
247,81,156124,1,0,0:0:0:0:
216,59,156224,38,0,L|226:133,1,75,2|2,0:3|0:3,0:0:0:0:
367,167,156424,2,0,L|292:177,1,75,2|0,1:2|0:0,0:0:0:0:
83,207,156624,69,2,1:2:0:0:
73,194,156724,1,0,0:0:0:0:
33,120,156824,1,2,3:0:0:0:
64,286,156924,1,0,0:0:0:0:
123,349,157024,1,0,0:0:0:0:
208,353,157124,1,0,3:0:0:0:
131,369,157224,38,0,P|166:345|207:341,1,75,2|0,0:0|0:0,0:0:0:0:
218,210,157424,102,0,P|267:228|308:280,1,112.500004291535,2|0,3:0|0:0,0:0:0:0:
420,183,157624,6,0,P|449:251|440:324,1,150,2|2,1:2|1:2,0:0:0:0:
283,352,157824,70,0,P|291:315|313:285,1,75
371,357,158024,2,0,P|335:368|298:364,1,75,2|2,0:0|0:3,0:0:0:0:
118,188,158224,37,2,1:2:0:0:
110,173,158324,1,0,1:0:0:0:
117,80,158424,1,2,3:0:0:0:
228,230,158524,1,2,0:0:0:0:
43,252,158624,1,2,0:0:0:0:
33,264,158724,70,0,L|47:338,1,75
233,211,158924,1,0,0:0:0:0:
210,309,159024,2,0,L|158:318,1,37.5,2|0,3:2|0:0,1:0:0:0:
167,330,159124,2,0,L|203:323,1,37.5,0|0,0:0|0:0,1:0:0:0:
336,356,159224,37,2,1:3:0:0:
349,349,159290,1,2,1:3:0:0:
359,337,159357,1,2,1:3:0:0:
364,323,159424,69,2,0:0:0:0:
321,246,159524,1,0,0:0:0:0:
399,135,159624,1,2,0:3:0:0:
419,235,159724,1,2,0:0:0:0:
419,126,159824,38,0,L|402:232,1,93.75,0|0,1:0|1:0,0:0:0:0:
167,330,160024,2,0,L|150:256,1,75,2|0,3:0|0:0,0:0:0:0:
132,175,160224,1,0,0:0:0:0:
114,382,160324,70,0,L|153:160,1,225,0|2,3:0|0:0,0:0:0:0:
128,309,160424,2,0,L|152:160,1,150,2|0,1:2|0:0,0:0:0:0:
140,235,160524,2,0,L|153:161,1,75
170,84,160724,37,0,0:0:0:0:
166,68,160824,1,0,0:0:0:0:
162,52,160924,1,0,0:0:0:0:
248,134,161024,70,0,P|280:151|317:155,1,75,0|0,1:0|0:0,0:0:0:0:
307,67,161224,2,0,P|275:86|253:116,1,75,2|0,0:0|0:0,0:0:0:0:
333,297,161424,37,2,1:2:0:0:
348,290,161524,1,0,0:0:0:0:
426,334,161624,1,0,1:0:0:0:
468,257,161724,1,2,1:2:0:0:
432,125,161824,69,2,3:2:0:0:
416,113,161924,1,0,0:0:0:0:
443,29,162024,1,0,0:0:0:0:
385,195,162124,1,0,3:0:0:0:
330,76,162224,38,0,L|281:87,1,37.5,2|0,0:3|0:0,0:0:0:0:
307,67,162324,1,0,0:0:0:0:
270,165,162424,2,0,L|197:147,1,75,2|0,3:2|0:0,0:0:0:0:
13,101,162624,1,0,1:0:0:0:
22,115,162724,1,0,1:0:0:0:
76,252,162824,70,2,P|83:168|129:99,1,168.750006437302,2|0,0:0|0:0,0:0:0:0:
129,99,163024,38,0,P|116:134|114:171,1,75,2|0,0:0|0:0,0:0:0:0:
200,341,163224,69,2,1:2:0:0:
207,354,163324,1,0,1:0:0:0:
273,274,163424,1,0,3:0:0:0:
225,364,163524,1,0,0:0:0:0:
126,319,163624,38,0,P|82:328|54:351,1,75,2|0,1:2|0:0,0:0:0:0:
13,129,163824,2,0,P|60:136|120:178,1,112.500004291535,0|2,0:0|0:0,0:0:0:0:
273,274,164024,102,0,B|313:267|348:278|348:278|375:254|411:238,2,150,0|0|0,3:0|3:0|3:0,0:0:0:0:
220,185,164224,86,0,P|221:147|240:115,1,75,0|0,1:0|1:0,0:0:0:0:
304,179,164424,2,0,P|270:195|233:196,1,75,2|0,0:0|0:0,0:0:0:0:
101,43,164624,37,2,1:2:0:0:
111,27,164724,1,0,0:0:0:0:
158,102,164824,1,0,0:0:0:0:
21,30,164924,1,0,0:0:0:0:
28,185,165024,1,2,3:2:0:0:
21,167,165124,70,0,P|61:162|103:152,1,75,0|2,0:0|0:0,0:0:0:0:
240,115,165324,1,2,0:0:0:0:
158,102,165424,2,0,P|137:91|126:77,1,37.5,2|0,0:3|0:0,0:0:0:0:
126,67,165524,1,0,0:0:0:0:
139,42,165624,2,0,P|186:17|223:23,1,75,2|0,3:2|0:0,0:0:0:0:
331,126,165824,37,2,1:2:0:0:
326,144,165924,1,0,0:0:0:0:
391,244,166024,2,0,L|380:177,1,37.5,0|0,3:0|0:0,0:0:0:0:
370,233,166124,1,2,0:3:0:0:
274,273,166224,1,0,1:0:0:0:
424,321,166324,1,0,1:0:0:0:
332,337,166424,69,0,3:0:0:0:
337,350,166524,1,0,0:0:0:0:
342,362,166624,1,0,1:0:0:0:
264,286,166724,1,2,0:0:0:0:
157,297,166824,2,0,L|173:375,1,75,0|0,3:0|0:0,0:0:0:0:
210,117,167024,38,0,P|91:97|146:206,1,300,0|0,3:0|0:0,0:0:0:0:
157,71,167124,102,0,L|163:29,1,37.5,2|0,3:0|0:0,0:0:0:0:
91,98,167224,2,0,L|56:62,1,37.5,2|0,3:0|0:0,0:0:0:0:
86,170,167324,2,0,L|39:181,1,37.5,2|0,3:0|0:0,0:0:0:0:
146,206,167424,54,0,P|190:192|237:195,1,93.75,4|0,1:2|0:0,0:0:0:0:
318,359,167624,2,0,P|283:327|263:285,1,93.75,2|0,0:0|0:0,0:0:0:0:
298,120,167824,69,2,1:2:0:0:
314,97,167924,1,0,0:0:0:0:
354,177,168024,1,2,1:2:0:0:
398,49,168124,1,0,1:0:0:0:
479,132,168224,38,0,L|452:228,1,93.75,2|0,3:0|0:0,0:0:0:0:
318,359,168424,69,2,0:0:0:0:
394,276,168524,1,0,3:0:0:0:
368,188,168624,2,0,L|359:249,1,46.875,2|0,0:3|0:0,0:0:0:0:
473,313,168724,1,0,0:0:0:0:
307,378,168824,1,2,1:2:0:0:
318,359,168924,1,0,0:0:0:0:
258,285,169024,38,0,P|211:288|169:308,1,93.75,2|2,0:3|0:3,0:0:0:0:
35,206,169224,2,0,P|77:226|123:229,1,93.75,2|0,1:2|0:0,0:0:0:0:
298,120,169424,69,2,0:0:0:0:
285,93,169524,1,0,0:0:0:0:
254,196,169624,1,2,3:2:0:0:
384,140,169724,1,0,0:0:0:0:
255,15,169824,1,0,1:0:0:0:
337,209,169924,37,2,3:2:0:0:
348,225,170024,2,0,P|349:272|340:318,1,93.75,2|0,0:3|0:0,0:0:0:0:
463,384,170224,54,0,P|463:318|482:256,1,131.250001251698,0|0,3:0|0:0,0:0:0:0:
246,167,170424,6,0,P|220:246|220:330,1,168.750006437302,2|0,1:2|1:0,0:0:0:0:
472,172,170624,38,0,P|472:125|458:80,1,93.75
298,112,170824,2,0,P|298:158|312:203,1,93.75,2|0,0:3|0:0,0:0:0:0:
427,311,171024,69,2,1:2:0:0:
412,330,171124,1,0,0:0:0:0:
403,231,171224,1,2,3:0:0:0:
346,382,171324,1,0,0:0:0:0:
241,264,171424,1,2,0:3:0:0:
225,248,171524,38,0,L|244:339,1,93.75,2|0,0:0|0:0,0:0:0:0:
75,142,171724,1,0,0:0:0:0:
132,206,171824,70,0,L|122:265,1,46.875,2|0,3:0|0:0,0:0:0:0:
115,224,171924,1,0,0:0:0:0:
194,141,172024,2,0,L|201:94,1,46.875,2|0,0:0|0:0,1:0:0:0:
188,78,172124,2,0,L|180:124,1,46.875,0|0,0:0|0:0,1:0:0:0:
321,286,172224,37,2,1:2:0:0:
334,273,172324,1,0,0:0:0:0:
421,293,172424,1,2,1:2:0:0:
261,344,172524,1,2,0:3:0:0:
439,306,172624,70,0,P|454:251|455:194,1,112.500004291535,2|2,1:2|1:2,0:0:0:0:
400,107,172824,1,0,3:0:0:0:
361,384,172924,70,0,P|336:299|385:104,1,281.25,0|2,0:0|0:0,0:0:0:0:
335,293,173024,2,0,P|341:199|380:111,1,187.5,2|0,0:0|0:0,0:0:0:0:
341,199,173124,2,0,P|362:142|379:113,1,93.75,0|0,3:0|0:0,0:0:0:0:
463,51,173324,1,0,0:0:0:0:
283,91,173424,5,2,3:0:0:0:
283,91,173524,2,2,B|278:94|278:94|279:90|279:90|274:94|274:94|275:90|275:90|270:93|270:93|271:89|271:89|266:93|266:93|267:89|267:89|262:92|262:92|263:88|263:88|258:92|258:92|259:88|259:88|254:92|254:92|255:88|255:88|250:91|250:91|251:87|251:87|246:91|246:91|247:87|247:87|242:90|242:90|243:86|243:86|238:90|238:90|239:86|239:86|234:89|234:89|235:85|235:85|230:89|230:89|231:85|231:85|226:89|226:89|227:85|227:85|222:88|222:88|223:84|223:84|218:88|218:88|219:84|219:84|214:87|214:87|215:83|215:83|210:87|210:87|211:83|211:83|206:87|206:87|207:83|207:83|203:86|203:86|203:82|203:82|199:86|199:86|199:82|199:82|195:85|195:85|195:81|195:81|191:85|191:85|191:81|191:81|187:84|187:84|187:80|187:80|183:84|183:84|183:80|183:80|179:84|179:84|179:80|179:80|175:83|175:83|175:79|175:79|171:83|171:83|171:79|171:79|167:82|167:82|167:78|167:78|163:82|163:82|163:78|163:78|159:82|159:82|159:78|159:78|155:81|155:81|155:77|155:77|151:81|151:81|151:77|151:77|147:80|147:80|147:76|147:76|143:80|143:80|143:76|143:76|139:79|139:79|139:75|139:75|135:79|135:79|135:75|135:75|131:79|131:79|131:75|131:75|127:78|127:78|127:74|127:74|123:78|123:78|123:74|123:74|123:78|123:78|119:73|119:73|119:77|119:77|115:73|115:73|115:77|115:77|111:73|111:73|111:76|111:76|107:72|107:72|107:76|107:76|103:72|103:72|103:76|103:76|100:71|100:71|99:75|99:75|96:71|96:71|95:75|95:75|92:70|92:70|91:74|91:74|88:70|88:70|87:74|87:74|84:70|84:70|83:74|83:74|80:69|80:69|79:73|79:73|76:69|76:69|75:73|75:73|72:68|72:68|71:72|71:72|68:68|68:68|67:72|67:72|64:68|64:68|63:71|63:71|60:67|60:67|59:71|59:71|56:67|56:67|55:71|55:71|52:66|52:66|51:70|51:70|48:66|48:66|47:70|47:70|44:65|44:65|43:69|43:69|40:65|40:65|39:69|39:69|36:65|36:65|35:69,1,600,0|0,0:0|0:0,0:1:0:0:
141,169,173824,70,0,P|137:215|117:257,1,93.75,0|0,1:0|0:0,0:0:0:0:
172,365,174024,2,0,P|151:322|148:276,1,93.75,2|0,0:0|0:0,0:0:0:0:
350,36,174224,69,2,1:2:0:0:
374,47,174324,1,0,0:0:0:0:
455,20,174424,1,0,0:0:0:0:
311,109,174524,1,0,0:0:0:0:
461,190,174624,1,2,3:2:0:0:
470,170,174724,38,0,L|378:192,1,93.75,2|0,0:0|0:0,0:0:0:0:
331,346,174924,1,0,3:0:0:0:
374,275,175024,2,0,L|321:262,1,46.875,2|0,0:3|0:0,0:0:0:0:
250,245,175124,1,0,0:0:0:0:
127,319,175224,1,2,3:2:0:0:
135,337,175324,1,0,0:0:0:0:
163,242,175424,2,0,P|177:198|174:145,1,93.75,2|0,1:3|0:0,0:0:0:0:
43,66,175624,38,2,P|80:122|58:58,1,196.875001877546,2|0,0:0|0:0,0:0:0:0:
66,92,175824,22,0,P|52:136|55:189,1,93.75,2|0,0:0|0:0,0:0:0:0:
228,332,176024,37,2,1:2:0:0:
242,323,176124,1,0,0:0:0:0:
316,381,176224,1,0,3:0:0:0:
346,300,176324,1,0,0:0:0:0:
445,377,176424,70,0,L|426:265,1,112.500004291535,2|0,1:2|0:0,0:0:0:0:
507,120,176624,2,0,P|459:173|389:158,1,150,2|0,1:3|0:0,0:0:0:0:
180,95,176824,102,0,B|222:76|238:46|238:46|269:63|308:64,2,150,0|0|0,3:0|3:0|3:0,0:0:0:0:
302,235,177024,54,0,P|268:236|210:212,1,93.75,0|0,1:0|1:0,0:0:0:0:
2,157,177224,2,0,P|44:137|90:136,1,93.75,2|0,0:0|0:0,0:0:0:0:
228,332,177424,69,2,1:2:0:0:
220,351,177524,1,0,0:0:0:0:
144,311,177624,1,2,0:3:0:0:
305,370,177724,1,0,0:0:0:0:
125,297,177824,38,0,L|148:389,1,93.75,2|0,3:2|0:0,0:0:0:0:
319,353,178024,1,2,1:3:0:0:
121,220,178124,1,2,0:0:0:0:
144,311,178224,70,0,L|155:357,1,46.875,2|0,0:3|0:0,0:0:0:0:
333,336,178324,1,0,0:0:0:0:
117,143,178424,2,0,L|140:235,1,93.75,2|0,3:2|0:0,0:0:0:0:
390,276,178624,37,2,1:2:0:0:
337,220,178724,1,2,0:0:0:0:
428,169,178824,2,0,L|441:115,1,46.875,0|0,3:0|0:0,0:0:0:0:
329,93,178924,1,2,0:3:0:0:
465,27,179024,70,0,L|356:55,1,112.500004291535,2|0,1:2|1:0,0:0:0:0:
149,27,179224,1,2,3:2:0:0:
329,93,179324,1,0,0:0:0:0:
243,42,179424,38,0,P|238:88|240:135,1,93.75,2|0,1:2|0:0,0:0:0:0:
246,267,179624,2,0,P|250:220|248:173,1,93.75,2|0,3:2|0:0,0:0:0:0:
58,53,179824,70,0,P|36:199|159:113,1,375,0|0,3:0|0:0,0:0:0:0:
0,122,179924,102,0,L|-54:109,1,46.875,2|0,3:0|0:0,0:0:0:0:
38,200,180024,2,0,L|10:250,1,46.875,2|0,3:0|0:0,0:0:0:0:
125,198,180124,2,0,L|166:240,1,46.875,2|0,3:0|0:0,0:0:0:0:
159,115,180224,85,0,0:0:0:0:
223,29,180324,1,0,0:0:0:0:
318,17,180424,1,0,0:0:0:0:
397,57,180524,1,0,0:0:0:0:
425,133,180624,1,0,0:0:0:0:
403,198,180724,1,0,0:0:0:0:
354,237,180824,1,0,0:0:0:0:
306,239,180924,1,0,0:0:0:0:
281,224,181024,38,0,L|287:163,1,56.25
260,212,181224,2,0,L|265:156,1,56.25
288,140,181424,86,2,P|313:247|123:311,1,337.500012874604,0|0,0:0|0:0,0:1:0:0:
63,268,181824,102,0,L|61:250,2,15,0|2|8,1:0|0:0|0:0,0:0:0:0:
63,268,182624,6,0,L|212:282,1,150,8|0,0:1|0:0,0:0:0:0:
212,282,183024,101,8,1:2:0:0:
280,343,183224,2,0,L|283:375,4,30
396,37,183624,2,0,L|392:4,2,30,0|0|0,1:0|0:0|0:0,0:0:0:0:
479,59,183824,2,0,L|477:73,1,15,8|0,1:2|0:0,0:0:0:0:
478,74,184224,6,0,L|328:88,1,150,8|0,0:1|0:0,0:0:0:0:
18,32,184424,1,0,1:0:0:0:
116,20,184624,1,8,0:0:0:0:
116,20,184824,1,0,0:0:0:0:
18,32,185024,102,0,L|16:51,1,15,0|0,1:0|0:0,0:0:0:0:
253,259,185424,6,0,P|284:226|245:255,1,150,2|0,0:1|0:0,0:0:0:0:
253,259,185824,102,0,L|402:244,1,150,8|0,0:1|0:0,0:0:0:0:
510,369,186224,6,0,L|512:387,2,15,8|0|0,1:2|0:0|0:0,0:0:0:0:
494,271,186724,101,2,0:3:0:0:
503,248,186824,1,0,1:0:0:0:
500,226,186924,1,0,0:0:0:0:
402,244,187024,1,8,1:2:0:0:
373,208,187124,1,0,0:0:0:0:
378,161,187224,1,0,0:0:0:0:
410,130,187324,1,0,0:0:0:0:
500,226,187424,6,0,L|510:76,1,150,8|0,0:1|0:0,0:0:0:0:
204,12,187624,2,0,L|174:5,2,30,0|0|0,1:0|0:0|0:0,0:0:0:0:
218,102,187824,2,0,L|166:107,9,50,10|0|0|0|0|0|0|0|0|0,0:0|0:0|0:0|0:0|0:0|0:0|1:0|0:0|0:0|0:0,0:0:0:0:
312,297,188224,101,0,1:0:0:0:
312,297,188324,1,0,0:0:0:0:
312,297,188424,2,0,L|282:299,2,30,0|0|0,0:0|0:0|3:0,0:0:0:0:
388,368,188624,5,8,0:2:0:0:
412,332,188724,1,0,0:0:0:0:
418,285,188824,1,0,1:0:0:0:
402,244,188924,1,0,0:0:0:0:
314,300,189024,102,0,L|164:285,1,150,8|0,0:1|0:0,0:0:0:0:
164,285,189424,5,8,1:2:0:0:
220,131,189624,2,0,L|217:99,4,30
103,349,190024,2,0,L|107:382,2,30,0|0|0,1:0|0:0|0:0,0:0:0:0:
20,327,190224,2,0,L|22:313,1,15,8|0,1:2|0:0,0:0:0:0:
21,312,190624,102,0,L|170:297,1,150,8|0,0:1|0:0,0:0:0:0:
481,350,190824,1,0,1:0:0:0:
388,368,191024,1,8,0:0:0:0:
506,265,191224,5,0,1:0:0:0:
506,265,191424,1,0,1:0:0:0:
244,227,191624,102,0,P|275:194|236:223,2,150,2|0|0,0:1|0:0|3:0,0:0:0:0:
170,296,191824,5,8,0:0:0:0:
147,304,191924,1,0,1:0:0:0:
46,304,192024,1,2,0:3:0:0:
23,296,192124,1,2,0:3:0:0:
100,231,192224,102,0,L|110:81,1,150,8|0,0:1|0:0,0:0:0:0:
109,81,192624,2,0,L|93:77,1,15,8|0,1:2|0:0,0:0:0:0:
94,77,193024,6,0,L|85:-7,3,75,2|0|0|0,0:2|0:0|1:0|0:0,0:0:0:0:
13,92,193424,2,0,L|4:6,3,75,10|0|0|0,1:2|0:0|0:0|0:0,0:0:0:0:
393,175,193824,102,0,L|396:127,1,44.999998626709,8|0,0:1|0:0,0:0:0:0:
480,176,194024,2,0,L|483:130,3,44.999998626709,2|0|0|0,0:0|0:0|0:0|0:0,0:0:0:0:
308,172,194224,2,0,L|311:126,10,44.999998626709,8|0|0|0|0|0|0|0|0|0|0,0:1|0:0|0:0|0:0|0:0|0:0|0:0|0:0|0:0|0:0|0:0,0:0:0:0:
91,223,194624,22,2,B|135:211|135:211|144:255,1,89.9999972534181,4|0,1:2|0:0,0:0:0:0:
438,325,194824,2,2,B|380:338|380:338|367:279,1,120,0|0,0:0|0:0,0:0:0:0:
85,163,195024,22,2,B|158:183|158:183|140:284,1,150,0|0,0:1|0:0,0:1:0:0:
512,310,195224,2,2,B|410:289|410:289|447:335,1,150,0|0,0:0|0:0,0:1:0:0:
262,383,195424,85,8,0:1:0:0:
262,383,195524,1,2,0:3:0:0:
262,383,195624,2,2,L|253:278,1,97.4999955368044,2|0,0:3|0:0,0:0:0:0:
388,115,195824,22,2,B|365:18|272:-19|185:7|185:7|252:21|252:94,1,360,0|0,1:0|0:0,0:1:0:0:
152,353,196224,86,2,L|143:248,1,97.4999955368044,0|0,0:0|0:0,0:0:0:0:
148,123,196424,2,0,P|142:88|162:118,1,97.4999955368044,0|0,1:0|0:0,0:0:0:0:
82,191,196624,21,2,1:3:0:0:
82,191,196724,1,2,0:3:0:0:
82,191,196824,2,2,P|106:156|105:101,1,97.4999955368044,2|0,0:3|0:0,0:1:0:0:
0,169,197024,2,2,P|-1:120|24:80,1,97.4999955368044,8|0,0:1|0:0,0:1:0:0:
145,256,197224,86,2,B|195:230|254:163|250:72|250:72|276:143|328:194|413:213,1,450.000017166138,2|0,1:3|0:0,0:0:0:0:
251,74,197424,2,2,P|313:165|414:213,1,225.000008583069,2|0,0:3|0:0,0:0:0:0:
414,214,197624,2,2,P|437:184|497:168,1,75,2|0,0:3|0:0,0:0:0:0:
495,259,197824,21,2,1:2:0:0:
492,269,197890,1,2,0:0:0:0:
492,280,197958,1,2,0:0:0:0:
494,291,198024,1,2,0:3:0:0:
494,291,198224,86,2,P|519:157|416:-66,1,382.500007295609,2|0,0:1|0:0,0:1:0:0:
494,291,198624,2,0,P|435:200|418:307,1,269.999991760254,8|0,0:1|0:0,0:0:0:0:
93,339,198924,21,0,0:0:0:0:
86,353,199024,2,0,L|182:342,1,97.4999955368044,0|0,1:0|0:0,0:0:0:0:
362,100,199224,21,2,0:3:0:0:
303,152,199324,1,2,0:3:0:0:
273,224,199424,1,2,0:3:0:0:
277,302,199524,1,2,0:3:0:0:
314,371,199624,2,0,L|430:358,1,97.4999955368044,2|0,1:3|0:0,0:0:0:0:
362,100,199824,5,2,1:3:0:0:
304,195,199924,1,2,0:3:0:0:
207,249,200024,1,2,0:3:0:0:
96,249,200124,1,2,0:3:0:0:
0,195,200224,1,10,0:1:0:0:
0,195,200424,22,2,P|21:164|20:108,10,59.9999981689454,0|0|0|0|0|0|0|0|0|0|0,1:0|0:0|0:0|0:0|0:0|0:0|0:0|0:0|0:0|0:0|0:0,0:1:0:0:
116,117,200824,2,2,P|114:67|85:27,4,100,0|0|0|0|0,1:0|0:0|0:0|0:0|0:0,0:1:0:0:
96,249,201024,6,0,P|181:320|325:311,1,258.750004935265,0|0,1:0|0:0,0:0:0:0:
405,337,201224,2,2,L|415:262,1,75,2|0,0:1|0:0,0:1:0:0:
322,312,201424,22,0,L|317:267,4,31.25,0|0|0|0|0,0:0|0:0|0:0|0:0|0:0,1:0:0:0:
414,262,201624,2,0,L|465:267,4,50,0|0|0|0|0,1:0|0:0|0:0|0:0|0:0,1:0:0:0:
272,175,201824,85,8,0:1:0:0:
192,162,201924,1,2,0:0:0:0:
109,150,202024,1,2,0:3:0:0:
26,140,202124,1,2,0:3:0:0:
85,27,202224,22,2,B|221:12|221:12|254:255,1,382.500007295609,0|0,1:0|0:0,0:1:0:0:
273,367,202624,86,2,L|145:349,1,127.50000243187,2|0,0:1|0:0,0:0:0:0:
0,266,202824,2,0,B|27:211|91:230|91:230|64:273,1,127.50000243187,2|0,1:3|0:0,0:0:0:0:
56,372,203024,1,2,1:2:0:0:
56,372,203124,1,2,0:0:0:0:
56,372,203224,2,2,L|62:329,1,37.5,2|0,0:0|0:0,0:0:0:0:
242,191,203424,22,2,L|370:209,1,112.500004291535,8|0,0:1|0:0,0:0:0:0:
366,123,203624,70,2,L|370:93,1,30,0|0,1:0|0:0,0:1:0:0:
342,103,203724,2,2,P|355:95|370:92,1,30,0|0,0:0|0:0,0:1:0:0:
313,67,203824,2,2,P|308:88|309:111,1,44.999998626709,8|0,0:3|0:0,0:1:0:0:
244,97,203924,2,2,P|254:117|270:132,1,44.999998626709,8|0,0:3|0:0,0:1:0:0:
199,191,204024,2,2,P|226:204|255:205,1,60,4|0,0:3|0:0,0:1:0:0:
229,303,204124,2,2,P|265:296|294:272,1,75,4|0,0:3|0:0,0:1:0:0:
362,367,204224,2,2,P|380:327|375:284,1,89.9999972534181,0|0,1:3|0:0,0:1:0:0:
507,283,204324,2,2,P|485:245|446:224,1,89.9999972534181,0|0,1:3|0:0,0:1:0:0:
353,206,204424,6,0,L|344:134,1,37.5,0|0,0:0|3:0,0:0:0:0:
347,155,204624,1,8,0:0:0:0:
146,349,204824,21,2,0:3:0:0:
155,357,204924,1,2,0:3:0:0:
163,368,205024,2,0,L|145:226,1,97.4999955368044,8|0,0:1|0:0,0:0:0:0:
47,103,205224,85,2,0:3:0:0:
47,103,205324,1,2,0:3:0:0:
47,103,205424,2,0,P|45:53|77:21,1,82.5000025177003,2|0,1:2|0:0,0:0:0:0:
121,124,205624,2,0,P|143:90|138:49,1,82.5000025177003,2|0,0:2|0:0,0:0:0:0:
150,271,205824,22,0,L|43:286,1,82.5000025177003,2|0,0:1|0:0,0:0:0:0:
363,235,206024,2,0,L|470:220,1,82.5000025177003,8|0,1:0|0:0,0:0:0:0:
234,190,206224,86,0,L|174:182,3,41.2500012588501,10|0|0|0,1:2|0:0|0:0|0:0,0:0:0:0:
248,194,206424,2,0,L|234:94,1,82.5000025177003
503,130,206624,21,8,0:0:0:0:
235,99,206824,1,8,1:2:0:0:
503,130,207024,86,0,L|508:80,4,27.5000008392334,8|0|0|0|0,0:1|0:0|0:0|0:0|0:0,0:0:0:0:
419,120,207224,2,0,L|424:70,4,27.5000008392334,2|0|0|0|0,1:2|0:0|0:0|0:0|0:0,0:0:0:0:
363,235,207424,86,0,L|377:350,1,112.5,2|0,1:2|0:0,0:0:0:0:
376,346,207824,2,0,P|329:353|308:373,1,75,10|0,0:0|0:0,0:0:0:0:
211,317,208124,1,0,0:0:0:0:
203,329,208224,2,0,P|155:322|134:302,1,75,0|0,3:0|0:0,0:0:0:0:
136,305,208524,2,0,P|106:205|46:180,1,168.750006437302,2|0,0:3|0:0,0:0:0:0:
53,180,208924,1,2,0:0:0:0:
10,298,209024,69,0,0:0:0:0:
10,298,209124,1,0,0:0:0:0:
10,298,209324,2,0,L|18:250,1,37.5,2|8,0:0|0:0,0:0:0:0:
247,194,209524,2,0,L|240:230,1,37.5,2|0,0:0|0:0,0:0:0:0:
435,325,209724,1,0,0:0:0:0:
449,323,209824,2,0,L|462:239,1,75,2|0,0:3|0:0,0:0:0:0:
397,107,210124,2,0,P|366:124|323:129,2,75,2|0|0,3:3|0:0|0:0,0:0:0:0:
332,8,210624,37,0,0:0:0:0:
332,8,210824,2,0,P|323:32|338:12,1,67.4999979400635
482,155,211024,1,10,0:0:0:0:
482,155,211124,1,2,3:3:0:0:
482,155,211224,2,0,P|490:138|493:120,2,37.5,0|0|0,3:0|0:0|0:0,0:0:0:0:
223,60,211524,1,0,3:0:0:0:
223,60,211624,1,0,3:0:0:0:
223,60,211824,2,0,L|175:68,1,37.5,0|0,0:0|0:0,1:0:0:0:
52,205,212024,70,2,P|41:301|57:205,1,300,2|0,0:0|0:0,0:1:0:0:
55,254,212624,1,8,0:0:0:0:
55,254,212924,38,0,P|103:280|159:282,1,112.500004291535,2|0,0:0|0:0,0:0:0:0:
211,166,213224,1,0,0:0:0:0:
208,152,213324,1,0,0:0:0:0:
114,108,213424,1,8,3:2:0:0:
110,125,213524,1,0,3:0:0:0:
7,155,213624,1,0,0:0:0:0:
0,126,213724,1,0,0:0:0:0:
298,151,213824,69,0,1:0:0:0:
298,151,214124,2,0,L|355:145,1,37.5,2|8,0:0|0:0,0:0:0:0:
392,1,214324,2,0,L|335:7,1,37.5
294,268,214524,1,0,0:0:0:0:
302,281,214624,2,0,P|349:274|370:254,1,75,2|0,0:0|0:0,0:0:0:0:
369,257,214924,2,0,P|399:157|459:132,1,168.750006437302,2|0,0:3|0:0,0:0:0:0:
452,132,215324,1,0,0:0:0:0:
495,250,215424,37,2,1:2:0:0:
495,250,215524,2,0,L|487:202,1,37.5
217,202,215724,2,0,L|211:166,1,37.5,2|8,1:2|0:0,0:0:0:0:
379,74,215924,1,0,0:0:0:0:
379,74,216024,1,0,0:0:0:0:
379,74,216124,1,0,0:0:0:0:
379,74,216224,2,0,L|392:-9,1,75,2|0,0:3|0:0,0:0:0:0:
451,132,216524,2,0,P|455:169|482:198,2,75,2|0|0,3:3|0:0|0:0,0:0:0:0:
211,166,217024,70,0,L|139:156,1,37.5,2|0,1:2|0:0,0:0:0:0:
0,219,217224,2,0,L|77:231,1,78.7499975967408,2|0,1:1|0:0,0:0:0:0:
196,333,217424,1,8,0:0:0:0:
276,314,217524,1,2,3:2:0:0:
319,242,217624,1,0,3:0:0:0:
399,261,217724,1,0,0:0:0:0:
460,334,217824,37,0,0:0:0:0:
460,334,217924,1,0,3:0:0:0:
460,334,218024,2,0,L|454:371,1,37.5,0|0,3:0|0:0,0:0:0:0:
369,378,218224,1,0,0:0:0:0:
369,378,218324,1,0,0:0:0:0:
369,378,218424,2,0,L|375:341,1,37.5
196,333,218624,6,0,P|175:332|154:337,1,41.2500012588501,2|0,1:2|0:0,0:0:0:0:
170,318,218724,2,0,P|155:323|144:333,1,30
144,317,218824,2,0,P|135:329|133:343,1,20.6250006294251
122,324,218924,2,0,P|120:331|123:341,1,11.2499996566773,0|0,1:0|0:0,0:0:0:0:
87,302,219024,6,0,P|88:315|102:331,1,30
58,263,219124,2,0,P|56:278|67:303,1,41.2500012588501
63,207,219224,2,0,P|45:228|40:255,1,52.4999983978272,2|0,1:2|0:0,0:0:0:0:
112,166,219324,2,0,P|78:165|50:179,1,63.7500012159348,2|0,0:0|0:0,0:0:0:0:
198,169,219424,102,2,P|173:138|137:121,1,78.7499975967408
285,193,219524,2,2,P|264:155|227:131,1,86.2500016450882
347,121,219624,2,2,P|304:99|255:101,1,97.4999955368044
322,26,219724,2,2,P|278:46|249:85,1,97.4999955368044
170,0,219824,5,8,0:1:0:0:
170,0,220224,22,0,L|134:8,1,37.5,4|0,1:0|0:0,0:0:0:0:
59,99,220424,21,0,0:0:0:0:
49,182,220524,1,0,0:0:0:0:
68,104,220624,1,0,0:0:0:0:
58,187,220724,1,0,0:0:0:0:
156,225,220824,85,2,0:3:0:0:
166,308,220924,1,0,0:0:0:0:
147,230,221024,1,2,0:0:0:0:
157,313,221124,1,0,0:0:0:0:
138,234,221224,1,0,0:0:0:0:
148,317,221324,1,0,0:0:0:0:
37,384,221424,54,2,P|27:351|30:318,1,67.4999979400635,0|0,0:0|0:0,0:1:0:0:
29,318,221824,86,0,L|65:326,1,37.5,0|0,1:0|0:0,0:0:0:0:
249,364,222024,85,0,0:0:0:0:
332,354,222124,1,0,0:0:0:0:
251,354,222224,1,0,0:0:0:0:
334,344,222324,1,0,0:0:0:0:
390,256,222424,21,2,0:3:0:0:
473,266,222524,1,2,0:0:0:0:
393,246,222624,1,0,0:0:0:0:
476,256,222724,1,0,0:0:0:0:
396,236,222824,1,0,0:0:0:0:
479,246,222924,1,0,0:0:0:0:
512,145,223024,22,2,P|514:111|505:79,1,67.4999979400635,0|0,0:0|0:0,0:1:0:0:
505,79,223424,54,0,L|469:87,1,37.5,0|0,1:0|0:0,0:0:0:0:
353,168,223624,21,0,0:0:0:0:
270,158,223724,1,0,0:0:0:0:
227,51,223824,1,2,0:3:0:0:
144,61,223924,1,0,0:0:0:0:
223,41,224024,1,2,0:0:0:0:
140,51,224124,1,0,0:0:0:0:
68,133,224224,86,0,L|64:171,1,37.5,0|0,1:0|0:0,0:0:0:0:
144,275,224424,21,0,0:0:0:0:
227,265,224524,1,0,0:0:0:0:
270,158,224624,1,2,0:3:0:0:
353,168,224724,1,0,0:0:0:0:
274,148,224824,1,2,0:0:0:0:
357,158,224924,1,0,0:0:0:0:
451,218,225024,86,0,L|455:256,1,37.5,0|0,1:0|0:0,0:0:0:0:
353,382,225224,21,0,0:0:0:0:
270,372,225324,1,0,0:0:0:0:
227,265,225424,1,2,0:3:0:0:
144,275,225524,1,0,0:0:0:0:
223,255,225624,1,2,0:0:0:0:
140,265,225724,1,0,0:0:0:0:
60,363,225824,86,0,L|56:351,1,11.2499996566773,2|0,0:3|0:0,0:0:0:0:
60,363,225924,2,0,L|64:352,1,11.2499996566773,2|0,0:3|0:0,0:0:0:0:
60,363,226024,2,0,L|49:358,1,11.2499996566773
60,363,226124,2,0,L|70:359,1,11.2499996566773
238,370,226224,54,2,P|240:336|231:304,1,67.4999979400635,0|0,0:0|0:0,0:1:0:0:
231,304,226624,6,0,L|156:312,10,56.2500021457673,2|0|0|0|0|0|0|0|0|0|0,1:2|0:0|0:0|0:0|0:0|0:0|0:0|0:0|0:0|0:0|0:0,0:0:0:0:
297,128,227024,69,2,1:2:0:0:
294,111,227124,1,0,0:0:0:0:
294,94,227224,1,0,0:0:0:0:
297,77,227324,1,0,0:0:0:0:
303,62,227424,2,0,L|343:66,6,30,2|0|0|0|0|0|0,1:2|0:0|0:0|0:0|0:0|0:0|0:0,0:0:0:0:
260,214,227824,53,10,1:0:0:0:
260,214,228224,38,2,B|89:184|89:184|139:188|157:231,1,255.000004863739,4|0,1:1|0:0,0:0:0:0:
366,200,228524,69,0,1:0:0:0:
366,200,228624,2,2,B|374:139|374:139|316:129,1,120,0|0,1:1|0:0,0:1:0:0:
65,313,228824,2,2,B|41:335|41:335|143:312,1,134.999995880127,0|0,1:0|0:0,0:1:0:0:
228,9,229024,37,0,0:1:0:0:
203,17,229124,1,2,1:3:0:0:
178,24,229224,2,2,L|187:129,1,97.4999955368044,2|0,1:3|0:0,0:0:0:0:
297,309,229424,69,8,0:1:0:0:
391,311,229524,1,0,0:0:0:0:
471,260,229624,1,2,0:3:0:0:
510,174,229724,1,2,0:3:0:0:
394,116,229824,38,2,B|349:129|349:129|366:200,1,120,0|0,1:0|0:0,0:0:0:0:
85,364,230024,69,2,0:3:0:0:
85,364,230124,1,2,1:3:0:0:
85,364,230224,2,2,P|70:322|86:262,1,89.9999972534181,0|0,1:1|0:0,0:0:0:0:
174,353,230424,2,0,P|180:308|165:266,1,89.9999972534181,2|0,1:3|0:0,0:1:0:0:
0,154,230624,38,0,L|110:168,1,104.999996795654,2|0,0:2|1:0,0:1:0:0:
367,201,230824,69,0,1:0:0:0:
380,198,230924,1,2,3:2:0:0:
405,194,231024,1,8,3:1:0:0:
392,197,231124,1,0,3:0:0:0:
399,272,231224,38,2,P|394:177|444:98,1,191.250003647804,0|0,0:0|0:0,0:1:0:0:
444,98,231424,2,0,L|500:113,1,52.4999983978272,4|0,1:2|0:0,1:0:0:0:
477,335,231624,22,0,P|337:386|213:239,1,330.000010070801,2|0,0:3|0:0,0:0:0:0:
408,380,231724,2,0,P|359:366|328:331,1,60,2|0,1:3|0:0,0:0:0:0:
327,384,231824,2,0,P|307:345|302:297,1,69.3749997353554,2|0,1:3|0:0,0:0:0:0:
256,344,231924,2,0,P|265:295|295:251,1,78.7499975967408,2|0,0:3|0:0,0:0:0:0:
217,274,232024,2,0,P|246:238|292:218,2,97.4999955368044,2|0|0,1:3|0:0|0:0,0:0:0:0:
337,59,232224,101,8,0:0:0:0:
337,59,232324,1,0,1:0:0:0:
337,59,232424,2,0,P|171:-2|25:173,1,389.999982147218,2|0,1:3|0:0,0:0:0:0:
264,6,232524,2,0,P|206:22|170:64,1,67.4999979400635,2|0,0:3|0:0,0:0:0:0:
162,0,232624,2,0,P|138:46|133:103,1,76.8750011730194,2|0,0:3|0:0,0:0:0:0:
77,47,232724,2,0,P|88:105|123:157,1,86.2500016450882,2|0,0:3|0:0,0:0:0:0:
30,130,232824,2,2,P|65:173|120:196,2,112.500004291535,2|0|0,0:3|0:0|0:3,1:0:0:0:
399,272,233024,53,0,1:2:0:0:
399,272,233124,1,0,0:0:0:0:
399,272,233224,2,0,P|413:228|397:171,1,89.9999972534181,0|0,0:0|1:0,0:0:0:0:
305,258,233424,1,0,0:0:0:0:
305,258,233524,1,2,0:3:0:0:
305,258,233624,2,2,P|297:214|312:172,1,89.9999972534181,0|0,1:0|0:0,0:0:0:0:
215,358,233824,38,2,L|166:363,1,28.1250010728836,10|0,0:0|0:0,0:1:0:0:
210,279,233924,2,2,L|164:284,1,28.1250010728836,2|0,1:2|0:0,0:1:0:0:
204,200,234024,2,2,L|158:205,1,28.1250010728836,2|0,1:2|0:0,0:1:0:0:
199,121,234124,2,2,L|153:126,1,28.1250010728836,2|0,0:0|0:0,0:1:0:0:
337,59,234224,69,8,0:1:0:0:
337,59,234624,38,2,B|539:93|539:93|556:140,1,255.000004863739,4|0,1:1|0:0,0:0:0:0:
354,223,234924,69,0,1:0:0:0:
354,223,235024,2,2,P|303:239|288:291,1,112.500004291535,0|0,1:1|0:0,0:1:0:0:
456,375,235224,2,2,L|442:256,1,112.500004291535,0|0,1:0|0:0,0:1:0:0:
150,79,235424,37,0,0:1:0:0:
150,79,235524,1,2,1:3:0:0:
150,79,235624,2,2,P|178:58|236:82,1,75,2|0,1:3|0:0,0:0:0:0:
312,73,235824,70,2,P|165:138|172:-20,1,382.500007295609,8|0,0:1|0:1,0:1:0:0:
217,63,236224,38,2,B|227:167,1,89.9999972534181,0|0,1:0|0:0,0:0:0:0:
438,253,236424,69,2,0:3:0:0:
438,253,236524,1,2,1:3:0:0:
438,253,236624,2,0,B|378:253|324:218|324:218|338:295,1,172.500003290176,2|0,1:2|0:0,0:1:0:0:
111,141,236824,2,2,B|157:87|232:107|232:107|224:159,1,179.999994506836,2|0,1:3|0:0,0:0:0:0:
227,287,237024,101,2,0:1:0:0:
205,378,237124,1,2,0:1:0:0:
114,357,237224,1,2,0:1:0:0:
135,265,237324,1,2,0:1:0:0:
196,328,237424,69,2,0:0:0:0:
164,347,237524,1,2,0:0:0:0:
144,316,237624,1,2,0:0:0:0:
176,296,237724,1,2,0:0:0:0:
169,321,237824,6,0,L|161:209,1,112.500004291535,4|0,1:2|0:0,0:0:0:0:
93,42,238024,101,2,0:3:0:0:
173,5,238124,1,2,1:3:0:0:
261,21,238224,1,2,1:3:0:0:
324,83,238324,1,2,0:3:0:0:
341,170,238424,2,0,L|252:184,1,89.9999972534181,2|0,1:3|0:0,0:0:0:0:
406,334,238624,2,0,L|317:348,1,89.9999972534181,8|0,0:0|1:0,0:0:0:0:
445,215,238824,5,2,1:3:0:0:
361,184,238924,1,2,0:3:0:0:
275,206,239024,1,2,0:3:0:0:
221,276,239124,1,2,0:3:0:0:
197,360,239224,1,2,0:3:0:0:
111,384,239324,1,2,3:2:0:0:
29,352,239424,85,0,1:0:0:0:
29,352,239524,1,2,0:3:0:0:
29,352,239624,2,0,P|46:308|42:241,1,89.9999972534181,2|0,0:3|0:0,0:0:0:0:
125,228,239824,2,0,P|116:199|100:176,3,56.2500021457673,2|0|0|0,0:0|0:0|0:0|0:0,0:0:0:0:
153,109,240024,2,0,P|130:93|103:85,3,41.2500012588501,2|0|0|0,0:0|0:0|0:0|0:0,0:0:0:0:
423,174,240224,70,2,P|347:107|304:16,1,202.499993820191,2|0,3:2|0:0,0:0:0:0:
235,201,240424,2,2,P|291:113|305:13,1,202.499993820191,2|0,3:2|0:0,0:0:0:0:
90,61,240624,102,2,P|83:109|103:53,1,225.000008583069,2|0,0:1|0:0,0:1:0:0:
343,264,241024,54,0,P|338:282|343:307,1,33.7499989700318,0|0,3:0|3:0,0:0:0:0:
320,296,241124,2,0,P|326:302|333:308,1,18.75,0|0,3:0|3:0,0:0:0:0:
333,320,241224,1,0,3:0:0:0:
333,320,241424,69,0,0:0:0:0:
231,352,241524,1,0,0:0:0:0:
147,306,241624,1,0,0:0:0:0:
107,228,241724,1,0,0:0:0:0:
129,150,241824,38,0,P|158:142|178:122,1,52.4999983978272,0|0,3:0|3:0,0:0:0:0:
191,170,241924,2,0,P|199:144|193:109,1,41.2500012588501,0|0,3:0|3:0,0:0:0:0:
237,146,242024,2,0,P|229:132|220:125,1,26.2499991989136,0|0,3:0|3:0,0:0:0:0:
243,118,242124,2,0,P|231:116|220:120,1,22.4999993133545,0|0,3:0|3:0,0:0:0:0:
171,23,242224,53,8,0:1:0:0:
171,23,242624,38,0,P|269:11|357:165,1,269.999991760254,4|0,1:0|0:0,0:0:0:0:
372,227,242824,2,0,P|414:249|475:246,1,89.9999972534181,0|2,0:0|1:2,0:0:0:0:
502,178,243024,1,2,1:3:0:0:
479,336,243124,1,2,0:0:0:0:
502,178,243224,1,2,1:2:0:0:
479,336,243324,1,2,0:0:0:0:
455,250,243424,70,2,L|210:277,1,225.000008583069,2|0,3:3|0:0,0:0:0:0:
231,274,243624,2,2,B|142:206|142:206|24:253,1,225.000008583069,2|0,1:3|0:0,0:0:0:0:
37,247,243824,38,0,L|46:349,2,89.9999972534181,8|2|0,0:1|0:3|0:0,0:0:0:0:
59,145,244124,70,2,B|173:20|126:-28|35:-49|3:0|0:91|91:106|135:103,1,359.999989013672,4|0,1:2|0:0,1:1:0:0:
192,92,244424,38,0,L|243:86,1,37.5,2|2,0:0|0:0,0:0:0:0:
195,114,244524,2,0,L|282:104,1,75,0|0,1:0|1:0,0:0:0:0:
468,11,244724,1,0,0:0:0:0:
357,20,244824,2,0,P|393:33|442:34,1,75,0|0,1:0|0:0,0:0:0:0:
460,157,245024,1,0,0:0:0:0:
450,200,245124,1,0,1:0:0:0:
339,220,245224,1,0,1:0:0:0:
329,263,245324,1,0,0:0:0:0:
337,360,245424,70,2,B|360:231|360:231|373:223|373:223|360:231|360:231|360:231|360:231|360:231|360:231|373:223|373:223|360:231|360:231|373:223|373:223|360:231|360:231|373:223|373:223|360:231|360:231|373:223|373:223|360:231|360:231|373:223|373:223|423:195|423:195|407:122|407:122|378:100|378:100|357:20,1,539.999983520508,4|0,1:2|0:0,0:1:0:0:
237,48,245824,38,0,P|255:95|252:144,1,89.9999972534181,4|0,1:0|0:0,0:0:0:0:
479,0,246024,70,0,P|461:47|464:96,1,56.2500021457673,0|0,0:0|1:0,0:0:0:0:
215,204,246224,38,0,P|206:241|189:275,1,75,0|0,1:0|0:0,0:0:0:0:
459,277,246424,70,0,P|459:333|480:385,1,112.500004291535,0|0,1:0|0:0,0:0:0:0:
505,185,246624,38,0,P|473:174|436:177,1,56.2500021457673,0|0,0:0|1:0,0:0:0:0:
501,150,246824,2,0,P|477:165|450:173,1,56.2500021457673,0|0,1:0|0:0,0:0:0:0:
369,230,247024,1,8,0:1:0:0:
291,216,247124,1,2,0:0:0:0:
337,183,247224,1,2,0:3:0:0:
323,262,247324,1,2,0:3:0:0:
251,339,247424,70,2,P|246:244|195:105,1,225.000008583069,0|0,1:0|0:0,0:1:0:0:
204,121,247624,38,0,L|190:220,1,75,2|0,0:1|1:0,0:0:0:0:
5,92,247824,70,0,L|17:220,1,112.500004291535,0|0,1:0|0:0,0:0:0:0:
293,140,248024,38,2,L|271:229,1,75,0|0,1:0|0:0,0:0:0:0:
93,376,248224,69,2,0:0:0:0:
84,284,248324,1,0,1:0:0:0:
110,190,248424,1,0,1:0:0:0:
124,100,248524,1,2,1:3:0:0:
118,13,248624,102,0,P|146:13|169:6,1,52.5,8|0,0:1|0:0,0:0:0:0:
243,82,249024,54,0,P|320:11|489:35,1,269.999991760254,4|0,1:0|0:0,0:0:0:0:
368,85,249224,2,0,P|412:87|449:113,1,89.9999972534181,0|2,0:0|1:2,0:0:0:0:
512,215,249424,1,2,1:3:0:0:
346,184,249524,1,0,0:0:0:0:
511,224,249624,1,2,1:2:0:0:
345,193,249724,1,2,0:0:0:0:
496,334,249824,70,2,B|392:380|392:380|317:292,1,225.000008583069,2|0,3:0|0:0,0:0:0:0:
319,295,250024,2,2,B|215:249|215:249|142:333,1,225.000008583069,2|0,1:3|0:0,0:0:0:0:
142,333,250224,38,0,L|154:243,2,89.9999972534181,2|2|8,3:0|0:3|0:1,0:0:0:0:
60,185,250524,1,0,1:0:0:0:
11,330,250624,70,0,L|27:211,1,120,0|0,0:0|0:0,1:0:0:0:
27,211,250824,38,2,L|-5:20,1,179.999994506836,4|0,0:0|0:0,0:1:0:0:
108,31,251024,70,0,P|106:58|114:85,1,56.2500021457673,2|0,0:0|0:0,0:0:0:0:
86,39,251224,2,0,P|96:65|114:85,1,56.2500021457673,2|0,0:3|0:0,0:0:0:0:
212,122,251424,1,0,0:0:0:0:
223,230,251524,1,0,0:0:0:0:
227,132,251624,1,2,0:3:0:0:
236,219,251724,1,2,0:0:0:0:
348,159,251824,1,2,0:1:0:0:
348,159,252224,38,0,L|361:63,1,89.9999972534181,4|0,1:0|0:0,0:0:0:0:
500,5,252424,70,0,P|511:27|511:64,1,56.2500021457673,2|0,0:2|1:0,0:0:0:0:
273,46,252624,38,0,P|294:16|327:0,1,75,2|0,1:3|0:0,0:0:0:0:
421,273,252824,70,0,P|366:267|319:237,1,112.500004291535,2|0,1:3|0:0,0:0:0:0:
190,66,253024,38,0,L|175:148,1,56.2500021457673,2|2,0:0|1:2,0:0:0:0:
167,72,253224,2,0,L|200:117,1,56.2500021457673,2|0,1:3|0:0,0:0:0:0:
129,280,253424,69,0,0:0:0:0:
112,356,253524,1,0,0:0:0:0:
121,271,253624,1,8,0:1:0:0:
104,347,253724,1,2,0:3:0:0:
23,317,253824,38,2,L|-2:75,1,225.000008583069,4|0,1:2|0:0,0:1:0:0:
0,93,254424,70,0,P|18:69|1:-1,3,89.9999972534181,0|0|0|0,3:0|3:0|3:0|3:0,0:0:0:0:
70,61,254624,5,2,1:3:0:0:
258,45,254757,1,2,1:3:0:0:
446,29,254890,1,2,1:3:0:0:
258,45,255024,5,14,0:1:0:0:
258,45,255424,102,0,L|237:254,1,179.999994506836,4|0,1:0|0:0,0:0:0:0:
31,266,255824,2,0,B|26:302|26:302|51:345,1,75,8|0,1:2|0:0,0:0:0:0:
254,293,256024,2,0,B|259:257|259:257|234:214,1,75
136,276,256224,2,0,L|143:201,1,75,8|0,1:2|0:0,0:0:0:0:
337,86,256524,5,8,1:2:0:0:
345,9,256624,2,2,B|473:69|473:69|328:104|328:104|317:107|317:107|328:104|328:104|317:107|317:107|328:104|328:104|317:107|317:107|317:107|317:107|328:104|328:104|127:151,1,480,0|0,0:0|1:2,0:1:0:0:
27,70,257224,102,0,P|57:95|73:133,1,75
194,283,257424,2,0,B|202:155|202:155|204:139|204:139|202:155|202:155|204:139|204:139|202:155|202:155|204:139|204:139|202:155|202:155|204:139|204:139|202:155|202:155|204:139|204:139|202:155|202:155|204:139,1,240,8|2,1:2|0:1,0:0:0:0:
345,9,257824,5,10,1:2:0:0:
508,38,258024,101,2,3:0:0:0:
420,62,258124,1,10,1:2:0:0:
406,149,258224,1,2,3:0:0:0:
345,9,258424,5,0,1:0:0:0:
421,328,258624,102,0,L|404:135,1,179.999994506836,0|2,1:0|0:1,0:0:0:0:
276,237,259024,2,0,P|289:271|315:298,1,75,8|0,1:2|0:0,0:0:0:0:
507,256,259224,2,2,P|517:227|508:172,1,75,2|0,0:3|0:0,0:0:0:0:
405,148,259424,6,0,L|421:328,1,179.999994506836,8|0,1:2|0:0,0:0:0:0:
421,328,259624,2,0,P|448:335|486:365,8,44.999998626709
421,328,259824,2,2,L|390:-23,1,326.25000995636,10|0,1:2|0:0,0:1:0:0:
316,105,260224,86,0,P|280:106|240:89,3,75,8|0|0|0,1:2|0:0|0:0|0:0,0:0:0:0:
172,139,260624,2,0,P|155:123|141:96,9,50,8|0|0|0|0|0|0|0|0|0,0:0|0:0|0:0|0:0|0:0|0:0|0:0|0:0|0:0|0:0,0:0:0:0:
32,8,261024,6,0,P|50:38|56:81,1,75,8|0,0:1|0:0,0:0:0:0:
36,180,261224,2,0,P|16:211|11:248,1,75,2|0,0:3|0:0,0:0:0:0:
33,352,261424,2,0,P|59:341|97:343,9,50,2|0|0|0|0|0|0|0|0|0,0:0|0:0|0:0|0:0|0:0|0:0|0:0|0:0|0:0|0:0,0:0:0:0:
196,311,261824,86,0,B|310:320|310:320|310:320|310:320|310:320|310:320|317:321|317:321|310:320|310:320|317:321|317:321|310:320|310:320|317:321|317:321|310:320|310:320|317:321|317:321|310:320|310:320|317:321|317:321|310:320|310:320|317:321|317:321|310:320|310:320|317:321|317:321|310:320|310:320|317:321|317:321|310:320|310:320|317:321|317:321|310:320|310:320|317:321|317:321|310:320|310:320|317:321|317:321|310:320|310:320|317:321|317:321|310:320|310:320|310:320|310:320|317:321|317:321|310:320|310:320|317:321|317:321|310:320|310:320|317:321|317:321|310:320|310:320|317:321|317:321|310:320|310:320|317:321|317:321|310:320|310:320|317:321|317:321|310:320|310:320|317:321|317:321|310:320|310:320|317:321|317:321|310:320|310:320|317:321|317:321|310:320|310:320|317:321|317:321|310:320|310:320|317:321|317:321|310:320|310:320|317:321|317:321|310:320|310:320|317:321|317:321|310:320|310:320|317:321|317:321|310:320|310:320|317:321|317:321|310:320|310:320|317:321|317:321|310:320|310:320|317:321|317:321|310:320|310:320|317:321|317:321|310:320|310:320|317:321|317:321|310:320|310:320|317:321|317:321|310:320|310:320|317:321|317:321|310:320|310:320|317:321|317:321|310:320|310:320|317:321|317:321|310:320|310:320|310:320|310:320|317:321|317:321|310:320|310:320|317:321|317:321|310:320|310:320|317:321|317:321|310:320|310:320|317:321|317:321|310:320|310:320|317:321|317:321|310:320|310:320|317:321|317:321|310:320|310:320|317:321|317:321|310:320|310:320|317:321|317:321|310:320|310:320|317:321|317:321|310:320|310:320|317:321|317:321|310:320|310:320|317:321|317:321|310:320|310:320|317:321|317:321|310:320|310:320|317:321|317:321|310:320|310:320|317:321|317:321|310:320|310:320|317:321|317:321|310:320|310:320|317:321|317:321|310:320|310:320|317:321|317:321|310:320|310:320|317:321|317:321|310:320|310:320|317:321|317:321|310:320|310:320|317:321|317:321|310:320|310:320|317:321|317:321|310:320|310:320|317:321|317:321|310:320|310:320|317:321|317:321|310:320|310:320|317:321|317:321|310:320|310:320|317:321|317:321|310:320|310:320|317:321|317:321|310:320|310:320|317:321|317:321|317:321|317:321|317:321|317:321|310:320|310:320|317:321|317:321|310:320|310:320|317:321|317:321|317:321|317:321|310:320|310:320|317:321|317:321|310:320|310:320|317:321|317:321|310:320|310:320|317:321|317:321|310:320|310:320|317:321|317:321|310:320|310:320|317:321|317:321|310:320|310:320|317:321|317:321|310:320|310:320|317:321|317:321|310:320|310:320|317:321|317:321|310:320|310:320|317:321|317:321|310:320|310:320|317:321|317:321|310:320|310:320|317:321|317:321|310:320|310:320|317:321|317:321|310:320|310:320|317:321|317:321|310:320|310:320|317:321|317:321|310:320|310:320|317:321|317:321|310:320|310:320|317:321|317:321|310:320|310:320|317:321|317:321|310:320|310:320|317:321|317:321|310:320|310:320|317:321|317:321|310:320|310:320|317:321|317:321|310:320|310:320|317:321|317:321|310:320|310:320|317:321|317:321|310:320|310:320|317:321|317:321|310:320|310:320|317:321|317:321|310:320|310:320|317:321|317:321|310:320|310:320|317:321|317:321|310:320|310:320|317:321|317:321|310:320|310:320|317:321|317:321|310:320|310:320|317:321|317:321|310:320|310:320|317:321|317:321|310:320|310:320|317:321|317:321|310:320|310:320|317:321|317:321|310:320|310:320|317:321|317:321|310:320|310:320|317:321|317:321|310:320|310:320|317:321|317:321|310:320|310:320|310:320|310:320|317:321|317:321|310:320|310:320|317:321|317:321|310:320|310:320|317:321|317:321|310:320|310:320|317:321|317:321|310:320|310:320|317:321|317:321|310:320|310:320|317:321|317:321|310:320|310:320|317:321|317:321|310:320|310:320|317:321|317:321|310:320|310:320|317:321|317:321|310:320|310:320|317:321|317:321|310:320|310:320|317:321|317:321|310:320|310:320|317:321|317:321|310:320|310:320|310:320|310:320|317:321|317:321|317:321|317:321|310:320|310:320|317:321|317:321|310:320|310:320|317:321|317:321|310:320|310:320|317:321|317:321|310:320|310:320|317:321|317:321|310:320|310:320|317:321|317:321|310:320|310:320|317:321|317:321|310:320|310:320|317:321|317:321|310:320|310:320|317:321|317:321|310:320|310:320|317:321|317:321|317:321|317:321|317:321|317:321|310:320|310:320|317:321|317:321|310:320|310:320|317:321|317:321|310:320|310:320|317:321|317:321|310:320|310:320|317:321|317:321|310:320|310:320|317:321|317:321|310:320|310:320|317:321|317:321|310:320|310:320|317:321|317:321|310:320|310:320|317:321|317:321|310:320|310:320|317:321|317:321|310:320|310:320|317:321|317:321|310:320|310:320|317:321|317:321|310:320|310:320|317:321|317:321|310:320|310:320|317:321|317:321|310:320|310:320|317:321|317:321|310:320|310:320|317:321|317:321|310:320|310:320|317:321|317:321|310:320|310:320|317:321|317:321|310:320|310:320|317:321|317:321|310:320|310:320|317:321|317:321|310:320|310:320|317:321|317:321|310:320|310:320|317:321|317:321|310:320|310:320|317:321|317:321|310:320|310:320|317:321|317:321|310:320|310:320|317:321|317:321|310:320|310:320|317:321|317:321|310:320|310:320|317:321|317:321|310:320|310:320|317:321|317:321|310:320|310:320|317:321|317:321|310:320|310:320|317:321|317:321|310:320|310:320|317:321|317:321|310:320|310:320|310:320|310:320|317:321|317:321|310:320|310:320|317:321|317:321|310:320|310:320|317:321|317:321|310:320|310:320|317:321|317:321|310:320|310:320|317:321|317:321|310:320|310:320|317:321|317:321|310:320|310:320|317:321|317:321|310:320|310:320|317:321|317:321|310:320|310:320|317:321|317:321|310:320|310:320|317:321|317:321|310:320|310:320|317:321|317:321|310:320|310:320|317:321|317:321|310:320|310:320|317:321|317:321|317:321|317:321|310:320|310:320|317:321|317:321|310:320|310:320|317:321|317:321|310:320|310:320|317:321|317:321|310:320|310:320|317:321|317:321|310:320|310:320|317:321|317:321|310:320|310:320|317:321|317:321|310:320|310:320|317:321|317:321|317:321|317:321|310:320|310:320|317:321|317:321|310:320|310:320|317:321|317:321|310:320|310:320|317:321|317:321|310:320|310:320|317:321|317:321|310:320|310:320|317:321|317:321|310:320|310:320|317:321|317:321|310:320|310:320|317:321|317:321|310:320|310:320|310:320|310:320|317:321|317:321|310:320|310:320|317:321|317:321|310:320|310:320|317:321|317:321|310:320|310:320|317:321|317:321|317:321|317:321|310:320|310:320|310:320|310:320|317:321|317:321|310:320|310:320|317:321|317:321|310:320|310:320|317:321|317:321|310:320|310:320|317:321|317:321|310:320|310:320|310:320|310:320|317:321|317:321|310:320|310:320|317:321|317:321|310:320|310:320|317:321|317:321|310:320|310:320|317:321|317:321|310:320|310:320|317:321|317:321|310:320|310:320|317:321|317:321|310:320|310:320|317:321|317:321|310:320|310:320|317:321|317:321|310:320|310:320|317:321|317:321|310:320|310:320|317:321|317:321|310:320|310:320|317:321|317:321|310:320|310:320|317:321|317:321|310:320|310:320|317:321|317:321|310:320|310:320|310:320|310:320|317:321|317:321|310:320|310:320|317:321|317:321|310:320|310:320|317:321|317:321|310:320|310:320|310:320|310:320|317:321|317:321|310:320|310:320|317:321|317:321|310:320|310:320|317:321|317:321|310:320|310:320|317:321|317:321|310:320|310:320|317:321|317:321|310:320|310:320|317:321|317:321|310:320|310:320|317:321|317:321|310:320|310:320|317:321|317:321|317:321|317:321|310:320|310:320|310:320|317:321|317:321|310:320|310:320|317:321|317:321|310:320|310:320|317:321|317:321|310:320|310:320|317:321|317:321|310:320|310:320|317:321|317:321|310:320|310:320|317:321|317:321|310:320|310:320|317:321|317:321|310:320|310:320|317:321|317:321|310:320|310:320|317:321|317:321|310:320|310:320|317:321|317:321|310:320|310:320|317:321|317:321|310:320|310:320|317:321|317:321|317:321|317:321|310:320|310:320|310:320|310:320|317:321|317:321|310:320|310:320|317:321|317:321|310:320|310:320|317:321|317:321|310:320|310:320|317:321|317:321|310:320|310:320|317:321|317:321|310:320|310:320|317:321|317:321|310:320|310:320|317:321|317:321|310:320|310:320|317:321|317:321|310:320|310:320|317:321|317:321|310:320|310:320|317:321|317:321|310:320|310:320|317:321|317:321|310:320|310:320|317:321|317:321|317:321|317:321|317:321|317:321|310:320|310:320|317:321|317:321|310:320|310:320|317:321|317:321|310:320|310:320|317:321|317:321|310:320|310:320|317:321|317:321|310:320|310:320|317:321|317:321|310:320|310:320|317:321|317:321|310:320|310:320|310:320|310:320|317:321|317:321|310:320|310:320|317:321|317:321|310:320|310:320|317:321|317:321|310:320|310:320|317:321|317:321|310:320|310:320|310:320|310:320|317:321|317:321|310:320|310:320|317:321|317:321|310:320|310:320|317:321|317:321|310:320|310:320|317:321|317:321|310:320|310:320|317:321|317:321|310:320|310:320|317:321|317:321|310:320|310:320|317:321|317:321|310:320|310:320|317:321|317:321|310:320|310:320|317:321|317:321|310:320|310:320|317:321|317:321|310:320|310:320|317:321|317:321|310:320|310:320|317:321|317:321|310:320|310:320|317:321|317:321|310:320|310:320|317:321|317:321|310:320|310:320|317:321|317:321|310:320|310:320|317:321|317:321|310:320|310:320|317:321|317:321|310:320|310:320|317:321|317:321|310:320|310:320|310:320|310:320|317:321|317:321|310:320|310:320|317:321|317:321|310:320|310:320|317:321|317:321|310:320|310:320|317:321|317:321|310:320|310:320|317:321|317:321|310:320|310:320|317:321|317:321|310:320|310:320|317:321|317:321|310:320|310:320|317:321|317:321|310:320|310:320|317:321|317:321|310:320|310:320|317:321|317:321|310:320|310:320|317:321|317:321|310:320|310:320|317:321|317:321|310:320|310:320|317:321|317:321|310:320|310:320|317:321|317:321|310:320|310:320|317:321|317:321|310:320|310:320|317:321|317:321|310:320|310:320|317:321|317:321|310:320|310:320|317:321|317:321|310:320|310:320|317:321|317:321|310:320|310:320|317:321|317:321|310:320|310:320|317:321|317:321|310:320|310:320|317:321|317:321|310:320|310:320|317:321|317:321|310:320|310:320|317:321|317:321|310:320|310:320|317:321|317:321|310:320|310:320|317:321|317:321|310:320|310:320|317:321|317:321|310:320|310:320|317:321|317:321|310:320|310:320|310:320|317:321|317:321|310:320|310:320|317:321|317:321|310:320|310:320|317:321|317:321|310:320|310:320|317:321|317:321|310:320|310:320|317:321|317:321|310:320|310:320|317:321|317:321|310:320|310:320|317:321|317:321|310:320|310:320|317:321|317:321|310:320|310:320|317:321|317:321|310:320|310:320|317:321|317:321|310:320|310:320|317:321|317:321|310:320|310:320|317:321|317:321|310:320|310:320|317:321|317:321|310:320|310:320|317:321|317:321|310:320|310:320|317:321|317:321|310:320|310:320|317:321|317:321|310:320|310:320|317:321|317:321|310:320|310:320|317:321|317:321|310:320|310:320|317:321|317:321|310:320|310:320|317:321|317:321|310:320|310:320|317:321|317:321|310:320|310:320|317:321|317:321|310:320|310:320|317:321|317:321|310:320|310:320|317:321|317:321|310:320|310:320|317:321|317:321|310:320|310:320|317:321|317:321|310:320|310:320|317:321|317:321|310:320|310:320|317:321|317:321|310:320|310:320|317:321|317:321|310:320|310:320|317:321|317:321|310:320|310:320|317:321|317:321|310:320|310:320|317:321|317:321|317:321|317:321|317:321|317:321|310:320|310:320|317:321|317:321|310:320|310:320|317:321|317:321|310:320|310:320|317:321|317:321|310:320|310:320|317:321|317:321|310:320|310:320|317:321|317:321|310:320|310:320|317:321|317:321|310:320|310:320|317:321|317:321|310:320|310:320|317:321|317:321|310:320|310:320|317:321|317:321|310:320|310:320|317:321|317:321|310:320|310:320|317:321|317:321|310:320|310:320|317:321|317:321|310:320|310:320|317:321|317:321|310:320|310:320|317:321|317:321|310:320|310:320|317:321|317:321|310:320|310:320|317:321|317:321|310:320|310:320|317:321|317:321|310:320|310:320|317:321|317:321|310:320|310:320|317:321|317:321|310:320|310:320|317:321|317:321|310:320|310:320|317:321|317:321|310:320|310:320|317:321|317:321|310:320|310:320|317:321|317:321|310:320|310:320|317:321|317:321|310:320|310:320|317:321|317:321|310:320|310:320|317:321|317:321|310:320|310:320|317:321|317:321|310:320|310:320|317:321|317:321|310:320|310:320|317:321|317:321|310:320|310:320|317:321|317:321|310:320|310:320|317:321|317:321|310:320|310:320|317:321|317:321|310:320|310:320|317:321|317:321|310:320|310:320|317:321|317:321|310:320|310:320|317:321|317:321|310:320|310:320|320:321,1,4800,4|0,1:0|0:0,0:0:0:0:
