osu file format v12

[General]
AudioFilename: videoplayback.mp3
AudioLeadIn: 0
PreviewTime: -1
Countdown: 1
SampleSet: Normal
StackLeniency: 0.7
Mode: 2
LetterboxInBreaks: 1

[Editor]
DistanceSpacing: 0.7
BeatDivisor: 4
GridSize: 4

[Metadata]
Title:Kimi no me wo
TitleUnicode:Kimi no me wo
Artist:Soraru
ArtistUnicode:Soraru
Creator:isirys
Version:Kantan ni
Source:
Tags:isirys AyaMiku soraru Kimi no me wo
BeatmapID:224197
BeatmapSetID:80602

[Difficulty]
HPDrainRate:5
CircleSize:5
OverallDifficulty:5
ApproachRate:5
SliderMultiplier:1.4
SliderTickRate:1

[Events]
//Background and Video events
0,0,"yumekuishirokurobakuful.jpg",1,1
//Break Periods
2,1367,18660
2,24675,28121
2,34483,37467
2,44059,46814
2,53174,55698
2,95867,103006
2,109021,112352
2,118714,121698
2,128060,131044
2,137521,139929
2,156790,159314
2,180098,196583
//Storyboard Layer 0 (Background)
//Storyboard Layer 1 (Fail)
//Storyboard Layer 2 (Pass)
//Storyboard Layer 3 (Foreground)
//Storyboard Sound Samples
//Background Colour Transformations
3,100,163,162,255

[TimingPoints]
14,461.538461538462,4,1,0,5,1,0
1283,-100,4,1,0,5,0,1
18590,-100,4,1,0,5,0,0
76283,-100,4,1,0,5,0,1
95783,-100,4,1,0,5,0,0
151514,-100,4,1,0,5,0,1
156590,-100,4,1,0,5,0,0
160514,-100,4,1,0,5,0,1
179898,-100,4,1,0,5,0,0
216706,-100,4,1,0,5,0,0

[Colours]
Combo1 : 0,0,0
Combo2 : 140,210,255
Combo3 : 128,0,0
Combo4 : 253,253,253
Combo5 : 255,255,115

[HitObjects]
300,152,706,2,0,L|300:104,4,35
40,152,19860,6,0,L|112:152,1,70
184,152,20437,6,0,L|184:240,1,70
264,224,21014,6,0,L|344:224,1,70
412,224,21590,6,0,L|412:144,1,70
412,152,22167,6,0,L|412:230,1,70
336,224,22744,6,0,L|256:224,1,70
184,224,23321,6,0,L|184:140,1,70
108,152,23898,6,0,L|32:152,1,70
38,152,24475,5,0,0:0:0:0:
256,336,29321,6,0,L|164:336,1,70
188,264,29898,6,0,L|188:176,1,70
188,120,30475,6,0,L|264:120,1,70
260,192,31052,6,0,L|260:276,1,70
260,262,31629,6,0,L|260:188,1,70
260,120,32206,6,0,L|184:120,1,70
188,192,32783,6,0,L|188:272,1,70
188,336,33360,6,0,L|276:336,1,70
258,336,33937,5,0,0:0:0:0:
258,336,34283,1,0,0:0:0:0:
40,40,38667,6,0,L|116:40,1,70
108,108,39244,6,0,L|28:108,1,70
36,176,39821,6,0,L|132:176,1,70
108,244,40398,6,0,L|20:244,1,70
180,244,40975,6,0,L|264:244,1,70
248,172,41552,6,0,L|172:172,1,70
180,100,42129,6,0,L|252:100,1,70
250,100,42706,5,0,0:0:0:0:
250,100,42937,1,0,0:0:0:0:
250,100,43167,6,0,B|292:100|316:140|284:180|308:192,2,105
472,40,48014,6,0,L|396:40,1,70
472,112,48590,6,0,L|400:112,1,70
472,184,49167,6,0,L|392:184,1,70
472,256,49744,6,0,L|392:256,1,70
332,256,50321,6,0,L|248:256,1,70
332,184,50898,6,0,L|248:184,1,70
332,112,51475,6,0,L|236:112,1,70
188,112,52052,5,0,0:0:0:0:
188,112,52283,1,0,0:0:0:0:
188,188,52514,1,0,0:0:0:0:
188,188,52744,2,0,L|188:252,2,35
44,152,56898,6,0,P|80:92|124:84,1,105
188,84,57590,5,0,0:0:0:0:
188,84,57821,1,0,0:0:0:0:
268,84,58167,6,0,L|352:84,1,70
338,84,58629,5,0,0:0:0:0:
338,84,58860,1,0,0:0:0:0:
412,84,59206,6,0,L|412:156,1,70
412,224,59783,2,0,L|412:320,1,70
340,256,60360,6,0,L|296:256,5,35
256,192,61283,1,0,0:0:0:0:
256,192,61860,5,0,0:0:0:0:
256,192,62090,1,0,0:0:0:0:
256,120,62437,6,0,L|184:120,1,70
184,192,63014,6,0,L|184:248,1,35
112,192,63475,2,0,L|112:232,1,35
40,192,63937,2,0,L|40:228,1,35
40,296,64398,2,0,L|76:296,1,35
75,296,64744,2,0,L|120:296,1,35
110,296,65090,2,0,L|160:296,1,35
256,292,65552,5,0,0:0:0:0:
256,216,65783,1,0,0:0:0:0:
256,140,66014,1,0,0:0:0:0:
256,64,66244,1,0,0:0:0:0:
184,64,66475,6,0,L|184:184,1,105
256,336,67514,5,0,0:0:0:0:
256,336,67744,1,0,0:0:0:0:
256,336,67975,1,0,0:0:0:0:
256,336,68206,6,0,B|228:312|228:312|256:296|256:296,1,70
256,295,68667,2,0,B|288:280|288:280|256:256|256:256,1,70
260,192,69129,6,0,L|260:136,1,35
256,64,69590,2,0,L|256:100,1,35
200,136,70052,6,0,L|124:136,1,70
132,208,70629,2,0,L|208:208,1,70
256,192,71206,12,0,74783,0:0:0:0:
216,152,75129,6,0,L|216:116|216:116,3,35
216,224,75821,5,0,0:0:0:0:
344,224,76283,6,0,L|288:224,3,35
344,296,77090,6,0,L|296:296,1,35
344,224,77552,2,0,L|308:224,1,35
224,300,78129,6,0,L|224:220,1,70
224,230,78590,1,0,0:0:0:0:
224,230,78821,1,0,0:0:0:0:
224,160,79167,6,0,L|224:48,1,105
152,56,79860,5,0,0:0:0:0:
152,56,80090,1,0,0:0:0:0:
152,136,80437,6,0,L|196:136,2,35
152,208,81014,6,0,P|160:252|216:288,1,105
276,284,81706,1,0,0:0:0:0:
348,284,82052,2,0,L|452:284,1,105
452,208,82744,6,0,L|408:208,2,35
452,136,83321,6,0,P|432:108|364:92,1,105
288,92,83898,1,0,0:0:0:0:
288,92,84129,1,0,0:0:0:0:
212,92,84360,6,0,L|168:92,3,35
212,164,84937,6,0,L|168:164,4,35
208,232,85629,6,0,L|304:232,1,70
348,232,86090,1,0,0:0:0:0:
348,232,86321,1,0,0:0:0:0:
348,160,86552,2,0,L|348:84,1,70
348,90,87014,5,0,0:0:0:0:
256,92,87475,6,0,L|200:92,1,35
221,92,87937,1,0,0:0:0:0:
220,160,88283,6,0,L|220:204,1,35
220,264,88629,5,0,0:0:0:0:
220,264,88860,1,0,0:0:0:0:
292,264,89090,6,0,B|312:228|312:228|332:272|332:272|356:224|356:224|372:276|372:276|396:224|396:224|412:272|412:272,1,280
403,247,90244,6,0,L|404:156,1,70
403,177,90706,6,0,L|404:92,1,70
336,144,91167,2,0,L|284:144,3,35
336,144,91744,1,0,0:0:0:0:
256,192,92206,6,0,L|180:192,1,70
120,192,92667,5,0,0:0:0:0:
48,192,92898,1,0,0:0:0:0:
48,120,93129,6,0,L|136:120,1,70
118,120,93590,5,0,0:0:0:0:
118,120,93821,1,0,0:0:0:0:
192,120,94052,6,0,L|192:192,1,70
192,190,94514,1,0,0:0:0:0:
192,190,94744,1,0,0:0:0:0:
192,260,94975,6,0,B|260:296|380:280|400:252,1,210
216,152,104206,6,0,L|152:104,1,70
112,164,104783,6,0,L|176:212,1,70
112,252,105360,6,0,L|52:208,1,70
112,252,105937,6,0,L|52:208,1,70
216,232,106514,6,0,L|152:288,1,70
168,176,107090,6,0,L|104:232,1,70
116,120,107667,6,0,L|52:176,1,70
64,236,108244,5,0,0:0:0:0:
64,236,108590,1,0,0:0:0:0:
64,236,108821,1,0,0:0:0:0:
300,148,113552,6,0,L|360:96,1,70
352,204,114129,6,0,L|420:148,1,70
404,264,114706,6,0,L|472:208,1,70
452,320,115283,6,0,L|508:272,1,70
300,236,115860,6,0,L|360:292,1,70
348,176,116437,6,0,L|408:228,1,70
392,116,117014,6,0,L|448:168,1,70
432,56,117590,6,0,L|488:108,1,70
483,103,118167,5,0,0:0:0:0:
483,103,118514,1,0,0:0:0:0:
256,192,122898,6,0,L|256:104,1,70
256,192,123475,6,0,L|256:280,1,70
256,192,124052,6,0,L|172:192,1,70
256,192,124629,6,0,L|332:192,1,70
256,192,125206,6,0,L|196:136,1,70
256,192,125783,6,0,L|316:136,1,70
256,192,126360,6,0,L|316:252,1,70
256,192,126937,6,0,L|196:248,1,70
204,239,127514,5,0,0:0:0:0:
204,239,127860,1,0,0:0:0:0:
132,88,132244,5,0,0:0:0:0:
132,88,132590,1,0,0:0:0:0:
132,160,132937,5,0,0:0:0:0:
132,160,133283,1,0,0:0:0:0:
208,160,133629,5,0,0:0:0:0:
208,160,133975,1,0,0:0:0:0:
208,88,134321,5,0,0:0:0:0:
208,88,134667,1,0,0:0:0:0:
80,120,135014,5,0,0:0:0:0:
80,120,135360,1,0,0:0:0:0:
156,216,135706,5,0,0:0:0:0:
156,216,136052,1,0,0:0:0:0:
240,120,136398,5,0,0:0:0:0:
240,120,136744,1,0,0:0:0:0:
240,120,136975,6,0,L|240:236,1,105
44,148,141129,6,0,L|120:148|120:148,3,70
114,148,142167,5,0,0:0:0:0:
114,148,142514,1,0,0:0:0:0:
184,148,142860,6,0,L|96:148,3,70
114,148,143898,5,0,0:0:0:0:
114,148,144129,1,0,0:0:0:0:
112,220,144475,6,0,L|204:220,1,70
182,220,145052,5,0,0:0:0:0:
182,220,145398,2,0,L|112:220,1,70
256,108,146206,6,0,L|256:180,1,70
256,244,146783,1,0,0:0:0:0:
256,316,147129,6,0,L|352:316,1,70
396,316,147706,1,0,0:0:0:0:
468,316,148052,6,0,L|468:244,1,70
468,172,148629,1,0,0:0:0:0:
468,100,148975,6,0,L|376:100,1,70
398,100,149552,5,0,0:0:0:0:
398,100,149898,1,0,0:0:0:0:
324,100,150244,6,0,L|324:176,1,70
324,240,150821,5,0,0:0:0:0:
252,240,151167,1,0,0:0:0:0:
180,240,151514,6,0,L|96:240,1,70
110,240,152090,5,0,0:0:0:0:
110,240,152437,1,0,0:0:0:0:
108,164,152783,6,0,L|196:164,1,70
296,160,153475,6,0,L|296:120,1,35
364,160,153937,6,0,L|364:124,1,35
428,160,154398,6,0,L|428:124,1,35
492,160,154860,6,0,B|492:96|488:80|480:56|400:68,1,140
426,65,155667,5,0,0:0:0:0:
426,65,156014,6,0,B|348:64|312:76|296:116|304:180,1,175
52,328,160514,5,0,0:0:0:0:
52,260,160744,6,0,L|52:216,2,35
116,260,161206,5,0,0:0:0:0:
116,260,161437,1,0,0:0:0:0:
176,260,161667,6,0,L|240:260,1,35
172,192,162014,2,0,L|216:192,1,35
280,256,162360,6,0,L|280:180,1,70
280,186,162937,1,0,0:0:0:0:
280,64,163283,6,0,L|208:64,1,70
210,64,163744,1,0,0:0:0:0:
136,64,164090,6,0,L|136:148,1,70
136,134,164552,1,0,0:0:0:0:
136,208,164898,6,0,L|200:208,2,35
136,276,165475,1,0,0:0:0:0:
136,276,165706,1,0,0:0:0:0:
208,272,166052,6,0,L|208:200,1,70
208,202,166629,5,0,0:0:0:0:
208,202,166975,1,0,0:0:0:0:
208,132,167206,6,0,L|208:92,2,35
208,132,167783,5,0,0:0:0:0:
208,132,168014,1,0,0:0:0:0:
276,128,168360,6,0,L|276:216,1,70
344,128,168937,6,0,L|344:200,1,70
412,128,169514,6,0,L|412:208,1,70
408,268,170090,6,0,L|348:268,2,35
408,340,170667,6,0,L|368:340,2,35
300,340,171244,5,0,0:0:0:0:
300,272,171475,1,0,0:0:0:0:
300,204,171821,6,0,B|300:132|260:108|248:112,1,105
258,113,172514,5,0,0:0:0:0:
258,113,172860,1,0,0:0:0:0:
180,116,173206,6,0,L|180:180,2,35
108,116,173783,5,0,0:0:0:0:
108,116,174014,1,0,0:0:0:0:
108,116,174244,1,0,0:0:0:0:
108,116,174475,6,0,P|108:208|144:224,1,140
140,223,175167,5,0,0:0:0:0:
140,223,175398,6,0,P|216:236|236:304,1,140
238,288,176090,5,0,0:0:0:0:
324,288,176437,6,0,L|320:244,3,35
324,288,177129,5,0,0:0:0:0:
324,288,177475,2,0,L|324:192,1,70
324,218,178052,5,0,0:0:0:0:
324,152,178398,1,0,0:0:0:0:
324,88,178744,1,0,0:0:0:0:
388,88,179090,6,0,L|388:228,1,140
388,300,179898,5,0,0:0:0:0:
220,232,197783,6,0,L|220:304,1,70
160,188,198360,6,0,L|84:188,1,70
164,120,198937,6,0,L|88:120,1,70
220,76,199514,6,0,L|220:4,1,70
220,76,200090,6,0,L|220:0,1,70
272,120,200667,6,0,L|344:120,1,70
272,188,201244,6,0,L|348:188,1,70
216,232,201821,6,0,L|216:304,1,70
148,232,202398,6,0,L|64:232,1,70
152,164,202975,6,0,L|80:164,1,70
156,96,203552,6,0,L|80:96,1,70
160,28,204129,6,0,L|80:28,1,70
224,28,204706,6,0,L|296:28,1,70
224,96,205283,6,0,L|300:96,1,70
224,164,205860,6,0,L|304:164,1,70
228,232,206437,6,0,L|300:232,1,70
228,232,207014,6,0,L|224:160,1,70
300,232,207590,6,0,L|300:160,1,70
372,236,208167,6,0,L|372:160,1,70
444,236,208744,6,0,L|444:160,1,70
440,40,209321,6,0,L|440:116,1,70
368,36,209898,6,0,L|368:112,1,70
296,36,210475,6,0,L|296:112,1,70
224,36,211052,6,0,L|224:72,2,35
224,36,211398,6,0,L|224:80,2,35
224,36,211744,6,0,L|224:144,1,105
256,192,214167,6,0,L|256:148|256:148,2,35
256,192,214629,5,0,0:0:0:0:
256,192,214860,6,0,B|296:192|316:172|304:136|264:120|216:124|192:188|208:236|236:252|268:252|296:248|324:220|332:192|292:164,1,315
295,166,216129,5,0,0:0:0:0:
60,192,216706,6,0,L|116:192|116:192,4,35
164,192,217514,5,0,0:0:0:0:
228,192,217860,1,0,0:0:0:0:
228,192,218090,6,0,L|268:192,2,35
336,192,218667,6,0,L|336:228,2,35
336,192,219244,5,0,0:0:0:0:
336,192,219590,1,0,0:0:0:0:
336,192,219937,6,0,L|336:144,2,35
264,192,220514,6,0,L|172:192,1,70
44,192,221437,5,0,0:0:0:0:
44,192,221667,6,0,L|100:192,2,35
256,192,222244,5,0,0:0:0:0:
256,192,222475,6,0,L|208:192,2,35
156,124,223398,5,0,0:0:0:0:
156,124,223629,1,0,0:0:0:0:
156,124,223860,1,0,0:0:0:0:
228,124,224090,6,0,L|328:124,1,70
298,124,224552,6,0,L|296:168,2,35
368,124,225014,5,0,0:0:0:0:
368,196,225244,1,0,0:0:0:0:
368,268,225475,1,0,0:0:0:0:
440,268,225706,6,0,L|440:120,1,140
440,128,226398,6,0,L|440:84,2,35
372,132,226860,5,0,0:0:0:0:
300,132,227090,1,0,0:0:0:0:
228,132,227321,1,0,0:0:0:0:
152,132,227552,6,0,L|104:132,2,35
152,200,228014,2,0,L|108:200,2,35
228,204,228475,5,0,0:0:0:0:
300,204,228706,1,0,0:0:0:0:
368,204,228937,1,0,0:0:0:0:
368,204,229167,6,0,B|424:200|440:160|432:120|388:108|360:132|344:152|348:192|380:224,1,210
368,204,230090,5,0,0:0:0:0:
368,276,230321,6,0,L|328:276,1,35
333,276,230667,2,0,L|276:276,1,35
228,276,231014,5,0,0:0:0:0:
228,212,231244,1,0,0:0:0:0:
228,148,231475,6,0,L|228:48,1,70
228,78,231937,5,0,0:0:0:0:
228,78,232167,1,0,0:0:0:0:
228,78,232398,1,0,0:0:0:0:
228,78,232629,6,0,L|324:76,1,70
297,76,233090,5,0,0:0:0:0:
297,76,233321,6,0,L|352:124,1,70
350,122,233783,5,0,0:0:0:0:
350,122,234014,6,0,L|352:212,1,70
351,192,234475,6,0,B|344:264|288:256|264:244|280:192|328:184|356:196,1,175
256,192,235283,12,0,238167,0:0:0:0:
