osu file format v11

[General]
AudioFilename: soraru - kagerou days.mp3
AudioLeadIn: 0
PreviewTime: 59327
Countdown: 1
SampleSet: Soft
StackLeniency: 0.7
Mode: 0
LetterboxInBreaks: 1

[Editor]
DistanceSpacing: 0.8
BeatDivisor: 4
GridSize: 4

[Metadata]
Title:Kagerou Days
TitleUnicode:Kagerou Days
Artist:Soraru
ArtistUnicode:Soraru
Creator:Yuuki Katsuki
Version:Yuuki
Source:
Tags:Hatsune Miku
BeatmapID:185126
BeatmapSetID:62365

[Difficulty]
HPDrainRate:7
CircleSize:4
OverallDifficulty:7
ApproachRate:8
SliderMultiplier:2
SliderTickRate:2

[Events]
//Background and Video events
0,0,"Insane BG.jpg"
//Break Periods
2,79025,87974
2,146218,154567
2,165416,174065
//Storyboard Layer 0 (Background)
//Storyboard Layer 1 (Fail)
//Storyboard Layer 2 (Pass)
//Storyboard Layer 3 (Foreground)
//Storyboard Sound Samples
//Background Colour Transformations
3,100,163,162,255

[TimingPoints]
11632,299.9700029997,4,2,0,100,1,0
57077,-66.6666666666667,4,3,0,100,0,0
59177,-80,4,1,0,100,0,1
78825,-100,4,2,0,100,0,0
102672,-200,4,2,0,100,0,0
104022,-100,4,2,0,100,0,0
124270,-66.6666666666667,4,3,0,100,0,0
126370,-80,4,1,0,100,0,1
146168,-100,4,3,0,100,0,0
184414,-76.9230769230769,4,1,0,100,0,1
203612,-100,4,1,0,100,0,0

[Colours]
Combo1 : 107,107,107
Combo2 : 62,255,250
Combo3 : 255,32,32
Combo4 : 255,255,255

[HitObjects]
480,272,11631,6,0,B|440:256|376:256|416:352|312:360|272:288,1,200,8|0,0:0|0:0,0:0:0
300,188,12081,1,0,0:0:0
196,268,12231,2,0,B|148:284|124:212|124:212|68:244|28:188,1,200,8|0,0:0|0:0,0:0:0
36,100,12681,5,0,0:0:0
136,128,12831,1,0,0:0:0
224,64,12981,1,0,0:0:0
316,120,13131,1,0,0:0:0
420,152,13281,1,0,0:0:0
448,248,13431,1,0,0:0:0
384,328,13581,6,0,B|284:248,1,100
192,268,13881,1,0,0:0:0
56,172,14031,2,0,B|124:128|160:176|208:216|256:160,1,200,8|0,0:0|0:0,0:0:0
344,92,14481,1,0,0:0:0
420,176,14631,2,0,B|430:239|461:244|490:254|501:341,1,150,8|0,0:0|0:0,0:0:0
384,328,15081,5,0,0:0:0
328,248,15231,1,0,0:0:0
232,272,15381,2,0,B|112:252,1,100
40,184,15681,2,0,B|164:152,1,100
236,80,15981,2,0,B|116:60,2,100
360,112,16431,6,0,B|416:116|456:168|428:224|368:244,1,200,8|0,0:0|0:0,0:0:0
276,304,16881,1,0,0:0:0
176,332,17031,2,0,B|120:328|76:272|108:220|168:200,1,200,8|0,0:0|0:0,0:0:0
248,132,17481,1,0,0:0:0
324,192,17631,1,0,0:0:0
300,288,17781,1,0,0:0:0
184,320,17931,1,0,0:0:0
76,308,18081,2,0,B|29:293|29:293|18:227,3,100
128,196,18681,1,0,0:0:0
16,136,18831,6,0,B|36:88|68:56|108:80|108:80|136:44|188:60|204:92,1,200,8|0,0:0|0:0,0:0:0
256,144,19281,1,0,0:0:0
340,68,19431,2,0,B|327:62|379:46|407:82|407:82|447:58|479:90|499:138,1,200,8|0,0:0|0:0,0:0:0
464,248,19881,5,0,0:0:0
368,296,20031,1,0,0:0:0
256,316,20181,1,0,0:0:0
144,296,20331,1,0,0:0:0
48,248,20481,1,0,0:0:0
0,160,20631,2,0,B|28:92|80:64|160:64,1,200
512,160,21231,1,6,0:0:0
328,68,21531,6,0,B|256:52|200:76,2,100
436,104,21980,1,0,0:0:0
512,192,22130,1,0,0:0:0
344,192,22430,2,0,B|292:224|228:220,1,100
156,240,22730,1,0,0:0:0
48,296,22880,1,0,0:0:0
64,176,23030,1,0,0:0:0
260,52,23330,6,0,B|292:36|348:32|376:72,1,100
312,152,23630,2,0,B|272:220|296:300|340:316|404:324|448:300|476:272,1,300
388,216,24230,2,0,B|428:148|404:68|360:52|296:44|252:68|224:96,1,300
312,152,24830,2,0,B|292:192|256:184|208:160|148:196|156:272|144:312|48:280,1,300
0,228,25430,1,0,0:0:0
84,192,25580,1,0,0:0:0
180,232,25730,1,0,0:0:0
252,320,25880,1,0,0:0:0
328,248,26030,2,0,B|380:176|396:148|396:148|428:168|472:112|504:148|504:148|524:40|420:36,1,400
216,60,26930,5,2,0:0:0
92,112,27080,1,2,0:0:0
196,188,27230,2,2,B|224:184|264:204|296:188,1,100
472,124,27680,6,0,B|433:166|388:179|388:179|368:219|306:249,1,200
204,288,28130,1,0,0:0:0
96,192,28280,1,0,0:0:0
244,168,28430,1,0,0:0:0
400,104,28730,5,2,0:0:0
288,88,28880,1,0,0:0:0
180,80,29030,1,2,0:0:0
268,228,29330,2,2,B|288:252|288:252|316:264|316:264|356:264,3,100
468,256,29930,1,0,0:0:0
356,176,30080,1,0,0:0:0
208,200,30230,2,2,B|184:200|152:192|168:152|104:152,1,100
220,96,30530,2,2,B|328:72|412:112|436:164,1,200,0|4,0:0|0:0,0:0:0
312,328,31130,5,2,0:0:0
136,304,31430,1,2,0:0:0
40,188,31729,1,2,0:0:0
128,64,32029,2,0,B|203:30|225:111|338:59,1,200
416,72,32479,1,0,0:0:0
488,144,32629,2,0,B|508:220|500:284|480:316|448:348,1,200
384,220,33079,1,0,0:0:0
324,328,33229,6,0,B|248:311|195:251|201:164|298:112,1,300
424,84,33829,2,0,B|384:-4|208:-8|168:124,1,300
68,52,34429,2,0,B|16:124|20:176|68:232|112:248|160:256|208:224,1,300
276,188,35029,1,0,0:0:0
372,232,35179,1,0,0:0:0
396,136,35329,1,0,0:0:0
304,92,35479,1,0,0:0:0
276,188,35629,2,0,B|260:180|260:180|252:192|252:192|244:180|244:180|236:192|236:192|224:180|224:180|216:192|216:192|204:180|204:180|192:192|192:192|184:180|184:180|176:192|176:192|160:180|160:180|148:192|148:192|136:180|136:180|128:192|128:192|116:180|116:180|108:192|108:192|96:180|96:180|84:192|84:192|72:180|72:180|64:192|64:192|56:180|56:180|48:192|48:192|36:180|36:180|28:192|28:192|16:180|-8:184,1,400
96,268,36529,5,0,0:0:0
200,312,36679,1,2,0:0:0
308,288,36829,1,2,0:0:0
392,228,36979,1,2,0:0:0
424,140,37129,1,0,0:0:0
348,28,37279,6,0,B|268:104,1,100
144,92,37579,1,0,0:0:0
100,180,37729,1,0,0:0:0
204,176,37879,1,0,0:0:0
312,180,38029,2,0,B|388:200|424:256,1,100
308,288,38329,2,0,B|184:268,2,100
400,228,38779,2,0,B|500:216,2,100
316,168,39229,2,0,B|268:120|228:152|228:152|192:120|136:168,1,200
68,256,39679,1,0,0:0:0
156,320,39829,1,0,0:0:0
288,332,39979,5,0,3:3:0
316,323,40053,1,0,3:3:0
345,315,40128,1,0,3:3:0
374,307,40203,1,0,3:3:0
403,299,40278,1,0,3:3:0
432,291,40353,1,0,3:3:0
461,283,40428,1,4,0:0:0
388,164,40729,6,0,B|360:36,1,100
248,116,41029,2,0,B|152:64,1,100
140,184,41329,2,0,B|20:236,2,100
384,132,41778,6,0,B|324:132|276:168,1,100
128,120,42078,2,0,B|188:120|236:84,1,100
224,232,42378,2,0,B|189:258|129:258,1,100
292,280,42678,2,0,B|326:253|386:253,1,100
88,224,43128,6,0,B|124:284|192:300,1,100
220,204,43428,2,0,B|276:245|345:233,1,100
308,132,43728,2,0,B|377:133|427:84,2,100
212,272,44178,6,0,B|172:228|100:248,1,100
24,264,44478,1,0,0:0:0
108,192,44628,1,0,0:0:0
208,136,44778,2,0,B|256:132|256:132|328:144,1,100
408,184,45078,1,0,0:0:0
376,64,45228,1,0,0:0:0
148,280,45528,5,0,0:0:0
364,104,45828,1,0,0:0:0
404,284,46128,2,0,B|336:296|288:264,2,100
108,100,46728,2,0,B|176:88|224:120,2,100
303,274,47328,5,0,0:0:0
208,109,47478,1,0,0:0:0
351,192,47628,1,0,0:0:0
161,191,47778,1,0,0:0:0
303,109,47928,1,0,0:0:0
208,274,48078,1,0,0:0:0
256,340,48528,5,0,0:0:0
440,192,48828,1,0,0:0:0
256,40,49128,1,0,0:0:0
68,192,49428,1,0,0:0:0
128,88,49579,5,0,3:3:0
151,107,49653,1,0,3:3:0
174,126,49728,1,0,3:3:0
197,145,49803,1,0,3:3:0
220,164,49878,1,0,3:3:0
243,183,49953,1,0,3:3:0
266,202,50028,1,4,0:2:0
232,320,50328,6,0,B|168:316,2,50
344,320,50628,2,0,B|424:300|460:240,1,100
412,188,50928,1,0,0:0:0
396,148,51003,1,0,0:0:0
368,116,51078,1,0,0:0:0
288,48,51228,1,0,0:0:0
448,48,51378,5,0,0:0:0
332,136,51528,1,0,0:0:0
480,188,51678,1,0,0:0:0
424,312,51827,1,0,0:0:0
284,264,51977,2,0,B|184:320,1,100
96,316,52277,2,0,B|40:288|40:236,1,100
48,144,52577,1,0,0:0:0
164,156,52727,6,0,B|144:84,2,50
264,148,53027,2,0,B|272:212|216:256,1,100
356,184,53327,2,0,B|432:176,2,50
264,152,53627,1,0,0:0:0
180,92,53777,5,0,0:0:0
200,232,53927,1,0,0:0:0
344,212,54077,1,0,0:0:0
320,72,54227,1,0,0:0:0
149,125,54377,1,0,0:0:0
218,249,54527,1,0,0:0:0
345,179,54677,1,0,0:0:0
272,57,54827,1,0,0:0:0
452,88,55127,6,0,B|488:132|488:132|460:168|484:212|484:212|444:260,1,200
340,320,55727,2,0,B|252:364|216:324|216:324|180:332|184:276|140:316,1,200
80,256,56327,1,0,0:0:0
4,168,56477,1,0,0:0:0
80,256,56627,1,0,0:0:0
196,128,56927,1,0,0:0:0
380,236,57227,6,0,B|364:144|268:136,1,150.000005722046
136,148,57527,2,0,B|152:240|248:248,1,150.000005722046
352,172,57827,1,0,0:0:0
168,216,57977,1,0,0:0:0
380,236,58127,1,0,0:0:0
136,148,58277,1,0,0:0:0
388,344,58427,2,0,B|356:305|356:305|368:293|368:293|344:257|304:241,1,150.000005722046
124,40,58727,2,0,B|155:78|155:78|143:90|143:90|167:126|207:142,1,150.000005722046
256,192,59027,1,0,0:0:0
220,340,59177,5,0,0:0:0
264,344,59252,1,0,0:0:0
304,344,59327,1,0,0:0:0
352,344,59402,1,0,0:0:0
392,340,59477,1,0,0:0:0
432,336,59552,1,0,0:0:0
460,328,59627,6,0,B|488:264|468:220|432:196|372:180|260:264|400:280|404:220|380:128|276:124|208:176|228:232,1,375
240,328,60227,2,0,B|184:336|116:304|116:304|104:212|152:144,1,250
188,72,60677,1,0,0:0:0
324,40,60827,2,0,B|324:120|324:120|352:164|404:172,1,125
440,224,61127,1,0,0:0:0
340,316,61277,1,0,0:0:0
208,264,61427,1,0,0:0:0
176,176,61577,5,0,0:0:0
176,176,61651,1,0,0:0:0
176,176,61726,1,0,0:0:0
272,136,61876,1,0,0:0:0
408,112,62026,2,0,B|464:152|464:152|492:204|456:260|456:260|408:296|404:300|372:312,1,250
284,332,62476,1,0,0:0:0
164,328,62626,2,0,B|116:304|141:279|141:279|101:220|153:232|153:232|129:186|189:137,1,250
296,40,63226,1,0,0:0:0
376,148,63376,2,0,B|396:176|420:192|420:192|468:192|504:180,2,125
296,40,63826,1,0,0:0:0
286,147,63976,5,0,0:0:0
272,184,64051,1,0,0:0:0
244,224,64126,1,0,0:0:0
210,252,64201,1,0,0:0:0
176,269,64276,1,0,0:0:0
76,228,64426,5,0,0:0:0
24,136,64576,1,0,0:0:0
132,124,64726,2,0,B|180:72|248:92,1,125
380,116,65026,2,0,B|456:108|472:44,2,125
308,248,65476,1,0,0:0:0
180,304,65626,2,0,B|104:308|92:228|92:228|156:216|168:176|152:136,1,250
56,140,66076,1,0,0:0:0
184,64,66226,5,0,0:0:0
280,164,66376,1,0,0:0:0
400,252,66526,2,0,B|442:300|487:271|487:271|513:285|538:266,1,125
448,164,66826,2,0,B|436:80|392:44|328:64|324:104|324:104|272:104,1,250
140,100,67276,5,0,0:0:0
48,192,67426,1,0,0:0:0
164,272,67576,1,0,0:0:0
196,288,67651,1,0,0:0:0
224,304,67726,2,0,B|296:352|368:336,1,125
460,312,68026,5,0,0:0:0
452,304,68101,1,0,0:0:0
444,296,68176,1,0,0:0:0
340,232,68326,5,0,0:0:0
318,230,68401,1,0,0:0:0
297,228,68476,1,0,0:0:0
136,224,68626,5,0,0:0:0
144,188,68701,1,0,0:0:0
160,160,68776,1,0,0:0:0
180,140,68851,1,0,0:0:0
208,120,68926,1,0,0:0:0
240,108,69001,1,0,0:0:0
280,104,69076,1,0,0:0:0
320,112,69151,1,0,0:0:0
352,128,69226,1,4,0:0:0
364,260,69376,2,0,B|456:248|464:168,1,125
460,44,69676,6,0,B|380:100|320:80,1,125
232,32,69976,1,0,0:0:0
168,136,70126,1,0,0:0:0
56,52,70276,2,0,B|28:120|64:184,1,125
124,260,70576,1,0,0:0:0
248,304,70726,2,0,B|284:268|340:256|376:260|376:260|400:236|420:184|384:152,1,250
276,100,71176,2,0,B|304:48|376:28,2,125
96,192,71625,5,0,0:0:0
192,248,71775,1,0,0:0:0
296,208,71925,1,0,0:0:0
308,312,72075,1,0,0:0:0
420,296,72225,2,0,B|476:248|476:248|468:184|480:136|480:136|484:64,1,250
304,80,72825,1,0,0:0:0
160,160,72975,2,0,B|144:192|144:192|128:204|140:260|152:288|152:288|148:304,1,125
352,224,73275,2,0,B|368:192|368:192|384:180|372:124|360:96|360:96|364:80,1,125
252,32,73575,5,0,0:0:0
216,52,73650,1,0,0:0:0
180,80,73725,1,0,0:0:0
160,112,73800,1,0,0:0:0
148,156,73875,1,0,0:0:0
136,196,73950,1,0,0:0:0
136,240,74025,1,4,0:0:0
340,296,74325,5,0,0:0:0
304,136,74475,1,0,0:0:0
456,196,74625,1,0,0:0:0
444,44,74775,2,0,B|308:64,1,125
208,80,75075,1,0,0:0:0
320,64,75225,1,0,0:0:0
276,272,75525,5,0,0:0:0
142,176,75675,1,0,0:0:0
138,339,75825,1,0,0:0:0
3,269,75975,2,0,B|74:151,1,125
128,66,76275,1,0,0:0:0
70,162,76425,1,0,0:0:0
116,260,76725,6,0,B|187:288|219:240|238:188|279:149|334:191,1,250
256,108,77325,1,0,0:0:0
332,256,77475,1,0,0:0:0
185,256,77625,1,0,0:0:0
256,72,77775,1,0,0:0:0
364,272,77925,1,0,0:0:0
148,272,78075,1,0,0:0:0
256,192,78225,5,0,0:0:0
256,192,78525,5,0,0:0:0
256,192,78825,5,4,0:0:0
52,120,88724,5,0,0:0:0
184,72,88874,1,0,0:0:0
244,192,89024,2,0,B|220:240|268:272|328:272|360:288|372:324|372:324|376:336,2,200
336,104,89924,1,0,0:0:0
432,140,90074,1,0,0:0:0
480,232,90224,1,0,0:0:0
176,280,90524,5,0,0:0:0
80,244,90674,1,0,0:0:0
32,152,90824,2,0,B|56:76|96:40|148:88|148:88|172:56|200:132|284:76,1,300
248,176,91424,2,0,B|292:188|292:188|327:204|336:232|388:224|388:224|403:258|403:258|464:288|464:352,1,300
348,336,92023,2,0,B|271:365|254:280|184:328|184:328|178:357|153:314|136:354|133:334|133:334|102:320|79:343|42:289,1,300
24,228,92623,5,0,0:0:0
112,164,92773,1,0,0:0:0
24,112,92923,1,0,0:0:0
112,64,93073,1,0,0:0:0
256,192,93223,12,0,94123,0:0:0
256,64,94723,6,0,B|224:96|288:152|236:188,1,100
360,140,95023,2,0,B|328:172|392:228|340:264,1,100,0|0,0:0|0:0,0:0:0
464,232,95323,2,0,B|432:264|496:320|444:356,2,100
384,120,95923,6,2,B|344:76|344:80,2,50,2|0|2,0:0|0:0|0:0,0:0:0
320,208,96223,2,2,B|296:280|240:300,1,100
112,272,96523,1,2,0:0:0
148,168,96673,1,2,0:0:0
32,176,96823,1,2,0:0:0
80,64,96973,2,2,B|168:24|216:24,1,100
208,136,97273,2,0,B|292:144|324:176,1,100,0|2,0:0|0:0,0:0:0
260,248,97573,2,2,B|316:312|312:344,2,100,2|2|0,0:0|0:0|0:0,0:0:0
112,272,98023,1,4,0:0:0
184,316,98323,6,0,B|256:332|312:308,2,100
76,280,98772,1,0,0:0:0
0,192,98922,1,0,0:0:0
76,100,99073,1,0,0:0:0
168,192,99222,2,0,B|220:160|284:164,1,100
356,144,99522,1,0,0:0:0
464,88,99672,1,0,0:0:0
448,208,99822,1,0,0:0:0
304,264,100123,5,0,0:0:0
432,264,100423,2,0,B|423:207|398:158|398:158|352:154|330:113|330:113|278:87|213:94|220:110|200:120,1,300
168,208,101023,2,0,B|228:208|228:208|240:244|300:228|300:228|288:280|344:280|344:280|352:360,1,300
228,320,101623,2,0,B|152:336|92:304|92:304|96:272|32:216|120:148,1,300
176,108,102222,1,0,0:0:0
272,80,102372,1,0,0:0:0
372,104,102522,1,0,0:0:0
456,180,102672,1,0,0:0:0
480,280,102822,2,0,B|160:280,1,300
244,124,104472,5,0,0:0:0
344,56,104622,1,0,0:0:0
428,260,104922,2,0,B|440:316|488:356,2,100
312,300,105522,1,0,0:0:0
184,304,105672,2,0,B|100:312|56:292,1,100
48,208,105972,1,0,0:0:0
96,92,106122,2,0,B|164:128|228:136,1,100
312,104,106422,1,0,0:0:0
304,216,106572,1,0,0:0:0
412,260,106722,2,0,B|336:328,2,100
488,172,107172,5,0,3:3:0
456,160,107247,1,0,3:3:0
420,152,107322,1,0,3:3:0
380,144,107397,1,0,3:3:0
344,136,107472,1,0,3:3:0
304,136,107547,1,0,3:3:0
264,136,107622,1,4,0:0:0
252,220,107922,6,0,B|336:272|376:256,1,100
148,204,108222,2,0,B|156:256|196:300,1,100
40,148,108522,2,0,B|36:208|72:260,1,100
68,56,108822,6,0,B|96:100|96:100|152:152,2,100
232,168,109272,1,0,0:0:0
328,136,109422,1,0,0:0:0
424,96,109572,2,0,B|476:72|504:24,2,100
328,136,110022,1,0,0:0:0
436,220,110322,6,0,B|400:308|360:332,1,100
304,236,110622,2,0,B|180:260,1,100
96,268,110922,2,0,B|36:280|4:320,2,100
128,192,111372,5,0,0:0:0
232,152,111521,1,0,0:0:0
216,256,111671,1,0,0:0:0
320,216,111821,2,0,B|360:212|400:212|424:232|424:232|448:204|476:192|520:184,1,200
436,96,112271,1,0,0:0:0
320,120,112421,1,0,0:0:0
144,288,112721,6,0,B|115:239|91:207|91:207|69:178|91:123|72:68,1,200
248,80,113321,2,0,B|332:112|376:128,2,100
264,308,113921,2,0,B|180:276|136:260,2,100
256,144,114521,1,0,0:0:0
256,236,114671,1,0,0:0:0
208,152,114821,1,0,0:0:0
304,232,114971,1,0,0:0:0
168,176,115121,1,0,0:0:0
344,208,115271,1,0,0:0:0
348,124,115571,6,0,B|360:84|360:84|352:60|352:60|360:16,1,100
256,124,115871,2,0,B|244:164|244:164|252:188|252:188|244:232,1,100
164,124,116171,2,0,B|152:84|152:84|160:60|160:60|152:16,2,100
156,320,116771,5,0,3:3:0
200,312,116846,1,0,3:3:0
252,300,116921,1,0,3:3:0
304,280,116996,1,0,3:3:0
348,256,117071,1,0,3:3:0
384,228,117146,1,0,3:3:0
416,196,117221,1,4,0:0:0
376,92,117371,5,0,0:0:0
204,72,117671,1,0,0:0:0
272,212,117971,1,0,0:0:0
100,184,118271,1,0,0:0:0
256,56,118571,6,0,B|232:44|204:80|232:124|232:124|176:116|136:132|160:180,1,200
144,252,119021,1,0,0:0:0
240,320,119171,1,0,0:0:0
348,296,119321,2,0,B|400:252|476:252|476:252|488:192|500:184|480:192,1,200
356,160,119921,6,0,B|480:172,1,100
156,224,120221,2,0,B|32:212,1,100
256,192,120521,1,0,0:0:0
256,192,120671,1,0,0:0:0
256,192,120821,1,0,0:0:0
164,80,120971,6,0,B|240:140|292:128,1,100
256,192,121271,1,0,0:0:0
348,304,121421,2,0,B|272:244|220:256,1,100
156,216,121720,1,0,0:0:0
156,108,121870,2,0,B|272:108,1,100
480,172,122320,6,0,B|472:88|424:44|424:44|356:72,1,200
328,236,122920,2,0,B|312:284|328:336,2,100
184,148,123520,2,0,B|200:100|184:48,2,100
256,192,124120,1,0,0:0:0
416,256,124420,6,0,B|384:288|384:288|328:292|280:276,1,150.000005722046
96,128,124720,2,0,B|128:96|128:96|184:92|232:108,1,150.000005722046
324,216,125020,1,0,0:0:0
188,168,125170,1,0,0:0:0
360,176,125320,1,0,0:0:0
152,208,125470,2,0,B|168:272|168:272|192:320|236:328,1,150.000005722046
360,176,125770,2,0,B|344:112|344:112|320:64|276:56,1,150.000005722046
152,76,126220,1,0,0:0:0
80,88,126370,5,0,0:0:0
112,120,126445,1,0,0:0:0
144,152,126520,1,0,0:0:0
176,180,126595,1,0,0:0:0
208,208,126670,1,0,0:0:0
240,236,126745,1,0,0:0:0
272,264,126820,2,0,B|328:296|392:292|392:292|456:256|480:236|468:184,1,250
384,160,127270,5,0,0:0:0
280,96,127420,1,0,0:0:0
384,48,127570,1,0,0:0:0
360,168,127720,1,0,0:0:0
268,88,127870,1,0,0:0:0
160,56,128020,2,0,B|112:56|128:120|64:136|24:144|24:144|40:208|96:220,2,250
164,184,128770,6,0,B|204:268,2,62.5
272,224,129070,1,0,0:0:0
260,120,129220,2,0,B|286:75|337:68|382:86,1,125
404,168,129520,2,0,B|396:208|396:208|416:264|372:304,1,125
280,324,129820,2,0,B|280:296|292:228|272:216|220:288|188:248|188:248|144:284|68:252,2,250
396,320,130570,1,0,0:0:0
380,240,130720,1,0,0:0:0
312,168,130870,1,0,0:0:0
220,140,131020,1,0,0:0:0
108,124,131170,5,0,0:0:0
76,152,131245,1,0,0:0:0
88,196,131320,1,0,0:0:0
72,236,131395,1,0,0:0:0
88,272,131470,1,0,0:0:0
124,292,131545,1,0,0:0:0
172,288,131620,1,4,0:0:0
268,164,131919,6,0,B|240:144|220:112|220:112|224:84|244:48,1,125
324,200,132219,2,0,B|311:167|312:130|312:130|330:108|367:89,1,125
372,240,132519,2,0,B|379:206|401:175|401:175|428:168|469:172,1,125
308,304,132819,2,0,B|340:360|340:360|312:308|312:304|308:308,1,125
224,300,133119,2,0,B|176:348|116:320|104:316,1,125
184,252,133419,2,0,B|119:271|79:218|70:209,1,125
168,192,133719,2,0,B|110:156|124:91|125:78,1,125
208,148,134019,2,0,B|244:128|296:112|320:140|320:140|312:184|320:216|372:216|404:224|416:200,1,250
352,280,134469,5,0,0:0:0
448,248,134619,1,0,0:0:0
376,164,134769,1,0,0:0:0
472,116,134919,1,0,0:0:0
388,40,135069,1,0,0:0:0
280,88,135219,2,0,B|228:64|188:92|188:92|160:96|120:88|120:88|76:124|32:104,1,250
204,296,135819,1,0,0:0:0
68,200,135969,1,0,0:0:0
224,136,136119,1,0,0:0:0
392,80,136419,6,0,B|432:36|432:36|440:20|468:52|488:100|476:180|392:184,1,250
236,232,136869,5,0,0:0:0
136,288,137019,1,0,0:0:0
44,224,137169,2,0,B|89:167|128:240|193:158,1,125
292,44,137619,1,0,0:0:0
304,192,137769,1,0,0:0:0
444,152,137919,2,0,B|424:204|464:188|484:228|484:228|452:244|452:244|464:280|496:260|496:316|496:356,1,250
112,64,138519,5,0,0:0:0
64,232,138669,1,0,0:0:0
232,164,138819,2,0,B|288:104|352:128|352:128|336:152|384:192|424:128|412:72,1,250
376,280,139269,1,0,0:0:0
208,284,139419,2,0,B|136:352|108:304|108:304|168:232|144:168,1,250
128,72,140019,1,0,0:0:0
232,36,140169,1,0,0:0:0
320,104,140319,1,0,0:0:0
436,96,140469,1,0,0:0:0
496,192,140619,1,0,0:0:0
376,280,140769,5,0,0:0:0
376,280,140844,1,0,0:0:0
376,280,140919,1,0,0:0:0
260,276,141069,2,0,B|176:268|176:264|176:264|144:240,1,125
128,156,141369,5,0,0:0:0
232,140,141519,2,0,B|236:172|236:172|224:200|248:192|248:192|240:216|240:216|260:240,1,125
320,104,141818,1,0,0:0:0
396,168,141968,2,0,B|392:200|392:200|404:228|380:220|380:220|388:244|388:244|368:268,1,125
476,264,142268,1,0,0:0:0
444,344,142418,2,0,B|428:328|380:280|316:264|316:264|288:316|200:296,1,250
120,268,142868,5,0,0:0:0
104,180,143018,2,0,B|76:164|108:144|80:124|80:124|88:88|88:88|64:64,1,125
204,192,143318,1,0,0:0:0
284,156,143468,2,0,B|312:140|280:120|308:100|308:100|300:64|300:64|324:40,1,125
256,352,143918,6,0,B|248:320|248:320|260:288|260:288|248:260|248:260|260:232|260:232|248:208|248:208|260:180|260:180|248:152|248:152|260:120|260:120,2,250
328,320,144668,2,0,B|384:248|384:248|368:160,1,125
456,168,144968,1,0,0:0:0
360,128,145118,2,0,B|312:100|300:76|300:76|240:76,1,125
256,192,145418,1,0,0:0:0
0,192,145718,1,0,0:0:0
128,384,146018,1,4,0:0:0
260,60,155317,6,0,B|224:96,1,50
260,60,155467,2,0,B|256:124,1,50
260,60,155617,2,0,B|296:100,1,50
260,60,155767,2,0,B|332:52,1,50
264,60,155917,1,0,0:0:0
300,80,155992,1,0,0:0:0
336,96,156067,1,0,0:0:0
372,104,156142,1,0,0:0:0
412,104,156217,1,0,0:0:0
452,100,156292,1,0,0:0:0
492,112,156367,5,0,0:0:0
512,140,156442,1,0,0:0:0
512,172,156517,1,0,0:0:0
492,200,156592,1,0,0:0:0
460,224,156667,1,0,0:0:0
424,228,156742,1,0,0:0:0
392,248,156817,1,0,0:0:0
384,280,156892,1,0,0:0:0
356,308,156967,1,0,0:0:0
320,316,157042,1,0,0:0:0
284,304,157117,1,0,0:0:0
252,288,157192,2,0,B|192:312,1,50
232,264,157342,2,0,B|168:272,1,50
216,232,157492,2,0,B|160:216,2,50
216,200,157717,6,0,B|192:176|192:176|200:148|160:88,1,100
48,128,158017,1,0,0:0:0
48,128,158092,1,0,0:0:0
48,128,158167,1,0,0:0:0
40,224,158317,2,0,B|48:256|116:272|136:248,1,100
208,144,158617,6,0,B|108:200,1,100
264,132,158917,2,0,B|208:248,1,100
324,116,159217,1,0,0:0:0
332,216,159367,2,0,B|400:188|416:120,2,100
296,308,159817,6,0,B|356:284,2,50
260,300,160042,1,0,0:0:0
228,292,160117,1,0,0:0:0
196,284,160192,1,0,0:0:0
160,276,160267,1,0,0:0:0
124,268,160342,1,0,0:0:0
88,260,160417,1,4,0:0:0
88,136,160567,6,0,B|104:176|120:196|160:204,1,100
272,112,160867,2,0,B|230:101|204:102|174:130,1,100,0|0,0:0|0:0,0:0:0
348,196,161167,2,0,B|236:192,1,100
392,96,161467,1,0,0:0:0
460,192,161617,1,0,0:0:0
392,288,161766,1,0,0:0:0
320,192,161916,1,0,0:0:0
228,120,162066,1,0,0:0:0
176,228,162216,2,0,B|208:220|208:220|240:264|284:236,1,100
128,320,162516,2,0,B|96:328|96:328|64:284|20:312,1,100
44,192,162816,5,0,0:0:0
44,192,162891,1,0,0:0:0
44,192,162966,2,0,B|124:220|184:180,1,100
144,84,163266,2,0,B|200:72|280:112,1,100
260,192,163566,2,0,B|312:196|344:184|400:200,1,100
464,104,163866,1,0,0:0:0
456,196,164016,1,0,0:0:0
408,288,164166,1,0,0:0:0
320,336,164316,2,0,B|273:305|273:305|269:313|269:313|262:298|262:298|258:306|258:306|252:290|252:290|248:298|248:298|242:283|242:283|238:291|238:291|221:268|198:250|198:250|214:204|214:204|218:202|149:202|149:271|125:225|125:225|120:184|64:175|64:175|48:172|0:162,1,500
120,56,165216,1,4,0:0:0
256,56,174815,5,0,0:0:0
256,328,175115,1,0,0:0:0
296,104,175415,1,0,0:0:0
216,280,175715,1,0,0:0:0
336,152,176015,1,0,0:0:0
176,232,176315,1,0,0:0:0
380,200,176615,1,0,0:0:0
132,184,176915,1,0,0:0:0
256,328,177215,5,0,0:0:0
256,56,177515,1,0,0:0:0
312,304,177815,1,0,0:0:0
200,80,178115,1,0,0:0:0
368,272,178415,1,0,0:0:0
144,112,178715,1,0,0:0:0
416,236,179015,1,0,0:0:0
328,176,179165,1,0,0:0:0
248,124,179315,1,0,0:0:0
160,80,179465,1,0,0:0:0
64,104,179615,1,0,0:0:0
84,196,179765,6,0,B|140:312,1,100
172,168,180065,2,0,B|228:284,1,100
264,136,180365,2,0,B|320:252,1,100
360,100,180665,2,0,B|416:216,1,100
428,188,180965,6,0,B|372:72,1,100
340,216,181265,2,0,B|284:100,1,100
248,248,181565,2,0,B|192:132,1,100
152,284,181865,2,0,B|96:168,1,100
256,192,182089,12,0,184114,0:0:0
80,64,184414,6,0,B|104:104|172:108|204:80|204:80|224:120|224:120|248:96|248:96|300:96,1,259.999988098145
256,192,184864,1,0,0:0:0
392,136,185014,1,0,0:0:0
256,192,185164,1,0,0:0:0
384,264,185314,1,0,0:0:0
256,192,185464,2,0,B|256:256|196:288|196:288|204:320,1,129.999994049073
104,220,185764,1,0,0:0:0
172,152,185914,2,0,B|212:116|284:112|316:128|364:160|384:228,1,259.999988098145
408,60,186514,5,0,0:0:0
236,60,186814,1,0,0:0:0
324,212,187114,1,0,0:0:0
392,280,187264,2,0,B|444:228|412:160,1,129.999994049073
164,156,187714,2,0,B|248:172|252:140|252:140|308:136|308:136|316:116|316:116|324:100|344:124|400:92,1,259.999988098145
352,216,188164,2,0,B|304:272|228:288,2,129.999994049073
412,340,188614,1,0,0:0:0
336,206,188764,1,0,0:0:0
312,176,188839,5,0,0:0:0
284,152,188914,1,0,0:0:0
256,132,188989,1,0,0:0:0
224,116,189064,1,0,0:0:0
132,76,189214,6,0,B|100:144|104:144|116:200|120:200|164:252|168:252|256:252,1,259.999988098145
216,152,189664,1,0,0:0:0
344,36,189814,1,0,0:0:0
316,168,189964,1,0,0:0:0
456,124,190114,2,0,B|448:180|448:180|440:228|388:248,1,129.999994049073
468,312,190414,2,0,B|432:336|384:284|344:256|344:256|340:256|260:296|180:256,1,259.999988098145
104,336,190864,1,0,0:0:0
16,248,191014,2,0,B|20:172|116:144,1,129.999994049073
176,52,191314,1,0,0:0:0
308,92,191464,2,0,B|264:156|172:156,1,129.999994049073
256,240,191763,1,0,0:0:0
392,192,191913,5,0,0:0:0
488,112,192063,1,0,0:0:0
400,200,192213,1,0,0:0:0
320,312,192363,2,0,B|248:340|136:336,1,129.999994049073
68,272,192663,1,0,0:0:0
132,160,192813,2,0,B|160:136|160:136|184:156|184:156|200:148|200:148|224:160|224:160|244:144|244:144|272:160|272:160|296:148|296:148|304:152|304:152|328:144|328:144|344:164|344:164|368:148,1,259.999988098145
464,264,193413,1,0,0:0:0
436,272,193488,5,0,0:0:0
400,280,193563,1,0,0:0:0
364,272,193638,1,0,0:0:0
328,284,193713,1,0,0:0:0
300,264,193788,1,0,0:0:0
272,252,193863,1,0,0:0:0
264,220,193938,1,0,0:0:0
232,204,194013,2,0,B|172:160|80:216|80:216|68:164|84:112,1,259.999988098145,4|0,0:0|0:0,0:0:0
156,48,194463,5,0,0:0:0
136,160,194613,2,0,B|192:260|268:252,1,129.999994049073
280,112,194913,1,0,0:0:0
340,52,195063,2,0,B|380:68|380:68|392:80|392:80|412:84|412:84|460:120,1,129.999994049073
440,224,195363,1,0,0:0:0
340,300,195513,2,0,B|272:300|256:276|256:276|236:312|236:312|216:276|216:276|184:300|96:300,1,259.999988098145
64,80,195963,5,0,0:0:0
64,80,196038,1,0,0:0:0
64,80,196113,6,0,B|12:140|60:208,2,129.999994049073
144,200,196563,1,0,0:0:0
232,204,196713,2,0,B|284:264|236:332,1,129.999994049073
144,312,197013,2,0,B|312:312|424:256,1,259.999988098145
360,124,197613,1,0,0:0:0
436,248,197763,1,0,0:0:0
152,124,198063,1,0,0:0:0
76,248,198213,1,0,0:0:0
138,196,198363,5,0,0:0:0
164,216,198437,1,0,0:0:0
189,235,198512,1,0,0:0:0
215,255,198587,1,0,0:0:0
241,274,198662,1,0,0:0:0
268,296,198738,1,0,0:0:0
300,320,198813,6,0,B|368:280|380:200|380:200|356:152,1,194.999991073609
336,136,199113,1,0,0:0:0
308,116,199188,1,0,0:0:0
280,104,199263,1,0,0:0:0
136,56,199413,2,0,B|140:120|140:120|172:192,1,129.999994049073
332,264,199713,2,0,B|288:320|212:316,1,129.999994049073
128,316,200013,6,0,B|12:272|56:156,1,194.999991073609
64,132,200313,1,0,0:0:0
88,108,200388,1,0,0:0:0
120,96,200463,1,0,0:0:0
260,140,200613,2,0,B|312:216|380:240,1,129.999994049073
456,180,200913,2,0,B|476:256|412:320,1,129.999994049073
324,332,201213,1,0,0:0:0
260,36,201513,6,0,B|252:56|252:56|260:68|260:68|256:84|256:84|256:116|256:116|260:136|260:136|252:160|252:160|264:184|264:184|252:216|260:244|260:244|248:272|248:272|268:284,2,259.999988098145
128,192,202262,2,0,B|164:276|224:304,1,129.999994049073
384,192,202562,2,0,B|348:108|288:80,1,129.999994049073
256,192,202862,1,0,0:0:0
124,296,203012,5,0,0:0:0
256,84,203312,1,0,0:0:0
388,296,203612,1,4,0:0:0
