osu file format v5

[General]
AudioFilename: patapon_music.mp3
AudioLeadIn: 0
PreviewTime: -1
Countdown: 0
SampleSet: Normal
StackLeniency: 0.6
Mode: 0
LetterboxInBreaks: 1

[Metadata]
Title:Patapon Credits
Artist:Sony
Creator:crashthedog
Version:Chaka Chaka Pata Pon
Source:
Tags:

[Difficulty]
HPDrainRate:6
CircleSize:3
OverallDifficulty:7
SliderMultiplier:2.1
SliderTickRate:2

[Events]
//Background and Video events
0,0,"patapon.jpg"
//Break Periods
2,58705,59956
2,84709,86109
2,112712,114112
2,138715,140115
2,164718,166118
2,189158,192122
2,219243,220148
//Storyboard Layer 0 (Background)
//Storyboard Layer 1 (Failing)
//Storyboard Layer 2 (Passing)
//Storyboard Layer 3 (Foreground)
//Storyboard Sound Samples
//Background Colour Transformations
3,100,255,255,255

[TimingPoints]
9000,499.168053244592,4,1,0,70,1
34446,500.859299999998,4,1,0,100,1
60490,499.959299999998,4,1,0,100,1
86487,499.583680266445,4,1,0,100,1
114479,499.959299999998,4,1,0,100,1
140476,499.968053244593,4,1,0,100,1
166474,500.292050209205,4,1,0,100,1
192477,501.25313283208,4,1,0,100,1
220547,500,4,1,0,100,1
245047,500,4,1,0,100,1

[Colours]
Combo1 : 244,0,6
Combo2 : 154,149,255
Combo3 : 50,218,218
Combo4 : 0,0,0

[HitObjects]
176,192,8999,5,0
176,192,9499,1,0
176,192,9999,1,0
336,192,10499,1,0
256,48,10999,6,0,B|384:112|432:192|384:272|256:336|128:272|80:192|128:112|240:64,1,630
176,192,12999,5,0
176,192,13499,1,0
176,192,13999,1,0
336,192,14499,1,0
448,96,14999,6,0,B|16:96,1,420
64,144,16248,1,0
112,192,16498,1,0
176,192,16998,5,0
176,192,17498,1,0
176,192,17998,1,0
336,192,18480,1,0
192,96,18998,6,2,B|336:96,1,131.25
336,128,19498,2,0,B|336:240,1,105
320,272,19998,2,2,B|208:272,1,105
176,240,20498,2,0,B|176:128,1,105
176,192,20980,5,0
176,192,21480,1,0
176,192,21980,1,0
336,192,22479,1,0
448,64,22976,6,0,B|48:128|48:128|256:272,1,630
336,192,24972,5,0
336,192,25472,1,0
176,192,25972,1,0
336,192,26472,1,0
256,48,26970,6,0,B|256:368,1,315
208,320,27970,1,2
304,320,28220,1,0
208,320,28470,1,2
256,112,28965,5,0
256,112,29464,1,0
176,192,29964,1,0
336,192,30464,1,0
144,48,30981,6,0,B|208:80|208:80|256:48|256:48|304:80|304:80|384:48|384:48|256:288|256:288|192:208,1,630
256,192,32960,12,0,34460
176,192,34950,5,0
176,192,35450,1,0
176,192,35949,1,0
336,192,36449,1,0
176,112,36952,5,0
256,160,37327,1,0
336,112,37702,1,0
416,160,37952,2,2,B|448:256|272:288,1,210
176,192,38953,5,0
176,192,39453,1,0
176,192,39953,1,0
336,192,40453,1,0
176,80,40957,6,0,B|336:80|336:80|336:240|336:240|176:240|176:240|176:64,1,630
176,192,42963,5,0
176,192,43463,1,0
176,192,43963,1,0
336,192,44463,1,0
464,192,44964,6,2,B|336:192,1,105
336,192,45464,2,0,B|224:192,1,105
192,192,45964,2,2,B|80:192,1,105
87,192,46464,1,0
336,192,46970,5,0
336,192,47470,1,0
176,192,47970,1,0
336,192,48470,1,0
192,272,48970,5,0
192,144,49345,1,0
320,80,49969,1,0
320,208,50344,1,0
256,112,50974,5,0
256,112,51474,1,0
176,192,51974,1,0
336,192,52474,1,0
144,208,52977,6,0,B|144:320,1,105
224,304,53477,1,2
288,304,53727,1,2
368,304,53977,2,0,B|368:192,1,105
368,128,54477,1,2
176,192,54981,5,0
176,192,55481,1,0
176,192,55981,1,0
336,192,56480,1,0
256,192,56984,12,0,58484
176,192,60992,5,0
176,192,61492,1,0
176,192,61992,1,0
336,192,62492,1,0
48,320,62991,6,0,B|112:224|112:224|160:320,1,210
304,320,63991,2,0,B|384:224|384:224|432:320,1,210
336,192,64991,5,0
336,192,65491,1,0
176,192,65991,1,0
336,192,66491,1,0
160,336,66991,6,0,B|224:224,1,105
240,208,67489,2,0,B|336:16,1,210
176,208,68239,2,2,B|288:256,1,105
336,192,68991,5,0
336,192,69491,1,0
176,192,69990,1,0
336,192,70490,1,0
432,192,70990,6,0,B|368:288|240:320|80:240|112:64|288:32|368:96|368:96|400:128|336:160,1,630
336,192,72990,5,0
336,192,73490,1,0
176,192,73990,1,0
336,192,74490,1,0
48,336,74990,6,0,B|128:208|128:208|176:272|176:272|496:16,1,630
256,112,76989,5,0
256,112,77489,1,0
176,192,77989,1,0
336,192,78489,1,0
208,48,78989,5,2
304,96,79239,1,0
208,144,79489,1,2
304,192,79739,1,0
208,240,79989,1,2
304,288,80239,1,2
208,336,80489,1,2
336,192,80989,5,0
336,192,81489,1,0
176,192,81989,1,0
336,192,82489,1,0
256,192,82989,12,0,84490
336,192,86988,1,0
336,192,87488,1,0
176,192,87988,1,0
336,192,88488,1,0
464,48,88988,6,0,B|368:96|368:96|480:336|480:336|208:256,1,630
336,192,90987,5,0
336,192,91487,1,0
176,192,91987,1,0
336,192,92487,1,0
176,320,92987,5,0
256,320,93362,1,0
304,320,93487,1,0
384,320,93737,1,0
384,320,93987,2,2,B|384:96,1,210
336,192,94987,5,0
336,192,95487,1,0
176,192,95987,1,0
336,192,96487,1,0
384,336,96986,6,0,B|192:80,1,315
144,128,97986,1,2
160,48,98236,1,0
240,64,98486,1,2
336,192,98986,5,0
336,192,99486,1,0
176,192,99986,1,0
336,192,100486,1,0
416,304,100986,6,0,B|336:96|336:96|128:160|128:160|192:352,1,630
256,112,102986,5,0
256,112,103485,1,0
176,192,103985,1,0
336,192,104485,1,0
96,112,104971,6,0,B|417:112|417:112|368:224|240:240|128:224|96:96,1,735
256,112,107218,5,0
256,112,107718,1,0
176,192,108218,1,0
336,192,108718,1,0
416,224,108968,6,0,B|320:-16|256:240|256:240|208:240|144:112|144:112|96:128|64:256|64:256,1,630
256,192,110966,12,0,112466
112,192,114984,6,0,B|160:96|208:48|310:52|399:108|416:204|389:272|272:320|204:274|204:274|256:192,1,630
256,208,116983,2,2,B|288:304|384:320|464:256|480:112|336:32|176:96|96:240,1,630
96,240,118983,2,0,B|224:304|432:304|464:80|336:32|336:32|224:128,1,630
336,192,120983,5,0
336,192,121483,1,0
176,192,121983,1,0
336,192,122483,1,0
80,48,122983,6,0,B|320:112|320:112|192:176|192:176|416:320,1,630
336,192,124982,5,0
336,192,125482,1,0
176,192,125982,1,0
336,192,126482,1,0
416,192,126982,5,0
336,288,127732,1,0
256,192,128232,1,0
176,224,128482,2,2,B|143:144|192:112,1,105
256,112,128982,5,0
256,112,129482,1,0
176,192,129982,1,0
336,192,130481,1,0
256,48,130981,6,0,B|171:98|171:98|344:176|344:176|164:256|164:256|304:320,1,630
176,192,132981,5,0
176,192,133481,1,0
176,192,133981,1,0
336,192,134481,1,0
304,320,134981,6,0,B|190:268|153:197|192:160,1,210
272,208,135852,2,0,B|352:164|368:96|288:16|208:48,1,262.5
256,192,136981,12,0,138481
32,48,140975,2,0,B|352:80|400:128|352:176|256:192|176:176|112:208|160:288|272:304|304:304,1,630
176,192,142980,5,0
176,192,143480,1,0
176,192,143979,1,0
336,192,144479,1,0
176,80,144979,6,0,B|368:192|368:192|272:256|176:224|176:96,1,498.75
288,176,146479,5,2
176,192,146975,5,0
176,192,147475,1,0
176,192,147975,1,0
336,192,148475,1,0
176,48,148975,5,0
256,112,149350,1,0
336,176,149725,1,0
256,224,149975,1,0
176,272,150350,1,0
336,192,150975,5,0
336,192,151475,1,0
176,192,151975,1,0
336,192,152475,1,0
416,112,152975,6,0,B|240:32|105:57|45:176|63:260|137:314|304:304,1,630
336,192,154974,5,0
336,192,155474,1,0
176,192,155974,1,0
336,192,156474,1,0
256,80,156978,6,0,B|147:143|147:143|141:243|141:243|240:272,1,315
224,192,157977,2,2,B|352:192,2,105
256,112,158977,5,0
256,112,159477,1,0
176,192,159977,1,0
336,192,160477,1,0
176,144,160977,6,0,B|224:176|224:240|160:256|80:192|176:128,1,210
336,144,161974,2,0,B|401:172|404:233|361:240|304:240|296:192|320:160|336:128,1,210
256,192,162977,12,0,164477
48,320,166974,2,2,B|112:320|144:262|144:262|176:320|240:320,1,210
304,320,167974,2,2,B|368:320|400:262|400:262|432:320|496:320,1,210
176,192,168975,5,0
176,192,169475,1,0
176,192,169976,1,0
336,192,170476,1,0
155,269,170976,6,0,B|203:237|299:237|363:269,1,210
176,192,171977,1,0
256,176,172227,1,0
336,192,172477,1,0
176,192,172977,5,0
176,192,173478,1,0
176,192,173978,1,0
336,192,174478,1,0
96,272,174978,6,0,B|80:160|141:93|272:74|368:112|432:192|400:288,1,525
240,208,176479,1,2
336,192,176980,5,0
336,192,177480,1,0
176,192,177981,1,0
336,192,178481,1,0
192,128,178981,6,2,B|272:176|272:176|416:128|416:128|496:176,1,315
480,160,179982,2,0,B|406:242|304:253|225:244|192:192,1,315
176,192,180982,5,0
176,192,181483,1,0
176,192,181983,1,0
336,192,182483,1,0
208,112,182983,5,2
304,112,183483,1,2
256,192,183733,1,2
256,192,183858,1,2
256,192,183983,1,2
224,240,184108,1,2
288,240,184358,1,2
256,112,184984,5,0
256,112,185484,1,0
176,192,185984,1,0
336,192,186485,1,0
160,96,186985,5,0
256,96,187235,1,0
352,80,187485,2,0,B|381:240|381:240|256:141|256:141|124:233|124:233|160:64,1,630
384,80,192977,6,0,B|223:157|58:159|58:159|160:224|160:224|208:176|208:176|271:192|271:192|304:160,1,630
336,192,194987,5,0
336,192,195487,1,0
176,192,195987,1,0
336,192,196487,1,0
400,208,196988,6,0,B|258:290|98:302|98:302|143:219|143:219|224:240|224:240|272:184|272:184|336:208,1,630
256,112,198997,5,0
256,112,199497,1,0
176,192,199997,1,0
336,192,200497,1,0
144,96,200998,6,0,B|257:160|257:160|367:100|367:100|400:176|304:208|254:268|208:208|114:176|144:96,1,630
176,192,203003,5,0
176,192,203503,1,0
176,192,204003,1,0
336,192,204503,1,0
256,192,205008,6,0,B|368:176|384:96|288:64|176:48|96:112|64:176|96:304|234:324|318:287|368:256,1,630
256,112,207017,5,0
256,112,207517,1,0
176,192,208017,1,0
336,192,208517,1,0
112,272,209018,6,0,B|288:272|496:240|528:144|368:32|272:176|160:64,1,630
256,272,211027,5,0
256,272,211526,1,0
256,272,211776,1,2
256,272,212276,1,0
256,272,212527,1,2
256,192,213028,12,0,216035
96,224,217038,2,0,B|160:272|272:272|419:238|416:113|384:7|234:-5|91:32|85:137|135:230|242:275|348:269|411:257|448:240,1,840
176,192,221046,5,0
176,192,221546,1,0
176,192,222046,1,0
336,192,222546,1,0
256,96,223046,6,0,B|368:96|368:96|368:208,1,210
256,192,223795,1,2
144,192,224045,2,2,B|144:304|144:304|256:304,1,210
336,192,225045,5,0
336,192,225545,1,0
256,112,226045,1,0
256,112,226544,1,0
160,96,227044,6,0,B|288:96|288:96|288:192|288:192|176:192|176:192|176:288|176:288|288:288|288:288|384:288,1,630
336,192,229043,5,0
336,192,229543,1,0
176,192,230043,1,0
336,192,230543,1,0
384,272,231043,6,2,B|256:80|256:80|160:272|160:272|352:272,1,630
256,112,233042,5,0
256,112,233542,1,0
176,192,234042,1,0
336,192,234541,1,0
224,160,235041,5,2
256,192,235291,1,0
288,224,235541,1,2
288,160,236041,1,2
256,192,236291,1,0
224,224,236541,1,2
176,192,237041,5,0
176,192,237540,1,0
176,192,238040,1,0
336,192,238540,1,0
416,304,239040,6,0,B|416:80|336:48|224:80|240:176|240:272|240:304|160:336|112:320|32:256|48:176|64:96|96:64,1,735
81,85,241039,2,0,B|112:32|176:16|256:48|288:256|432:240|464:96|320:48|272:16|208:112|144:208|208:288,1,630
176,192,243047,5,0
176,192,243547,1,0
176,192,244047,1,0
336,192,244547,1,0
48,304,245047,6,2,B|96:224,1,78.75
128,256,245422,2,2,B|176:176,1,78.75
208,208,245984,2,0,B|238:110|268:67|316:44|368:80,1,236.25
176,192,247047,5,0
176,192,247547,1,0
176,192,248047,1,0
336,192,248547,1,0
384,176,249297,6,0,B|304:80,1,105
288,64,249797,1,2
224,64,250297,2,0,B|176:160,1,105
256,160,250797,1,2
336,192,251047,5,0
336,192,251547,1,0
176,192,252047,1,0
336,192,252547,1,0
256,272,253297,6,0,B|256:160,1,105
256,192,254172,2,0,B|256:64,1,105
288,128,254797,1,2
336,192,255047,5,0
336,192,255547,1,0
176,192,256047,1,0
336,192,256547,1,0
256,128,257297,5,0
256,176,257547,1,0
256,224,257797,1,0
256,272,258047,2,2,B|320:272|320:272|320:112,1,210
256,112,259047,5,0
256,112,259547,1,0
176,192,260047,1,0
336,192,260547,1,0
336,112,261047,5,0
336,112,261172,1,0
256,112,261422,1,0
256,112,261547,1,0
176,112,261922,1,0
176,112,262047,1,0
256,192,262547,1,0
336,192,263047,5,0
176,192,263547,1,0
336,192,264047,1,0
176,192,264547,1,0
416,192,265047,6,0,B|256:32|256:32|176:112|176:112|240:176|240:176|80:320,1,630
256,192,267047,12,0,269047
