osu file format v14

[General]
AudioFilename: watashitachi ha mirai no hana.mp3
AudioLeadIn: 0
PreviewTime: 91596
Countdown: 0
SampleSet: Soft
StackLeniency: 0.5
Mode: 0
LetterboxInBreaks: 0
WidescreenStoryboard: 0

[Editor]
Bookmarks: 28727,50365,91678,123809
DistanceSpacing: 0.9
BeatDivisor: 2
GridSize: 4
TimelineZoom: 1

[Metadata]
Title:Watashitachi wa Mirai no Hana
TitleUnicode:私たちは未来の花
Artist:Sonoda Umi (CV.Mimori Suzuko)
ArtistUnicode:園田海未(CV.三森すずこ)
Creator:Dailycare
Version:Normal
Source:ラブライブ! School idol project
Tags:Love Live 海色少女に魅せられて μ's u's
BeatmapID:859250
BeatmapSetID:394816

[Difficulty]
HPDrainRate:4
CircleSize:3
OverallDifficulty:4
ApproachRate:5
SliderMultiplier:1.2
SliderTickRate:1

[Events]
//Background and Video events
0,0,"2.jpg",0,0
//Break Periods
2,16304,18838
//Storyboard Layer 0 (Background)
//Storyboard Layer 1 (Fail)
//Storyboard Layer 2 (Pass)
//Storyboard Layer 3 (Foreground)
//Storyboard Sound Samples

[TimingPoints]
4049,909.090909090909,4,2,10,55,1,0
14957,327.868852459016,4,2,1,70,1,0
16104,327.868852459016,4,2,1,70,1,0
21513,327.868852459016,4,2,1,70,1,0
29381,-133.333333333333,4,2,1,60,0,0
33972,-111.111111111111,4,2,0,70,0,0
34627,-133.333333333333,4,2,1,60,0,0
44463,-111.111111111111,4,2,1,70,0,0
55611,-133.333333333333,4,2,1,60,0,0
59381,-111.111111111111,4,2,1,70,0,0
70037,-111.111111111111,4,2,1,85,0,0
71185,-111.111111111111,4,2,1,80,0,1
92332,-111.111111111111,4,2,2,80,0,1
101349,-111.111111111111,4,2,1,80,0,1
102824,-111.111111111111,4,2,2,80,0,1
108070,-133.333333333333,4,2,1,60,0,0
110693,-111.111111111111,4,2,1,68,0,0
111349,-111.111111111111,4,2,1,75,0,0
112004,-111.111111111111,4,2,1,80,0,0
113152,-111.111111111111,4,2,1,70,0,1
131676,-111.111111111111,4,2,1,70,0,0
134299,-111.111111111111,4,2,1,80,0,0
136431,-111.111111111111,4,2,2,5,0,0
136922,-111.111111111111,4,2,2,50,0,0

[Colours]
Combo1 : 255,128,128
Combo2 : 128,128,255
Combo3 : 0,128,192
Combo4 : 255,128,255

[HitObjects]
164,164,6777,6,0,P|200:120|280:120,1,120,0|4,0:0|0:0,0:0:0:0:
352,168,8595,2,0,P|372:221|332:290,1,120,0|4,0:0|0:0,0:0:0:0:
260,336,10413,1,8,0:0:0:0:
172,272,11322,6,0,P|132:260|56:308,2,120,4|8|0,0:0|0:0|0:0,0:0:0:0:
256,192,13594,12,0,16104,0:0:0:0:
172,272,20038,6,0,P|232:284|288:232,1,120,0|8,3:0|0:0,0:0:0:0:
304,204,20530,2,0,P|353:172|410:184,1,120,0|8,3:0|0:0,0:0:0:0:
448,224,21022,2,0,P|459:256|454:287,1,60,0|8,3:0|0:0,0:0:0:0:
372,352,21513,6,0,L|221:347,1,120,4|8,3:2|0:0,0:0:0:0:
144,368,22169,2,0,P|143:332|157:300,1,60
184,268,22496,1,8,0:0:0:0:
172,156,22824,2,0,P|96:140|44:180,2,120,2|10|2,0:0|0:0|0:0,0:0:0:0:
272,128,23808,1,10,0:0:0:0:
320,220,24136,6,0,P|352:232|444:180,1,120,2|10,0:0|0:0,0:0:0:0:
508,128,24792,2,0,P|455:92|392:104,1,120,2|8,0:0|0:0,0:0:0:0:
360,128,25283,1,4,0:0:0:0:
304,36,25611,2,0,P|272:41|240:32,1,60,0|8,0:0|0:0,0:0:0:0:
164,104,26103,2,0,P|204:124|224:216,1,120,2|8,0:0|0:0,0:0:0:0:
192,292,26759,6,0,L|48:276,1,120,4|8,0:0|0:0,0:0:0:0:
12,188,27415,2,0,P|16:144|12:100,1,60
4,76,27742,1,8,0:0:0:0:
102,120,28070,2,0,B|167:152|224:103|224:103|191:172|254:237,1,240,2|10,0:0|0:0,0:0:0:0:
256,192,29382,12,2,33972,3:1:0:0:
266,227,34628,6,0,P|304:160|288:88,1,135.000005149841,4|0,3:2|3:0,0:0:0:0:
204,28,35611,1,0,3:0:0:0:
148,88,35939,2,0,L|48:80,2,90.0000034332277,0|0|0,3:0|3:0|3:0,0:0:0:0:
200,152,36923,1,8,3:2:0:0:
120,176,37251,6,0,P|81:242|100:308,1,135.000005149841,4|0,3:2|3:0,0:0:0:0:
196,360,38234,1,0,3:0:0:0:
268,320,38562,2,0,P|292:344|368:344,1,90.0000034332277,0|0,3:0|3:0,0:0:0:0:
416,312,39218,2,0,L|424:216,1,90.0000034332277,0|8,3:0|3:2,0:0:0:0:
480,164,39874,6,0,P|420:140|352:180,1,135.000005149841,4|0,3:2|3:0,0:0:0:0:
328,288,40857,1,0,3:0:0:0:
292,216,41185,2,0,L|188:224,2,90.0000034332277,0|0|0,3:0|3:0|3:0,0:0:0:0:
360,168,42169,1,8,3:2:0:0:
296,116,42496,6,0,P|369:87|442:169,1,180.000006866455,4|0,3:2|3:0,0:0:0:0:
368,288,43808,2,0,P|270:312|224:238,1,180.000006866455,0|2,3:0|3:1,0:0:0:0:
224,116,44955,5,2,0:1:0:0:
331,214,45447,1,8,0:0:0:0:
422,182,45775,2,0,P|423:241|378:299,1,107.999996704102,0|8,3:0|0:0,0:0:0:0:
403,331,46267,2,0,P|328:327|215:323,1,161.999995056153,0|8,0:0|0:0,0:0:0:0:
154,280,47086,1,0,3:0:0:0:
233,223,47414,1,8,0:0:0:0:
183,139,47742,6,0,P|221:123|291:145,1,107.999996704102,0|8,3:0|0:0,0:0:0:0:
332,135,48234,2,0,P|335:183|342:245,1,107.999996704102,0|0,0:0|3:0,0:0:0:0:
370,282,48726,1,8,0:0:0:0:
304,353,49054,2,0,P|251:344|180:381,1,107.999996704102,0|8,3:0|0:0,0:0:0:0:
109,329,49709,2,0,L|103:418,2,53.9999983520508,0|0|8,3:0|3:0|0:0,0:0:0:0:
91,283,50201,6,0,P|106:240|94:176,1,107.999996704102,4|0,0:0|0:0,0:0:0:0:
135,150,50693,1,8,0:0:0:0:
135,150,50857,2,0,P|180:133|296:189,1,161.999995056153,0|8,3:0|0:0,0:0:0:0:
311,209,51513,2,0,L|323:77,1,107.999996704102,4|0,0:0|0:0,0:0:0:0:
364,76,52005,1,8,0:0:0:0:
420,156,52332,2,0,L|414:209,2,53.9999983520508,0|0|8,3:0|3:0|0:0,0:0:0:0:
460,68,52988,5,0,3:0:0:0:
364,76,53316,1,8,0:0:0:0:
328,164,53644,1,0,3:0:0:0:
384,244,53972,1,8,0:0:0:0:
312,308,54300,2,0,L|318:381,2,53.9999983520508,0|8|8,3:0|0:0|0:0,0:0:0:0:
257,227,54955,1,2,3:2:0:0:
228,266,55119,2,0,L|78:261,1,107.999996704102
76,259,55611,5,4,3:2:0:0:
35,256,55775,2,0,P|16:215|30:151,1,90.0000034332277
38,134,56267,2,0,L|127:131,1,90.0000034332277,8|0,0:0|3:0,0:0:0:0:
186,74,56923,1,0,3:0:0:0:
216,47,57087,2,0,P|268:43|308:91,1,90.0000034332277,0|0,2:0|0:0,0:0:0:0:
308,104,57578,2,0,L|301:158,2,45.0000017166138,8|0|0,0:0|0:0|3:0,0:0:0:0:
384,72,58234,5,0,3:0:0:0:
460,104,58562,2,0,L|453:162,1,45.0000017166138,0|0,3:0|0:0,0:0:0:0:
428,180,58890,2,0,P|404:216|416:288,1,90.0000034332277,8|0,0:0|3:0,0:0:0:0:
428,304,59381,2,0,L|228:297,1,161.999995056153,4|0,0:0|0:0,0:0:0:0:
176,260,60201,1,8,0:0:0:0:
252,200,60529,2,0,P|262:172|268:136,1,53.9999983520508,8|8,0:0|0:0,0:0:0:0:
260,100,60857,6,0,P|199:111|148:78,1,107.999996704102,6|8,3:2|0:0,0:0:0:0:
124,56,61349,2,0,P|64:96|68:192,1,161.999995056153,6|10,3:2|0:0,0:0:0:0:
8,264,62169,2,0,P|48:304|130:287,1,107.999996704102,6|8,3:2|0:0,0:0:0:0:
140,332,62660,2,0,L|208:176,1,161.999995056153,6|10,3:2|0:0,0:0:0:0:
272,256,63480,6,0,P|320:235|397:262,2,107.999996704102,4|10|0,3:2|3:2|0:0,0:0:0:0:
332,332,64464,1,10,0:0:0:0:
240,364,64792,2,0,L|109:350,1,107.999996704102,0|10,3:0|3:2,0:0:0:0:
94,321,65283,2,0,P|84:268|112:220,1,107.999996704102,0|0,3:0|3:0,0:0:0:0:
156,204,65775,1,10,0:0:0:0:
116,116,66103,6,0,P|168:104|236:152,1,107.999996704102,4|10,3:2|3:2,0:0:0:0:
248,164,66595,2,0,P|310:174|360:140,1,107.999996704102,0|0,3:0|0:0,0:0:0:0:
376,112,67087,1,10,0:0:0:0:
468,140,67415,2,0,P|436:192|466:268,1,107.999996704102,0|10,3:0|3:2,0:0:0:0:
460,332,68070,2,0,L|372:340,1,53.9999983520508,10|0,0:0|3:0,0:0:0:0:
368,308,68398,2,0,L|280:316,1,53.9999983520508,0|0,3:0|3:0,0:0:0:0:
280,348,68726,6,0,P|244:324|240:236,1,107.999996704102,8|0,3:2|3:0,0:0:0:0:
248,220,69218,2,0,P|286:200|368:244,1,107.999996704102,8|0,3:2|3:0,0:0:0:0:
384,184,69710,1,8,3:2:0:0:
416,92,70037,2,0,P|363:100|306:56,1,107.999996704102,2|0,3:1|3:0,0:0:0:0:
300,27,70529,1,2,0:1:0:0:
112,100,71185,6,0,L|128:249,1,107.999996704102,4|0,0:0|0:0,0:0:0:0:
96,248,71677,1,8,0:0:0:0:
176,300,72005,2,0,P|212:276|292:284,1,107.999996704102,0|8,3:0|0:0,0:0:0:0:
312,308,72496,2,0,L|444:304,1,107.999996704102,4|0,0:0|0:0,0:0:0:0:
456,272,72988,1,8,0:0:0:0:
428,180,73316,2,0,L|508:175,2,53.9999983520508,0|0|8,3:0|0:0|0:0,0:0:0:0:
388,151,73808,6,0,P|337:116|276:123,1,107.999996704102,4|0,0:0|0:0,0:0:0:0:
249,138,74300,1,8,0:0:0:0:
165,88,74628,2,0,P|123:111|59:100,1,107.999996704102,0|8,3:0|0:0,0:0:0:0:
31,139,75119,2,0,P|18:195|75:260,1,107.999996704102,4|0,0:0|0:0,0:0:0:0:
86,249,75611,2,0,L|211:244,2,107.999996704102,8|0|8,0:0|3:0|0:0,0:0:0:0:
104,344,76595,6,0,L|229:339,1,107.999996704102,4|8,0:0|0:0,0:0:0:0:
304,304,77251,2,0,L|321:233,2,53.9999983520508,0|0|8,3:0|0:0|0:0,0:0:0:0:
332,344,77742,2,0,P|388:372|460:332,1,107.999996704102,4|0,0:0|3:0,0:0:0:0:
472,336,78234,1,8,0:0:0:0:
400,268,78562,1,0,3:0:0:0:
492,240,78890,1,8,0:0:0:0:
416,176,79218,6,0,P|384:136|304:130,1,107.999996704102,4|8,0:0|0:0,0:0:0:0:
234,104,79874,2,0,L|236:24,2,53.9999983520508,0|0|8,3:0|0:0|0:0,0:0:0:0:
196,136,80365,2,0,P|128:192|36:160,1,161.999995056153,4|8,0:0|0:0,0:0:0:0:
40,84,81185,2,0,L|133:93,1,53.9999983520508,0|8,3:0|0:0,0:0:0:0:
132,56,81513,2,0,L|223:62,1,53.9999983520508,0|8,0:0|0:0,0:0:0:0:
224,28,81841,6,0,L|340:34,1,107.999996704102,4|8,0:0|0:0,0:0:0:0:
380,20,82333,2,0,P|416:76|384:152,1,107.999996704102
388,156,82824,1,8,0:0:0:0:
312,216,83152,2,0,L|175:212,2,107.999996704102,4|8|0,0:0|0:0|3:0,0:0:0:0:
400,256,84136,2,0,L|397:328,1,53.9999983520508,8|0,0:0|3:0,0:0:0:0:
376,352,84464,6,0,P|312:353|269:314,1,107.999996704102,14|0,0:0|3:0,0:0:0:0:
228,328,84955,2,0,P|183:356|130:351,1,107.999996704102,14|0,0:0|3:0,0:0:0:0:
84,332,85447,2,0,P|52:296|88:148,1,215.999993408203,6|8,0:0|0:0,0:0:0:0:
140,240,86431,2,0,P|196:256|263:221,1,107.999996704102,0|8,0:0|0:0,0:0:0:0:
280,208,86923,1,0,3:0:0:0:
300,168,87087,6,0,P|272:108|296:48,1,107.999996704102,4|8,0:0|0:0,0:0:0:0:
376,96,87742,2,0,P|404:156|380:216,1,107.999996704102,0|8,3:0|0:0,0:0:0:0:
368,236,88234,2,0,L|380:352,1,107.999996704102,4|0,0:0|0:0,0:0:0:0:
340,372,88726,1,8,0:0:0:0:
244,364,89054,1,0,3:0:0:0:
148,356,89382,1,8,0:0:0:0:
108,328,89546,6,0,P|104:292|172:228,1,107.999996704102
188,216,90037,2,0,L|204:92,2,107.999996704102,8|0|8,0:0|3:0|0:0,0:0:0:0:
272,264,91021,2,0,L|281:196,1,53.9999983520508,4|0,3:2|0:0,0:0:0:0:
288,164,91349,2,0,L|297:96,1,53.9999983520508,12|0,0:0|0:0,0:0:0:0:
284,64,91677,2,0,P|250:27|168:24,1,107.999996704102,4|10,3:2|3:2,0:0:0:0:
148,32,92169,1,8,3:2:0:0:
100,24,92333,6,0,P|72:64|100:140,1,107.999996704102,4|8,3:2|3:2,0:0:0:0:
156,184,92988,2,0,P|180:240|156:304,1,107.999996704102,0|8,0:0|0:0,0:0:0:0:
188,328,93480,2,0,P|228:352|296:340,1,107.999996704102
324,316,93972,1,8,0:0:0:0:
392,248,94300,1,0,0:0:0:0:
312,196,94628,1,8,0:0:0:0:
380,132,94955,6,0,P|447:125|496:180,1,107.999996704102,0|8,0:0|0:0,0:0:0:0:
508,240,95611,2,0,P|480:301|408:316,1,107.999996704102,0|8,0:0|0:0,0:0:0:0:
396,318,96103,1,0,0:0:0:0:
352,300,96267,2,0,P|312:245|335:175,1,107.999996704102,2|8,0:0|0:0,0:0:0:0:
217,211,96923,2,0,P|215:263|180:303,1,107.999996704102,2|8,0:0|0:0,0:0:0:0:
132,319,97415,1,0,3:0:0:0:
96,288,97578,6,0,L|88:136,1,107.999996704102,4|8,0:0|3:2,0:0:0:0:
28,104,98234,2,0,P|76:80|156:116,1,107.999996704102,0|8,0:0|0:0,0:0:0:0:
176,80,98726,2,0,L|188:208,1,107.999996704102
212,228,99218,2,0,P|276:233|316:196,2,107.999996704102,8|0|8,0:0|0:0|0:0,0:0:0:0:
124,185,100201,6,0,P|113:238|171:314,1,107.999996704102,2|8,0:0|0:0,0:0:0:0:
129,335,100693,2,0,L|278:324,1,107.999996704102,2|0,0:0|0:0,0:0:0:0:
285,324,101185,1,8,0:0:0:0:
324,352,101349,6,0,P|384:364|437:321,1,107.999996704102,2|0,0:1|0:0,0:0:0:0:
448,300,101841,1,10,0:0:0:0:
480,204,102169,2,0,P|455:166|477:83,1,107.999996704102,2|10,3:1|3:2,0:0:0:0:
492,68,102660,1,8,0:0:0:0:
456,36,102824,6,0,L|312:44,1,107.999996704102,4|8,3:2|3:2,0:0:0:0:
251,26,103480,2,0,P|227:78|255:150,1,107.999996704102,0|8,0:0|0:0,0:0:0:0:
262,167,103972,2,0,P|315:191|384:170,1,107.999996704102
403,211,104464,2,0,P|429:254|419:319,2,107.999996704102,8|0|8,0:0|0:0|0:0,0:0:0:0:
336,280,105447,5,0,0:0:0:0:
292,366,105775,1,8,0:0:0:0:
196,345,106103,1,0,0:0:0:0:
187,250,106431,1,8,0:0:0:0:
272,203,106759,1,0,0:0:0:0:
464,236,107415,2,0,L|458:101,1,107.999996704102,0|8,0:0|0:0,0:0:0:0:
456,48,108070,5,4,3:2:0:0:
456,48,109382,1,2,3:2:0:0:
312,124,110037,2,0,L|204:117,1,90.0000034332277,8|0,0:0|0:0,0:0:0:0:
131,153,110693,6,0,B|149:214|109:257|109:257|165:286|148:367,2,215.999993408203,4|0|8,3:2|0:0|3:2,0:0:0:0:
58,87,112333,1,0,3:0:0:0:
149,55,112660,1,0,3:0:0:0:
256,192,113152,12,0,115939,0:0:0:0:
256,192,117415,5,8,3:2:0:0:
256,192,117578,1,8,0:0:0:0:
304,100,117906,2,0,P|248:84|171:135,1,107.999996704102,8|8,0:0|3:2,0:0:0:0:
168,132,118398,1,4,3:2:0:0:
72,120,118726,5,0,3:0:0:0:
72,120,118890,2,0,P|46:176|72:248,1,107.999996704102,8|0,0:0|3:0,0:0:0:0:
108,300,119546,1,8,0:0:0:0:
204,280,119874,2,0,L|338:284,1,107.999996704102,0|8,3:0|0:0,0:0:0:0:
400,324,120529,2,0,P|432:264|422:211,1,107.999996704102,0|8,3:0|0:0,0:0:0:0:
408,180,121021,6,0,L|207:173,1,161.999995056153,0|8,3:0|0:0,0:0:0:0:
198,186,121676,2,0,P|154:164|137:67,1,107.999996704102,0|0,3:0|3:0,0:0:0:0:
135,63,122169,1,8,0:0:0:0:
170,29,122333,2,0,P|217:16|294:77,1,107.999996704102,4|0,3:2|3:0,0:0:0:0:
284,83,122824,1,8,0:0:0:0:
379,100,123152,2,0,P|351:160|388:240,1,107.999996704102,8|0,3:2|3:0,0:0:0:0:
436,256,123808,6,0,P|396:295|321:283,1,107.999996704102,4|8,3:2|0:0,0:0:0:0:
252,269,124464,2,0,L|258:196,1,53.9999983520508
272,168,124792,1,8,0:0:0:0:
188,120,125119,2,0,P|223:83|302:83,2,107.999996704102,2|10|2,0:0|0:0|0:0,0:0:0:0:
92,100,126103,1,10,0:0:0:0:
16,160,126431,6,0,L|28:272,1,107.999996704102,2|8,0:0|0:0,0:0:0:0:
100,332,127087,2,0,P|124:280|109:216,1,107.999996704102,2|8,0:0|0:0,0:0:0:0:
140,188,127578,1,4,0:0:0:0:
220,244,127906,2,0,P|253:241|283:228,1,53.9999983520508,0|8,0:0|0:0,0:0:0:0:
328,156,128398,2,0,P|360:192|349:284,1,107.999996704102,2|8,0:0|0:0,0:0:0:0:
404,340,129054,6,0,L|261:328,1,107.999996704102,4|8,0:0|0:0,0:0:0:0:
208,368,129710,2,0,L|131:362,1,53.9999983520508
104,356,130037,1,8,0:0:0:0:
32,292,130365,2,0,P|24:232|71:177,1,107.999996704102,2|8,0:0|0:0,0:0:0:0:
144,180,131021,1,10,0:0:0:0:
256,192,131677,12,4,136923,0:2:0:0:
