osu file format v14

[General]
AudioFilename: watashitachi ha mirai no hana.mp3
AudioLeadIn: 0
PreviewTime: 91596
Countdown: 0
SampleSet: Soft
StackLeniency: 0.5
Mode: 0
LetterboxInBreaks: 0
WidescreenStoryboard: 0

[Editor]
Bookmarks: 28727,91678,123809
DistanceSpacing: 0.5
BeatDivisor: 4
GridSize: 8
TimelineZoom: 1

[Metadata]
Title:Watashitachi wa Mirai no Hana
TitleUnicode:私たちは未来の花
Artist:Sonoda Umi (CV.Mimori Suzuko)
ArtistUnicode:園田海未(CV.三森すずこ)
Creator:Dailycare
Version:Insane
Source:ラブライブ! School idol project
Tags:Love Live 海色少女に魅せられて μ's u's
BeatmapID:859248
BeatmapSetID:394816

[Difficulty]
HPDrainRate:6
CircleSize:4
OverallDifficulty:7
ApproachRate:9
SliderMultiplier:1.7
SliderTickRate:1

[Events]
//Background and Video events
0,0,"2.jpg",0,0
//Break Periods
2,16304,19438
//Storyboard Layer 0 (Background)
//Storyboard Layer 1 (Fail)
//Storyboard Layer 2 (Pass)
//Storyboard Layer 3 (Foreground)
//Storyboard Sound Samples

[TimingPoints]
4049,909.090909090909,4,2,10,55,1,0
14957,327.868852459016,4,2,1,70,1,0
16104,327.868852459016,4,2,1,70,1,0
21513,327.868852459016,4,2,1,70,1,0
29381,-125,4,2,1,60,0,0
33972,-100,4,2,0,70,0,0
34627,-125,4,2,1,60,0,0
37168,-125,4,2,1,20,0,0
37250,-125,4,2,1,60,0,0
42414,-125,4,2,1,20,0,0
42496,-125,4,2,1,60,0,0
44463,-100,4,2,1,70,0,0
55611,-125,4,2,1,60,0,0
59381,-100,4,2,1,70,0,0
70037,-100,4,2,1,85,0,0
71185,-100,4,2,1,80,0,1
77988,-100,4,2,1,20,0,1
78070,-100,4,2,1,80,0,1
82086,-100,4,2,1,20,0,1
82168,-100,4,2,1,80,0,1
92332,-100,4,2,2,80,0,1
101349,-83.3333333333333,4,2,1,80,0,1
101594,-83.3333333333333,4,2,1,20,0,1
101676,-83.3333333333333,4,2,1,80,0,1
102824,-100,4,2,2,80,0,1
108070,-125,4,2,1,60,0,0
110693,-100,4,2,1,68,0,0
111349,-100,4,2,1,75,0,0
112004,-100,4,2,1,80,0,0
113152,-100,4,2,1,70,0,1
131676,-100,4,2,1,70,0,0
134299,-100,4,2,1,80,0,0
136267,-100,4,2,2,70,0,0
136922,-100,4,2,2,50,0,0

[Colours]
Combo1 : 255,128,128
Combo2 : 128,128,255
Combo3 : 0,128,192
Combo4 : 255,128,255

[HitObjects]
176,144,6777,6,0,B|128:112|80:136|80:136|96:176|136:176,1,170,0|4,0:0|0:0,0:0:0:0:
268,164,8595,2,0,B|319:138|322:84|322:84|280:78|260:113,1,170,0|4,0:0|0:0,0:0:0:0:
200,232,9958,1,0,0:0:0:0:
276,368,10413,1,8,0:0:0:0:
200,232,10867,1,0,0:0:0:0:
276,368,11322,5,4,0:0:0:0:
340,292,11777,1,0,0:0:0:0:
200,232,12231,1,8,0:0:0:0:
192,328,12686,1,8,0:0:0:0:
292,212,13140,1,0,0:0:0:0:
256,192,13254,12,0,14958,0:0:0:0:
256,192,15284,5,0,0:0:0:0:
360,128,15612,5,0,3:0:0:0:
256,192,15776,1,0,3:0:0:0:
256,192,16104,5,0,0:0:0:0:
360,128,20038,6,0,P|352:176|346:233,1,85,0|0,3:0|3:0,0:0:0:0:
368,304,20365,1,8,0:0:0:0:
368,304,20447,1,0,0:0:0:0:
368,304,20529,1,0,3:0:0:0:
264,192,20693,1,0,3:0:0:0:
448,272,20858,2,0,L|490:275,2,42.5,8|0|0,0:0|0:0|3:0,0:0:0:0:
280,312,21185,1,8,0:0:0:0:
254,314,21267,1,0,0:0:0:0:
228,316,21349,1,0,0:0:0:0:
202,318,21431,1,0,0:0:0:0:
176,320,21512,6,0,L|-8:312,1,170,4|8,3:2|0:0,0:0:0:0:
104,88,22004,1,0,0:0:0:0:
104,88,22168,2,0,P|100:133|96:184,1,85,0|0,0:0|0:0,0:0:0:0:
16,224,22495,1,8,0:0:0:0:
184,192,22659,1,0,0:0:0:0:
16,136,22824,6,0,P|19:93|23:51,1,85,2|0,0:0|0:0,0:0:0:0:
160,16,23152,2,0,P|192:64|308:80,1,170,10|2,0:0|0:0,0:0:0:0:
400,56,23643,1,0,0:0:0:0:
368,192,23808,2,0,P|328:177|286:175,1,85,10|0,0:0|0:0,0:0:0:0:
400,56,24135,6,0,P|407:97|426:135,1,85,2|0,0:0|0:0,0:0:0:0:
512,296,24463,2,0,P|456:288|312:272,1,170,10|2,0:0|0:0,0:0:0:0:
201,187,24955,2,0,L|237:182|285:174,1,85,0|8,0:0|0:0,0:0:0:0:
416,120,25282,1,4,0:0:0:0:
416,120,25364,1,0,3:0:0:0:
416,120,25446,5,2,0:0:0:0:
368,192,25610,1,0,0:0:0:0:
272,88,25774,1,8,0:0:0:0:
352,48,25938,1,0,0:0:0:0:
285,174,26103,2,0,L|237:182|201:187,1,85,2|0,0:0|0:0,0:0:0:0:
32,144,26430,1,8,0:0:0:0:
120,120,26594,1,8,0:0:0:0:
120,120,26676,1,0,3:0:0:0:
120,120,26758,6,0,P|115:213|102:304,1,170,4|8,0:0|0:0,0:0:0:0:
72,368,27250,1,0,0:0:0:0:
276,269,27414,2,0,L|240:264|192:256,1,85
32,224,27741,1,8,0:0:0:0:
200,176,27905,1,0,0:0:0:0:
160,360,28069,5,2,0:0:0:0:
120,208,28233,1,8,0:0:0:0:
256,352,28398,2,0,L|292:347|340:339,1,85,8|0,0:0|3:0,0:0:0:0:
448,304,28726,2,0,L|464:240,2,42.5,10|0|0,0:0|0:0|0:0,0:0:0:0:
360,224,29053,1,0,3:0:0:0:
504,168,29217,1,8,0:0:0:0:
360,224,29381,6,0,P|312:224|200:208,1,136,6|0,0:0|3:0,0:0:0:0:
344,240,30037,2,0,P|296:240|184:224,1,136,0|0,0:0|3:0,0:0:0:0:
336,256,30693,2,0,P|288:256|176:240,1,136,0|0,0:0|3:0,0:0:0:0:
328,272,31349,2,0,P|280:272|168:256,1,136,0|0,0:0|3:0,0:0:0:0:
64,224,31840,1,0,0:0:0:0:
64,224,31922,1,0,0:0:0:0:
64,224,32004,6,0,L|80:56,1,136,2|0,0:1|3:0,0:0:0:0:
237,78,32660,2,0,L|224:213,1,136,0|0,0:0|3:0,0:0:0:0:
215,301,33151,1,0,0:0:0:0:
144,232,33315,1,8,0:0:0:0:
304,276,33479,1,0,0:0:0:0:
304,276,33561,1,0,0:0:0:0:
304,276,33644,2,0,P|340:281|391:284,1,68,0|0,3:0|3:0,0:0:0:0:
304,376,33971,5,2,3:1:0:0:
343,180,34135,1,2,0:1:0:0:
343,180,34627,6,0,P|303:156|208:160,1,136,4|0,3:2|3:0,0:0:0:0:
144,216,35119,2,0,L|131:80,1,136,0|0,3:0|3:0,0:0:0:0:
131,80,35611,2,0,P|160:63|193:66,1,68,0|0,3:0|3:0,0:0:0:0:
224,192,35938,5,0,3:0:0:0:
96,152,36102,1,0,3:0:0:0:
248,120,36267,2,0,L|336:128,1,68,0|0,3:0|3:0,0:0:0:0:
448,176,36594,1,0,3:0:0:0:
368,56,36758,1,0,3:0:0:0:
368,200,36922,2,0,P|361:249|329:289,1,102,8|0,3:2|0:0,0:0:0:0:
313,299,37250,6,0,L|176:296,1,136,4|0,3:2|3:0,0:0:0:0:
136,208,37742,2,0,L|271:210,1,136,0|0,3:0|3:0,0:0:0:0:
416,312,38234,1,0,3:0:0:0:
416,312,38397,1,0,3:0:0:0:
488,256,38562,6,0,L|496:176,1,68,0|0,3:0|3:0,0:0:0:0:
368,56,38890,2,0,L|374:123,1,68,0|0,3:0|3:0,0:0:0:0:
416,312,39217,1,0,3:0:0:0:
448,128,39381,1,0,3:0:0:0:
272,192,39545,1,8,3:2:0:0:
272,192,39873,6,0,P|240:160|240:64,1,136,4|0,3:2|3:0,0:0:0:0:
304,8,40365,2,0,P|347:-3|430:44,1,136,0|0,3:0|3:0,0:0:0:0:
425,36,40857,2,0,L|416:137,1,68,0|0,3:0|3:0,0:0:0:0:
272,192,41184,5,0,3:0:0:0:
344,88,41348,1,0,3:0:0:0:
424,192,41512,2,0,P|395:209|361:212,1,68,0|0,3:0|3:0,0:0:0:0:
224,112,41840,1,0,3:0:0:0:
344,88,42004,1,0,3:0:0:0:
272,192,42168,2,0,L|144:184,1,102,8|0,3:2|0:0,0:0:0:0:
152,168,42496,6,0,P|160:240|120:312,1,136,4|0,3:2|3:0,0:0:0:0:
24,344,42987,1,0,3:0:0:0:
24,344,43069,1,0,3:0:0:0:
24,344,43152,2,0,P|16:272|56:200,1,136,0|0,3:0|3:0,0:0:0:0:
200,248,43643,1,0,3:0:0:0:
150,100,43808,6,0,L|152:168,1,68,0|0,3:0|3:0,0:0:0:0:
200,248,44135,2,0,L|201:315,1,68,0|0,3:0|0:0,0:0:0:0:
272,192,44463,5,2,3:1:0:0:
72,216,44627,1,2,3:1:0:0:
72,216,44955,6,0,L|64:46,1,170,2|0,0:1|0:0,0:0:0:0:
200,248,45447,2,0,L|196:332,1,85,8|0,0:0|0:0,0:0:0:0:
160,128,45775,2,0,P|200:115|242:116,1,85,0|0,3:0|3:0,0:0:0:0:
352,176,46102,1,8,0:0:0:0:
448,88,46266,1,0,0:0:0:0:
448,88,46348,1,0,0:0:0:0:
448,88,46431,6,0,P|448:144|480:184,1,85,0|0,3:0|0:0,0:0:0:0:
448,256,46758,2,0,P|412:298|410:350,1,85,8|0,0:0|0:0,0:0:0:0:
248,264,47086,2,0,L|357:268,1,85,0|0,3:0|3:0,0:0:0:0:
496,328,47414,1,8,0:0:0:0:
384,192,47577,1,0,0:0:0:0:
320,360,47742,6,0,L|148:351,1,170,0|8,3:0|0:0,0:0:0:0:
64,304,48233,1,0,0:0:0:0:
64,304,48315,1,0,3:0:0:0:
64,304,48397,1,0,3:0:0:0:
96,96,48561,1,0,3:0:0:0:
144,248,48725,1,8,0:0:0:0:
0,176,48890,6,0,P|56:168|96:192,1,85,0|0,0:0|3:0,0:0:0:0:
232,248,49217,1,0,0:0:0:0:
104,352,49381,1,8,0:0:0:0:
104,352,49545,2,0,L|112:176,1,170,0|0,3:0|3:0,0:0:0:0:
111,182,49954,1,0,3:0:0:0:
111,182,50036,1,8,0:0:0:0:
248,152,50201,6,0,L|240:321,1,170,4|0,0:0|0:0,0:0:0:0:
336,184,50693,2,0,L|332:99,1,85,8|0,0:0|0:0,0:0:0:0:
256,40,51020,1,0,3:0:0:0:
432,128,51184,1,0,0:0:0:0:
248,224,51348,1,0,0:0:0:0:
339,268,51512,6,0,L|331:98,1,170,4|0,0:0|0:0,0:0:0:0:
424,208,52004,1,8,0:0:0:0:
248,224,52168,2,0,L|187:218,2,42.5,0|0|0,0:0|0:0|3:0,0:0:0:0:
352,368,52495,1,0,3:0:0:0:
339,268,52659,1,8,0:0:0:0:
256,328,52823,1,4,0:0:0:0:
432,304,52988,6,0,P|480:304|528:320,1,85,0|0,3:0|0:0,0:0:0:0:
389,201,53316,2,0,P|365:242|327:276,1,85,8|0,0:0|0:0,0:0:0:0:
504,216,53644,2,0,P|480:174|469:124,1,85,0|0,3:0|3:0,0:0:0:0:
464,40,53971,1,8,0:0:0:0:
368,120,54135,6,0,P|280:128|208:80,1,170,0|8,3:0|0:0,0:0:0:0:
88,184,54627,2,0,P|144:176|184:176,1,85,8|0,0:0|3:0,0:0:0:0:
16,96,54955,2,0,L|8:184,2,56.6666666666667,2|0|0,3:2|0:0|3:0,0:0:0:0:
88,184,55283,2,0,L|96:272,2,56.6666666666667,2|0|0,3:2|0:0|3:0,0:0:0:0:
160,288,55610,5,4,3:2:0:0:
160,288,55775,2,0,P|192:264|304:272,1,136,0|0,3:0|0:0,0:0:0:0:
120,368,56267,2,0,P|77:363|34:340,1,68,8|0,0:0|0:0,0:0:0:0:
54,353,56512,1,0,0:0:0:0:
54,353,56594,2,0,L|57:267,1,68,0|0,3:0|0:0,0:0:0:0:
104,136,56922,6,0,L|106:203,2,68,0|0|0,3:0|2:0|3:0,0:0:0:0:
136,40,57414,1,0,0:0:0:0:
192,160,57577,1,8,0:0:0:0:
40,72,57741,1,0,0:0:0:0:
232,64,57906,2,0,P|270:64|328:72,1,68,0|0,3:0|0:0,0:0:0:0:
299,67,58151,1,0,3:0:0:0:
299,67,58233,5,0,3:0:0:0:
360,152,58398,2,0,P|392:112|384:16,1,136,0|0,3:0|0:0,0:0:0:0:
280,176,58890,2,0,L|264:264,1,68,8|0,0:0|0:0,0:0:0:0:
267,242,59135,1,0,0:0:0:0:
267,242,59217,1,0,3:0:0:0:
216,328,59381,6,0,P|280:328|424:352,1,170,4|0,0:0|0:0,0:0:0:0:
176,248,59873,2,0,P|133:248|91:245,1,85
16,200,60201,1,8,0:0:0:0:
64,320,60364,1,0,3:0:0:0:
88,152,60528,1,8,0:0:0:0:
248,208,60692,1,8,0:0:0:0:
248,208,60774,1,0,0:0:0:0:
248,208,60857,6,0,P|288:176|280:56,1,170,6|8,3:2|0:0,0:0:0:0:
432,16,61349,2,0,P|400:44|385:83,1,85,6|0,3:2|0:0,0:0:0:0:
384,176,61676,1,0,3:0:0:0:
208,120,61840,2,0,L|98:122,1,85,10|0,0:0|3:0,0:0:0:0:
288,184,62168,6,0,L|457:183,1,170,6|8,3:2|0:0,0:0:0:0:
336,344,62660,2,0,P|331:302|347:263,1,85,6|0,3:2|0:0,0:0:0:0:
424,312,62987,1,0,0:0:0:0:
248,344,63152,2,0,P|208:312|144:304,1,85,10|0,0:0|3:0,0:0:0:0:
176,303,63397,1,0,0:0:0:0:
176,303,63479,5,4,3:2:0:0:
96,344,63643,1,0,3:0:0:0:
208,224,63807,1,10,3:2:0:0:
56,184,63971,1,0,3:0:0:0:
45,156,64053,1,0,3:0:0:0:
44,126,64135,1,0,0:0:0:0:
54,97,64217,1,0,3:0:0:0:
77,77,64299,1,0,0:0:0:0:
144,144,64463,2,0,L|120:256,1,85,10|0,0:0|3:0,0:0:0:0:
56,272,64791,5,0,3:0:0:0:
208,224,64954,1,0,3:0:0:0:
56,184,65118,1,10,3:2:0:0:
232,136,65282,1,0,3:0:0:0:
232,136,65364,1,0,3:0:0:0:
232,136,65446,1,0,0:0:0:0:
184,312,65610,1,0,3:0:0:0:
144,144,65775,2,0,P|131:107|100:36,1,85,10|0,0:0|3:0,0:0:0:0:
304,200,66103,6,0,P|360:184|432:72,1,170,4|10,3:2|3:2,0:0:0:0:
232,136,66594,1,0,3:0:0:0:
360,288,66758,2,0,P|368:344|368:400,1,85
256,280,67086,1,10,0:0:0:0:
234,249,67168,1,0,3:0:0:0:
198,236,67250,1,4,3:2:0:0:
161,237,67332,1,0,3:0:0:0:
128,254,67414,5,0,3:0:0:0:
52,368,67577,1,0,3:0:0:0:
184,312,67741,1,10,3:2:0:0:
48,204,67905,1,0,3:0:0:0:
160,80,68069,1,10,0:0:0:0:
160,80,68151,1,0,3:0:0:0:
160,80,68234,2,0,P|136:128|128:184,1,85,0|0,3:0|3:0,0:0:0:0:
184,312,68561,1,0,3:0:0:0:
184,312,68643,1,0,0:0:0:0:
184,312,68726,6,0,L|176:192,1,85,8|0,3:2|3:0,0:0:0:0:
160,80,69053,1,0,3:0:0:0:
328,224,69217,6,0,L|229:154,1,85,8|0,3:2|3:0,0:0:0:0:
131,96,69545,1,0,3:0:0:0:
336,64,69709,1,8,3:2:0:0:
336,64,70036,5,2,3:1:0:0:
232,80,70200,1,2,0:1:0:0:
131,96,70364,1,2,0:1:0:0:
32,112,70528,1,2,0:1:0:0:
32,112,71185,6,0,P|72:176|56:288,1,170,6|0,0:0|0:0,0:0:0:0:
232,368,71676,2,0,P|232:312|264:256,1,85,8|0,0:0|0:0,0:0:0:0:
320,232,72004,1,0,3:0:0:0:
160,256,72168,1,0,0:0:0:0:
328,328,72332,1,8,0:0:0:0:
240,192,72496,6,0,P|282:119|272:32,1,170,4|0,0:0|0:0,0:0:0:0:
408,184,72988,2,0,P|403:225|440:296,1,85,8|0,0:0|0:0,0:0:0:0:
496,312,73315,1,0,3:0:0:0:
320,232,73479,1,0,0:0:0:0:
496,216,73643,1,8,0:0:0:0:
416,360,73808,6,0,L|232:352,1,170,4|0,0:0|0:0,0:0:0:0:
200,184,74299,2,0,P|184:224|208:288,1,85,8|0,0:0|0:0,0:0:0:0:
190,264,74545,1,0,0:0:0:0:
190,264,74627,2,0,L|232:266,2,42.5,0|0|0,3:0|0:0|0:0,0:0:0:0:
104,312,74954,1,8,0:0:0:0:
8,168,75118,1,2,0:0:0:0:
287,108,75283,6,0,P|281:150|272:192,1,85
80,227,75611,2,0,P|85:185|96:144,1,85,8|0,0:0|0:0,0:0:0:0:
224,16,75938,1,0,3:0:0:0:
192,112,76102,1,0,3:0:0:0:
96,144,76266,1,8,0:0:0:0:
8,96,76430,1,0,0:0:0:0:
64,240,76594,6,0,L|256:232,2,170,4|8|0,0:0|0:0|3:0,0:0:0:0:
8,96,77414,1,0,0:0:0:0:
8,96,77495,1,0,0:0:0:0:
8,96,77577,1,8,0:0:0:0:
96,144,77742,6,0,P|160:168|224:128,1,127.5,4|0,0:0|0:0,0:0:0:0:
232,120,78069,1,0,3:0:0:0:
376,216,78234,2,0,P|335:202|293:200,1,85,8|0,0:0|0:0,0:0:0:0:
472,136,78562,2,0,P|479:177|499:215,1,85,0|0,3:0|0:0,0:0:0:0:
368,96,78890,2,0,P|400:68|422:32,1,85,8|0,0:0|0:0,0:0:0:0:
422,32,79135,1,0,0:0:0:0:
422,32,79218,6,0,L|240:24,1,170,4|8,0:0|0:0,0:0:0:0:
80,160,79709,1,0,0:0:0:0:
168,24,79874,2,0,P|170:66|155:105,1,85,0|0,3:0|0:0,0:0:0:0:
0,124,80200,1,8,0:0:0:0:
160,192,80365,6,0,P|120:240|144:352,1,170,4|0,0:0|0:0,0:0:0:0:
224,384,80856,1,8,0:0:0:0:
312,336,81021,2,0,L|319:282,2,42.5,0|0|0,0:0|0:0|3:0,0:0:0:0:
240,240,81348,1,8,0:0:0:0:
264,216,81430,1,0,0:0:0:0:
295,202,81512,1,0,0:0:0:0:
328,200,81594,1,0,3:0:0:0:
360,211,81676,1,8,0:0:0:0:
386,232,81758,1,0,0:0:0:0:
401,262,81840,6,0,L|416:120,1,127.5,6|0,0:0|0:0,0:0:0:0:
368,72,82168,2,0,L|377:156,1,85,8|0,0:0|0:0,0:0:0:0:
408,344,82495,1,0,3:0:0:0:
488,232,82659,1,0,0:0:0:0:
317,293,82824,2,0,P|273:285|208:288,1,85,8|0,0:0|0:0,0:0:0:0:
136,312,83151,5,4,0:0:0:0:
208,200,83315,1,0,0:0:0:0:
112,224,83479,1,8,0:0:0:0:
232,284,83644,2,0,L|230:338,2,42.5,0|0|0,0:0|0:0|3:0,0:0:0:0:
304,176,83971,1,0,0:0:0:0:
400,248,84135,2,0,L|397:344,1,85,8|0,0:0|3:0,0:0:0:0:
397,344,84381,1,0,0:0:0:0:
397,354,84463,5,14,0:0:0:0:
232,284,84627,1,0,3:0:0:0:
296,364,84791,1,0,3:0:0:0:
328,184,84955,5,14,0:0:0:0:
493,254,85118,1,0,3:0:0:0:
429,174,85282,1,0,3:0:0:0:
232,284,85446,5,6,0:0:0:0:
232,284,85775,6,0,P|232:236|256:180,1,85
296,132,86102,1,8,0:0:0:0:
160,180,86266,1,0,0:0:0:0:
328,212,86430,1,0,3:0:0:0:
356,194,86512,1,0,3:0:0:0:
373,164,86594,1,0,3:0:0:0:
379,130,86676,1,0,3:0:0:0:
371,96,86758,1,8,0:0:0:0:
240,64,86922,1,0,3:0:0:0:
240,64,87004,1,0,0:0:0:0:
240,64,87086,6,0,L|32:56,1,170,4|8,0:0|0:0,0:0:0:0:
160,180,87577,1,0,0:0:0:0:
296,132,87742,2,0,L|389:129,1,85,0|0,3:0|0:0,0:0:0:0:
240,208,88069,1,8,0:0:0:0:
154,90,88234,6,0,P|80:72|0:144,1,170,4|0,0:0|0:0,0:0:0:0:
64,320,88725,1,8,0:0:0:0:
96,160,88889,1,0,0:0:0:0:
8,240,89053,1,0,3:0:0:0:
8,240,89135,1,0,3:0:0:0:
8,240,89217,2,0,L|102:238,1,85,0|8,0:0|0:0,0:0:0:0:
233,324,89545,6,0,L|51:319,1,170
240,232,90037,2,0,L|334:230,1,85,8|0,0:0|0:0,0:0:0:0:
456,304,90364,1,0,3:0:0:0:
456,304,90446,1,0,0:0:0:0:
456,304,90528,1,0,0:0:0:0:
456,304,90610,1,0,0:0:0:0:
456,304,90693,2,0,L|464:224,3,42.5,8|0|0|0,0:0|0:0|0:0|0:0,0:0:0:0:
432,184,91021,6,0,L|440:104,1,42.5,4|0,3:2|0:0,0:0:0:0:
504,104,91184,1,0,0:0:0:0:
482,77,91266,1,0,0:0:0:0:
450,65,91348,1,12,0:0:0:0:
416,66,91430,1,0,0:0:0:0:
386,83,91512,1,0,0:0:0:0:
364,109,91594,1,0,0:0:0:0:
353,141,91676,6,0,L|348:183,1,42.5,4|0,3:2|3:2,0:0:0:0:
288,88,91840,2,0,L|292:45,1,42.5,2|0,3:2|3:0,0:0:0:0:
208,112,92004,2,0,L|203:154,3,42.5,10|0|8|8,3:2|0:0|3:2|3:2,0:0:0:0:
214,187,92332,6,0,P|161:194|116:229,1,85,4|2,3:2|0:0,0:0:0:0:
296,248,92660,2,0,P|328:282|381:303,1,85,10|0,3:2|0:0,0:0:0:0:
304,144,92988,2,0,P|324:94|316:38,1,85,0|2,0:0|0:0,0:0:0:0:
248,8,93315,1,8,0:0:0:0:
352,56,93479,1,0,0:0:0:0:
160,72,93644,6,0,P|117:99|96:144,1,85,0|2,0:0|0:0,0:0:0:0:
214,187,93972,2,0,P|224:236|259:271,1,85,8|0,0:0|0:0,0:0:0:0:
352,176,94300,2,0,P|402:182|447:161,1,85,0|2,0:0|0:0,0:0:0:0:
488,96,94627,1,8,0:0:0:0:
448,264,94791,1,0,0:0:0:0:
384,88,94956,6,0,L|288:72,1,85,0|2,0:0|0:0,0:0:0:0:
304,216,95283,2,0,L|240:142,1,85,8|0,0:0|0:0,0:0:0:0:
168,280,95611,2,0,L|167:182,1,85,0|2,0:0|0:0,0:0:0:0:
24,240,95939,2,0,L|85:164,1,85,8|0,0:0|0:0,0:0:0:0:
145,20,96267,6,0,P|152:62|144:104,1,85,2|2,0:0|0:0,0:0:0:0:
296,160,96595,2,0,P|259:180|217:186,1,85,8|0,0:0|0:0,0:0:0:0:
220,344,96923,2,0,P|188:316|167:279,1,85,2|2,0:0|0:0,0:0:0:0:
16,336,97250,2,0,P|31:296|59:264,1,85,8|0,0:0|3:0,0:0:0:0:
80,251,97495,1,0,3:0:0:0:
58,239,97578,6,0,P|30:207|15:167,1,85,4|2,0:0|0:0,0:0:0:0:
200,184,97906,2,0,P|158:177|121:156,1,85,8|0,3:2|0:0,0:0:0:0:
272,56,98234,2,0,P|235:77|194:85,1,85,0|2,0:0|0:0,0:0:0:0:
96,32,98561,1,8,0:0:0:0:
200,104,98725,1,0,0:0:0:0:
80,168,98889,6,0,L|104:264,1,85,0|2,0:0|0:0,0:0:0:0:
200,104,99217,2,0,L|172:199,1,85,8|0,0:0|0:0,0:0:0:0:
332,104,99545,2,0,L|260:172,1,85,0|2,0:0|0:0,0:0:0:0:
270,162,99791,1,0,0:0:0:0:
270,162,99873,1,8,0:0:0:0:
224,280,100036,1,0,0:0:0:0:
376,344,100202,6,0,P|367:302|340:269,1,85,2|0,0:0|0:0,0:0:0:0:
468,229,100530,2,0,P|434:203|393:194,1,85,8|0,0:0|0:0,0:0:0:0:
452,85,100857,2,0,P|409:86|372:106,1,85,2|2,0:0|0:0,0:0:0:0:
340,269,101184,1,8,0:0:0:0:
296,80,101349,6,0,P|224:104|144:40,1,152.999995330811,2|0,0:1|0:0,0:0:0:0:
144,32,101676,1,0,0:0:0:0:
230,152,101841,2,0,L|238:256,1,101.999996887207,10|2,0:0|0:1,0:0:0:0:
160,336,102168,5,2,3:2:0:0:
340,269,102332,1,0,3:0:0:0:
120,216,102495,1,10,3:2:0:0:
344,144,102659,1,8,0:0:0:0:
344,144,102741,1,8,0:0:0:0:
344,144,102824,6,0,P|376:96|368:40,1,85,4|2,0:0|0:0,0:0:0:0:
296,248,103152,2,0,P|321:299|374:320,1,85,8|0,3:2|0:0,0:0:0:0:
230,152,103480,2,0,P|172:148|127:183,1,85,0|2,0:0|0:0,0:0:0:0:
72,288,103807,1,8,0:0:0:0:
136,136,103971,1,0,0:0:0:0:
200,264,104135,6,0,L|192:360,1,85,0|2,0:0|0:0,0:0:0:0:
296,248,104463,2,0,L|337:335,1,85,8|0,0:0|0:0,0:0:0:0:
360,176,104791,2,0,L|439:230,1,85,0|2,0:0|0:0,0:0:0:0:
496,296,105118,1,8,0:0:0:0:
456,136,105282,1,0,0:0:0:0:
296,248,105447,6,0,P|248:256|200:232,1,85,0|2,0:0|0:0,0:0:0:0:
144,312,105775,2,0,P|118:270|122:216,1,85,8|0,0:0|0:0,0:0:0:0:
32,192,106103,2,0,P|60:152|112:136,1,85,0|2,0:0|0:0,0:0:0:0:
92,40,106431,2,0,P|139:52|173:93,1,85,8|0,0:0|0:0,0:0:0:0:
214,243,106758,6,0,L|208:149,1,85,2|2,0:0|0:0,0:0:0:0:
88,216,107086,2,0,L|129:131,1,85,8|0,0:0|0:0,0:0:0:0:
0,120,107414,2,0,L|78:67,1,85,0|0,0:0|3:0,0:0:0:0:
144,24,107741,1,8,0:0:0:0:
208,158,107906,2,0,L|231:206,2,42.5,0|0|4,0:0|0:0|3:2,0:0:0:0:
144,24,109381,5,2,3:2:0:0:
208,158,110693,6,0,L|192:264,1,85,4|0,3:2|0:0,0:0:0:0:
224,184,111021,2,0,L|271:280,1,85,0|0,0:0|0:0,0:0:0:0:
248,200,111349,2,0,L|342:251,1,85,0|0,0:0|0:0,0:0:0:0:
274,196,111677,2,0,L|380:184,1,85,0|0,0:0|0:0,0:0:0:0:
464,176,112004,5,8,3:2:0:0:
464,176,112086,1,0,0:0:0:0:
464,176,112168,2,0,L|469:119,1,42.5,0|0,3:0|3:0,0:0:0:0:
478,56,112332,1,0,3:0:0:0:
368,104,112495,5,8,3:2:0:0:
368,104,112577,1,0,0:0:0:0:
368,104,112660,2,0,L|373:161,1,42.5,0|0,3:0|3:0,0:0:0:0:
382,224,112823,1,0,3:0:0:0:
396,340,112987,1,8,3:2:0:0:
305,195,113152,6,0,P|257:179|177:235,1,127.5,4|0,3:2|0:0,0:0:0:0:
176,240,113479,1,0,3:0:0:0:
16,160,113644,2,0,P|56:184|96:184,1,85,8|0,0:0|0:0,0:0:0:0:
168,32,113972,2,0,L|160:116,1,85,0|0,3:0|3:0,0:0:0:0:
96,280,114299,1,8,0:0:0:0:
190,210,114463,1,0,3:0:0:0:
80,96,114627,6,0,L|87:11,1,85,0|0,3:0|3:0,0:0:0:0:
241,127,114955,2,0,P|199:131|159:116,1,85,8|0,0:0|3:0,0:0:0:0:
12,173,115283,2,0,P|53:168|93:183,1,85,0|0,3:0|3:0,0:0:0:0:
192,312,115610,1,8,0:0:0:0:
320,176,115775,6,0,P|376:160|472:216,1,170,0|0,3:0|3:0,0:0:0:0:
496,304,116266,1,8,0:0:0:0:
472,112,116430,1,0,3:0:0:0:
380,256,116594,2,0,P|396:320|388:352,1,85,0|0,3:0|3:0,0:0:0:0:
232,232,116922,2,0,P|216:168|224:136,1,85,8|0,0:0|3:0,0:0:0:0:
295,3,117250,6,0,L|288:88,1,85,0|8,3:0|3:2,0:0:0:0:
120,256,117578,2,0,L|127:171,1,85,8|0,0:0|3:0,0:0:0:0:
80,72,117905,1,8,0:0:0:0:
80,72,117987,1,0,3:0:0:0:
80,72,118069,1,0,3:0:0:0:
261,156,118234,2,0,P|237:151|213:149,1,42.5,8|0,3:2|3:0,0:0:0:0:
184,48,118398,6,0,P|269:63|375:77,1,170,4|0,3:2|3:0,0:0:0:0:
368,104,118807,1,0,3:0:0:0:
368,104,118890,2,0,P|357:144|350:196,1,85,8|0,0:0|3:0,0:0:0:0:
288,368,119217,1,0,3:0:0:0:
184,264,119381,1,0,3:0:0:0:
74,364,119545,2,0,P|122:358|186:356,1,85,8|0,0:0|3:0,0:0:0:0:
360,280,119873,6,0,L|275:273,1,85,0|0,3:0|3:0,0:0:0:0:
336,96,120201,2,0,P|345:136|336:178,1,85,8|0,0:0|3:0,0:0:0:0:
184,264,120528,1,0,3:0:0:0:
360,280,120692,1,0,3:0:0:0:
232,168,120856,1,8,0:0:0:0:
264,344,121021,6,0,P|304:328|432:384,1,170,0|0,3:0|3:0,0:0:0:0:
496,216,121512,2,0,P|455:228|414:218,1,85,8|0,0:0|3:0,0:0:0:0:
336,144,121840,1,0,3:0:0:0:
232,168,122004,1,0,3:0:0:0:
200,272,122168,1,8,0:0:0:0:
56,184,122332,1,4,3:2:0:0:
56,184,122414,1,0,0:0:0:0:
56,184,122496,6,0,P|72:136|80:88,1,85,0|0,3:0|3:0,0:0:0:0:
80,82,122741,1,0,3:0:0:0:
80,64,122824,2,0,L|176:69,1,85,8|0,0:0|3:0,0:0:0:0:
336,144,123151,1,8,3:2:0:0:
144,200,123315,1,0,3:0:0:0:
312,280,123479,1,0,3:0:0:0:
232,168,123643,1,0,3:0:0:0:
232,168,123725,1,0,0:0:0:0:
232,168,123808,6,0,L|224:360,1,170,4|8,3:2|0:0,0:0:0:0:
408,280,124299,1,0,0:0:0:0:
408,280,124463,2,0,P|423:240|408:184,1,85
336,144,124791,1,8,0:0:0:0:
504,168,124954,1,0,0:0:0:0:
336,232,125119,6,0,P|288:224|242:220,1,85,2|0,0:0|0:0,0:0:0:0:
104,248,125447,2,0,P|72:200|112:84,1,170,10|2,0:0|0:0,0:0:0:0:
180,48,125938,1,0,0:0:0:0:
176,200,126103,2,0,P|184:248|176:304,1,85,10|0,0:0|0:0,0:0:0:0:
272,328,126431,6,0,P|309:297|362:276,1,85,2|0,0:0|0:0,0:0:0:0:
501,175,126758,2,0,P|416:166|335:143,1,170,8|2,0:0|0:0,0:0:0:0:
232,32,127250,2,0,L|240:136,1,85,0|8,0:0|0:0,0:0:0:0:
336,256,127577,1,4,0:0:0:0:
336,256,127659,1,0,3:0:0:0:
336,256,127741,5,2,0:0:0:0:
240,288,127905,1,0,0:0:0:0:
335,143,128069,1,8,0:0:0:0:
176,200,128233,1,0,0:0:0:0:
238,116,128398,2,0,L|232:32,1,85,2|0,0:0|0:0,0:0:0:0:
408,80,128725,1,8,0:0:0:0:
264,200,128889,1,8,0:0:0:0:
264,200,128971,1,0,3:0:0:0:
264,200,129053,6,0,P|200:184|56:184,1,170,4|8,0:0|0:0,0:0:0:0:
0,192,129545,1,0,0:0:0:0:
80,352,129709,2,0,L|86:267,1,85
104,96,130036,1,8,0:0:0:0:
176,280,130200,1,0,0:0:0:0:
0,192,130364,5,2,0:0:0:0:
128,120,130528,1,8,0:0:0:0:
8,280,130692,1,8,0:0:0:0:
154,271,130856,1,0,3:0:0:0:
104,96,131021,2,0,L|99:46,2,42.5,10|0|0,0:0|0:0|0:0,0:0:0:0:
200,288,131348,1,0,3:0:0:0:
200,136,131512,1,8,0:0:0:0:
40,272,131676,5,4,0:0:0:0:
256,192,131758,12,6,136266,0:1:0:0:
256,192,136922,5,4,3:2:0:0:
