osu file format v14

[General]
AudioFilename: watashitachi ha mirai no hana.mp3
AudioLeadIn: 0
PreviewTime: 91596
Countdown: 0
SampleSet: Soft
StackLeniency: 0.5
Mode: 0
LetterboxInBreaks: 0
WidescreenStoryboard: 0

[Editor]
Bookmarks: 28727,91678,123809
DistanceSpacing: 0.9
BeatDivisor: 4
GridSize: 4
TimelineZoom: 1

[Metadata]
Title:Watashitachi wa Mirai no Hana
TitleUnicode:私たちは未来の花
Artist:Sonoda Umi (CV.Mimori Suzuko)
ArtistUnicode:園田海未(CV.三森すずこ)
Creator:Dailycare
Version:Advanced
Source:ラブライブ! School idol project
Tags:Love Live 海色少女に魅せられて μ's u's
BeatmapID:859249
BeatmapSetID:394816

[Difficulty]
HPDrainRate:4.5
CircleSize:3.5
OverallDifficulty:5
ApproachRate:6.5
SliderMultiplier:1.45
SliderTickRate:1

[Events]
//Background and Video events
0,0,"2.jpg",0,0
//Break Periods
2,16304,19063
//Storyboard Layer 0 (Background)
//Storyboard Layer 1 (Fail)
//Storyboard Layer 2 (Pass)
//Storyboard Layer 3 (Foreground)
//Storyboard Sound Samples

[TimingPoints]
4049,909.090909090909,4,2,10,55,1,0
14957,327.868852459016,4,2,1,70,1,0
16104,327.868852459016,4,2,1,70,1,0
21513,327.868852459016,4,2,1,70,1,0
29381,-125,4,2,1,60,0,0
33972,-100,4,2,0,70,0,0
34627,-125,4,2,1,60,0,0
44463,-100,4,2,1,70,0,0
55611,-125,4,2,1,60,0,0
59381,-100,4,2,1,70,0,0
70037,-100,4,2,1,85,0,0
71185,-100,4,2,1,80,0,1
92332,-100,4,2,2,80,0,1
101349,-83.3333333333333,4,2,1,80,0,1
102824,-100,4,2,2,80,0,1
108070,-125,4,2,1,60,0,0
110693,-100,4,2,1,68,0,0
111349,-100,4,2,1,75,0,0
112004,-100,4,2,1,80,0,0
113152,-100,4,2,1,70,0,1
131676,-100,4,2,1,70,0,0
134299,-100,4,2,1,80,0,0
136267,-100,4,2,2,70,0,0
136922,-100,4,2,2,50,0,0

[Colours]
Combo1 : 255,128,128
Combo2 : 128,128,255
Combo3 : 0,128,192
Combo4 : 255,128,255

[HitObjects]
344,96,6777,6,0,P|296:144|224:128,1,145,0|4,0:0|0:0,0:0:0:0:
192,232,8595,2,0,P|257:249|279:319,1,145,0|4,0:0|0:0,0:0:0:0:
376,288,10413,1,8,0:0:0:0:
376,288,11322,6,0,P|358:222|408:168,1,145,4|8,0:0|0:0,0:0:0:0:
484,282,13140,1,0,0:0:0:0:
256,192,13594,12,0,14957,0:0:0:0:
256,152,15612,6,0,L|256:248,1,72.5,0|0,3:0|3:0,0:0:0:0:
256,224,16104,1,0,0:0:0:0:
312,304,20038,6,0,P|256:320|173:258,1,145,0|8,3:0|0:0,0:0:0:0:
128,200,20530,2,0,P|184:184|267:246,1,145,0|8,3:0|0:0,0:0:0:0:
344,208,21022,2,0,P|344:160|352:128,1,72.5,0|8,3:0|0:0,0:0:0:0:
408,16,21513,6,0,P|376:48|272:24,1,145,4|8,3:2|0:0,0:0:0:0:
88,112,22168,2,0,L|264:104,1,145,0|8,0:0|0:0,0:0:0:0:
312,136,22661,1,0,0:0:0:0:
312,136,22824,6,0,P|320:176|296:216,1,72.5,2|0,0:0|0:0,0:0:0:0:
240,256,23152,2,0,P|192:232|96:264,2,145,10|2|10,0:0|0:0|0:0,0:0:0:0:
336,376,24135,5,2,0:0:0:0:
384,240,24463,1,10,0:0:0:0:
256,344,24791,2,0,L|112:336,1,145,2|8,0:0|0:0,0:0:0:0:
24,312,25283,6,0,P|16:264|80:184,1,145,4|0,3:2|3:0,0:0:0:0:
160,168,25775,2,0,P|160:216|128:256,1,72.5,8|0,0:0|0:0,0:0:0:0:
68,188,26103,2,0,P|68:140|100:100,1,72.5,2|0,0:0|0:0,0:0:0:0:
160,64,26431,2,0,L|232:71,1,72.5,8|8,0:0|0:0,0:0:0:0:
320,104,26758,6,0,L|486:119,1,145,4|8,0:0|0:0,0:0:0:0:
488,264,27414,2,0,P|448:224|344:240,1,145,0|8,0:0|0:0,0:0:0:0:
296,288,27907,1,0,0:0:0:0:
296,288,28070,6,0,L|224:296,1,72.5,2|8,0:0|0:0,0:0:0:0:
168,216,28398,2,0,L|240:208,1,72.5,8|0,0:0|3:0,0:0:0:0:
312,152,28726,2,0,L|319:100,2,36.25,10|0|0,0:0|0:0|0:0,0:0:0:0:
296,288,29053,2,0,L|284:373,1,72.5,0|8,3:0|0:0,0:0:0:0:
200,312,29381,6,0,P|168:288|72:304,2,116,6|0|0,0:0|3:0|0:0,0:0:0:0:
232,216,30366,1,0,3:0:0:0:
160,144,30693,2,0,P|192:120|288:136,2,116,0|0|0,0:0|3:0|0:0,0:0:0:0:
232,216,31676,2,0,L|312:224,1,58,0|0,3:0|0:0,0:0:0:0:
372,260,32004,6,0,P|378:200|332:149,2,116,2|0|0,0:1|3:0|0:0,0:0:0:0:
272,320,32989,1,0,3:0:0:0:
232,216,33316,2,0,L|240:136,1,58,8|0,0:0|0:0,0:0:0:0:
152,136,33644,2,0,L|147:193,1,58,0|0,3:0|3:0,0:0:0:0:
64,108,33972,6,2,L|57:187,1,72.5,2|2,3:1|0:1,0:0:0:0:
160,280,34627,6,0,L|299:266,1,116,4|0,3:2|3:0,0:0:0:0:
336,336,35119,2,0,P|360:304|344:208,1,116,0|0,3:0|3:0,0:0:0:0:
280,176,35611,2,0,P|308:147|340:139,1,58,0|0,3:0|3:0,0:0:0:0:
424,160,35939,2,0,L|488:256,2,116,0|0|0,3:0|3:0|3:0,0:0:0:0:
320,8,36922,1,8,3:2:0:0:
432,80,37250,6,0,L|316:87,1,116,4|0,3:2|3:0,0:0:0:0:
248,144,37742,2,0,P|184:152|128:104,1,116,0|0,3:0|3:0,0:0:0:0:
112,48,38235,1,0,3:0:0:0:
88,192,38562,2,0,L|96:264,1,58,0|0,3:0|3:0,0:0:0:0:
48,328,38891,1,0,3:0:0:0:
48,328,39053,2,0,P|101:347|152:323,1,116,0|0,3:0|3:0,0:0:0:0:
184,232,39545,1,8,3:2:0:0:
248,344,39873,6,0,P|272:320|360:320,1,116,4|0,3:2|3:0,0:0:0:0:
440,360,40365,2,0,L|424:224,1,116,0|0,3:0|3:0,0:0:0:0:
504,192,40857,2,0,L|497:125,1,58,0|0,3:0|3:0,0:0:0:0:
408,112,41185,2,0,P|432:64|488:40,2,116,0|0|0,3:0|3:0|3:0,0:0:0:0:
280,232,42168,1,8,3:2:0:0:
320,56,42496,6,0,L|335:170,1,116,4|0,3:2|3:0,0:0:0:0:
280,232,42989,1,0,3:0:0:0:
352,272,43152,2,0,P|328:304|240:304,1,116,0|0,3:0|3:0,0:0:0:0:
112,232,43808,2,0,L|128:312,1,58,0|0,3:0|3:0,0:0:0:0:
200,248,44135,2,0,L|188:191,1,58,0|0,3:0|0:0,0:0:0:0:
64,160,44463,5,2,3:1:0:0:
64,160,44627,1,2,3:1:0:0:
168,104,44955,6,0,P|208:88|296:136,1,145,2|0,0:1|0:0,0:0:0:0:
384,120,45447,2,0,P|376:160|370:205,1,72.5,8|0,0:0|0:0,0:0:0:0:
408,280,45776,1,0,3:0:0:0:
408,280,45939,1,0,3:0:0:0:
328,320,46103,2,0,P|288:320|232:304,1,72.5,8|0,0:0|0:0,0:0:0:0:
200,248,46431,6,0,P|160:240|72:296,1,145,0|8,3:0|0:0,0:0:0:0:
176,144,47086,2,0,P|216:152|304:96,1,145,0|8,3:0|0:0,0:0:0:0:
312,16,47579,1,0,0:0:0:0:
384,120,47742,6,0,P|392:168|400:272,1,145,0|8,3:0|0:0,0:0:0:0:
496,280,48234,2,0,P|488:232|480:128,1,145,0|0,0:0|3:0,0:0:0:0:
456,40,48727,1,8,0:0:0:0:
456,40,48890,6,0,P|424:64|312:40,1,145
232,24,49381,2,0,P|240:64|241:115,1,72.5,8|0,0:0|3:0,0:0:0:0:
216,176,49709,1,0,3:0:0:0:
296,208,49873,2,0,P|293:244|286:279,1,72.5,0|8,3:0|0:0,0:0:0:0:
248,360,50201,6,0,L|88:352,1,145,4|0,0:0|0:0,0:0:0:0:
213,276,50693,2,0,L|285:279,1,72.5,8|0,0:0|0:0,0:0:0:0:
360,328,51021,2,0,P|440:312|464:248,1,145,0|8,3:0|0:0,0:0:0:0:
496,176,51512,6,0,L|336:168,1,145,4|0,0:0|0:0,0:0:0:0:
257,120,52004,2,0,P|255:156|248:192,1,72.5,8|0,0:0|0:0,0:0:0:0:
341,240,52332,2,0,P|343:204|351:169,1,72.5,0|0,3:0|3:0,0:0:0:0:
336,72,52660,2,0,P|344:36|346:0,1,72.5,8|4,0:0|0:0,0:0:0:0:
248,32,52988,6,0,P|208:48|176:160,2,145,0|8|0,3:0|0:0|3:0,0:0:0:0:
336,72,53809,1,0,3:0:0:0:
257,120,53973,1,8,0:0:0:0:
336,160,54135,6,0,P|352:192|312:296,1,145,0|8,3:0|0:0,0:0:0:0:
240,320,54627,2,0,P|204:310|168:304,1,72.5,8|0,0:0|3:0,0:0:0:0:
88,304,54956,1,2,3:2:0:0:
88,304,55119,2,0,P|72:272|112:168,1,145
184,144,55612,5,4,3:2:0:0:
184,144,55775,2,0,P|240:160|304:120,1,116,0|0,3:0|0:0,0:0:0:0:
328,56,56268,1,8,0:0:0:0:
376,188,56594,1,0,3:0:0:0:
452,140,56758,1,0,0:0:0:0:
484,224,56922,2,0,P|492:264|448:332,1,116,0|0,3:0|3:0,0:0:0:0:
360,356,57414,2,0,P|353:315|410:242,1,116
452,140,57906,2,0,P|457:93|456:65,1,58,0|0,3:0|0:0,0:0:0:0:
368,64,58234,6,0,P|360:121|355:192,2,116,0|0|8,3:0|3:0|0:0,0:0:0:0:
464,48,59053,1,0,0:0:0:0:
452,140,59217,1,0,3:0:0:0:
368,64,59381,6,0,P|316:32|232:64,1,145,4|0,0:0|0:0,0:0:0:0:
144,96,59873,2,0,L|60:88,1,72.5
152,256,60201,1,8,0:0:0:0:
152,256,60365,2,0,L|137:184,1,72.5,0|8,3:0|0:0,0:0:0:0:
224,144,60693,1,8,0:0:0:0:
256,232,60857,6,0,P|320:268|400:232,2,145,6|8|0,3:2|0:0|0:0,0:0:0:0:
224,144,61676,1,0,3:0:0:0:
328,168,61840,2,0,L|336:88,1,72.5,10|0,0:0|3:0,0:0:0:0:
424,144,62168,6,0,L|409:288,2,145,6|8|0,3:2|0:0|0:0,0:0:0:0:
440,44,62988,1,0,0:0:0:0:
335,95,63152,2,0,L|328:168,1,72.5,10|0,0:0|3:0,0:0:0:0:
312,264,63480,6,0,P|272:296|160:264,1,145,4|10,3:2|3:2,0:0:0:0:
112,216,63972,2,0,L|56:224,2,36.25,0|0|0,3:0|3:0|0:0,0:0:0:0:
208,184,64299,1,0,0:0:0:0:
128,128,64463,2,0,P|123:92|128:48,1,72.5,10|0,0:0|3:0,0:0:0:0:
32,96,64791,6,0,P|48:160|8:248,1,145,0|10,3:0|3:2,0:0:0:0:
80,304,65283,2,0,L|73:349,2,36.25,0|0|0,3:0|3:0|0:0,0:0:0:0:
112,216,65611,1,0,3:0:0:0:
183,286,65775,2,0,P|223:294|255:287,1,72.5,10|0,0:0|3:0,0:0:0:0:
320,224,66103,6,0,P|322:151|328:64,1,145,4|10,3:2|3:2,0:0:0:0:
416,64,66594,2,0,P|413:136|408:224,1,145,0|0,3:0|0:0,0:0:0:0:
480,264,67086,2,0,L|476:321,3,36.25,10|0|4|0,0:0|3:0|3:2|3:0,0:0:0:0:
496,328,67414,6,0,P|456:312|368:352,1,145,0|10,3:0|3:2,0:0:0:0:
304,288,67906,1,0,3:0:0:0:
216,312,68070,2,0,L|120:304,1,72.5,10|0,0:0|3:0,0:0:0:0:
88,224,68398,2,0,L|184:216,1,72.5,0|0,3:0|3:0,0:0:0:0:
248,208,68726,6,0,P|276:180|260:72,1,145,8|0,3:2|3:0,0:0:0:0:
340,20,69217,2,0,P|400:8|474:76,1,145,8|0,3:2|3:0,0:0:0:0:
385,101,69709,1,8,3:2:0:0:
504,248,70037,5,2,3:1:0:0:
464,328,70201,1,2,0:1:0:0:
376,312,70365,1,2,0:1:0:0:
368,232,70529,1,2,0:1:0:0:
368,232,71185,6,0,P|336:200|240:208,1,145,4|0,0:0|0:0,0:0:0:0:
216,304,71676,2,0,L|304:296,1,72.5,8|0,0:0|0:0,0:0:0:0:
152,236,72004,1,0,3:0:0:0:
152,236,72168,2,0,P|140:196|124:164,1,72.5,0|8,0:0|0:0,0:0:0:0:
56,112,72496,6,0,P|100:132|184:80,1,145,4|0,0:0|0:0,0:0:0:0:
228,12,72988,2,0,L|144:8,1,72.5,8|0,0:0|0:0,0:0:0:0:
268,96,73316,1,0,3:0:0:0:
268,96,73480,2,0,L|352:92,1,72.5,0|8,0:0|0:0,0:0:0:0:
424,56,73808,6,0,P|424:120|448:232,1,145,4|0,0:0|0:0,0:0:0:0:
480,288,74299,2,0,P|436:285|383:286,1,72.5,8|0,0:0|0:0,0:0:0:0:
320,312,74627,1,0,3:0:0:0:
320,312,74791,2,0,P|283:311|247:309,1,72.5,0|8,0:0|0:0,0:0:0:0:
160,280,75119,6,0,P|192:232|288:232,1,145,4|0,0:0|0:0,0:0:0:0:
352,168,75611,2,0,P|357:209|368:248,1,72.5,8|0,0:0|0:0,0:0:0:0:
320,88,75939,2,0,P|361:83|400:72,1,72.5,0|0,3:0|3:0,0:0:0:0:
240,136,76267,2,0,P|234:94|224:56,1,72.5,8|0,0:0|0:0,0:0:0:0:
144,24,76594,6,0,P|88:80|16:56,2,145,4|8|0,0:0|0:0|3:0,0:0:0:0:
226,64,77414,2,0,L|307:60,1,72.5,0|8,0:0|0:0,0:0:0:0:
296,152,77742,6,0,L|151:158,1,145,4|0,0:0|3:0,0:0:0:0:
64,120,78234,2,0,P|56:157|59:199,1,72.5,8|0,0:0|0:0,0:0:0:0:
144,229,78562,2,0,P|152:192|149:150,1,72.5,0|0,3:0|0:0,0:0:0:0:
72,288,78890,2,0,P|120:272|200:328,1,145,8|4,0:0|0:0,0:0:0:0:
432,272,79545,6,0,P|384:288|304:232,1,145,8|0,0:0|3:0,0:0:0:0:
295,150,80037,2,0,P|305:112|311:70,1,72.5,0|8,0:0|0:0,0:0:0:0:
411,50,80365,2,0,P|402:121|384:192,1,145,4|0,0:0|0:0,0:0:0:0:
287,222,80857,6,0,P|289:185|294:150,1,72.5,8|0,0:0|0:0,0:0:0:0:
364,296,81185,2,0,P|361:332|356:367,1,72.5,0|8,3:0|0:0,0:0:0:0:
264,312,81512,2,0,L|200:300,3,36.25,0|0|8|0,0:0|3:0|0:0|0:0,0:0:0:0:
192,312,81840,6,0,P|152:316|68:224,1,145,6|8,0:0|0:0,0:0:0:0:
60,168,82332,1,0,0:0:0:0:
168,120,82496,2,0,L|173:192,1,72.5,0|0,3:0|0:0,0:0:0:0:
256,232,82824,2,0,B|286:232|326:216,1,72.5,8|0,0:0|0:0,0:0:0:0:
400,144,83152,6,0,P|323:108|260:141,1,145,4|8,0:0|0:0,0:0:0:0:
352,312,83808,2,0,P|428:347|491:314,1,145,0|8,3:0|0:0,0:0:0:0:
424,256,84299,1,0,3:0:0:0:
496,200,84463,6,0,P|503:160|504:120,1,72.5,14|0,0:0|3:0,0:0:0:0:
488,40,84791,1,0,3:0:0:0:
416,136,84955,2,0,P|384:152|272:96,1,145,14|0,0:0|3:0,0:0:0:0:
364,40,85447,1,6,0:0:0:0:
208,24,85775,6,0,L|136:16,1,72.5
144,120,86103,2,0,L|72:112,1,72.5,8|0,0:0|0:0,0:0:0:0:
8,184,86431,2,0,L|32:224,3,36.25,0|0|0|0,3:0|3:0|3:0|3:0,0:0:0:0:
24,248,86758,2,0,L|96:256,1,72.5,8|0,0:0|3:0,0:0:0:0:
144,336,87086,6,0,P|176:304|168:200,1,145,4|8,0:0|0:0,0:0:0:0:
144,120,87578,1,0,0:0:0:0:
256,168,87742,2,0,P|336:167|355:166,1,72.5,0|0,3:0|0:0,0:0:0:0:
424,160,88070,1,8,0:0:0:0:
432,256,88234,6,0,P|351:256|264:261,1,145,4|0,0:0|0:0,0:0:0:0:
192,240,88726,2,0,L|203:316,1,72.5,8|0,0:0|0:0,0:0:0:0:
287,259,89053,2,0,L|265:110,1,145,0|8,3:0|0:0,0:0:0:0:
344,64,89545,6,0,P|359:133|321:193,1,145
224,192,90037,2,0,P|189:187|144:184,1,72.5,8|0,0:0|0:0,0:0:0:0:
56,176,90365,2,0,L|73:93,1,72.5,0|0,3:0|0:0,0:0:0:0:
151,184,90693,2,0,L|136:255,1,72.5,8|0,0:0|0:0,0:0:0:0:
140,344,91021,6,0,P|85:331|48:248,2,145,4|12|4,3:2|0:0|3:2,0:0:0:0:
304,300,91840,1,2,3:2:0:0:
236,240,92004,2,0,P|222:273|218:309,1,72.5,10|8,3:2|3:2,0:0:0:0:
136,248,92332,6,0,P|152:200|152:160,1,72.5,4|2,3:2|0:0,0:0:0:0:
120,104,92660,2,0,L|47:98,1,72.5,10|0,3:2|0:0,0:0:0:0:
216,8,92988,2,0,P|200:56|200:96,1,72.5,0|2,0:0|0:0,0:0:0:0:
232,152,93316,2,0,L|305:158,1,72.5,8|0,0:0|0:0,0:0:0:0:
376,216,93644,6,0,P|392:184|344:72,2,145,0|8|0,0:0|0:0|0:0,0:0:0:0:
312,288,94463,1,2,0:0:0:0:
224,248,94627,1,8,0:0:0:0:
288,184,94791,1,0,0:0:0:0:
240,344,94955,6,0,P|184:336|146:333,1,72.5,0|2,0:0|0:0,0:0:0:0:
84,300,95283,2,0,P|118:255|140:224,1,72.5,8|0,0:0|0:0,0:0:0:0:
196,181,95611,2,0,P|217:233|233:267,1,72.5,0|2,0:0|0:0,0:0:0:0:
312,288,95939,2,0,L|416:288,1,72.5,8|0,0:0|0:0,0:0:0:0:
456,344,96267,6,0,P|476:302|470:267,1,72.5,2|2,0:0|0:0,0:0:0:0:
500,180,96594,2,0,P|490:145|465:120,1,72.5,8|0,0:0|0:0,0:0:0:0:
328,192,96922,2,0,L|432:192,1,72.5,2|2,0:0|0:0,0:0:0:0:
465,120,97250,2,0,L|469:40,1,72.5,8|0,0:0|3:0,0:0:0:0:
328,16,97578,6,0,P|328:64|320:96,1,72.5,4|2,0:0|0:0,0:0:0:0:
256,144,97906,2,0,L|169:137,1,72.5,8|0,3:2|0:0,0:0:0:0:
322,263,98234,2,0,P|322:215|330:183,1,72.5,0|2,0:0|0:0,0:0:0:0:
394,135,98562,2,0,L|481:142,1,72.5,8|0,0:0|0:0,0:0:0:0:
408,224,98890,6,0,L|247:212,2,145,0|8|0,0:0|0:0|0:0,0:0:0:0:
488,272,99709,1,2,0:0:0:0:
400,312,99873,1,8,0:0:0:0:
320,256,100037,1,0,0:0:0:0:
232,296,100201,6,0,P|192:304|112:232,1,145,0|8,0:0|0:0,0:0:0:0:
80,152,100693,2,0,P|120:144|200:216,1,145,0|2,0:0|0:0,0:0:0:0:
320,256,101185,1,8,0:0:0:0:
280,176,101349,6,0,L|288:0,1,173.999994689942,2|0,0:1|0:0,0:0:0:0:
368,56,101840,1,10,0:0:0:0:
196,152,102168,1,2,3:1:0:0:
384,208,102496,2,0,P|384:252|375:300,1,86.9999973449708,10|8,3:2|0:0,0:0:0:0:
296,304,102824,6,0,P|296:267|302:232,1,72.5,4|2,0:0|0:0,0:0:0:0:
384,208,103152,2,0,L|482:216,1,72.5,8|0,3:2|0:0,0:0:0:0:
368,56,103480,2,0,P|367:92|361:127,1,72.5,0|2,0:0|0:0,0:0:0:0:
280,157,103808,2,0,L|182:149,1,72.5,8|0,0:0|0:0,0:0:0:0:
120,152,104135,6,0,P|125:68|152:4,2,145,0|8|0,0:0|0:0|0:0,0:0:0:0:
180,224,104955,1,2,0:0:0:0:
140,304,105119,1,8,0:0:0:0:
80,236,105283,1,0,0:0:0:0:
204,368,105447,6,0,P|260:352|301:347,1,72.5,0|2,0:0|0:0,0:0:0:0:
380,328,105775,2,0,P|338:287|313:254,1,72.5,8|0,0:0|0:0,0:0:0:0:
260,192,106103,2,0,P|245:248|229:286,1,72.5,0|2,0:0|0:0,0:0:0:0:
140,304,106431,2,0,P|84:288|-4:336,1,145,8|2,0:0|0:0,0:0:0:0:
16,112,107086,5,8,0:0:0:0:
128,188,107414,2,0,L|24:204,2,72.5,0|0|8,0:0|3:0|0:0,0:0:0:0:
278,150,108070,5,4,3:2:0:0:
278,150,109381,5,2,3:2:0:0:
278,150,110693,6,0,L|275:225,1,72.5,4|0,3:2|0:0,0:0:0:0:
228,304,111021,2,0,P|256:316|364:248,1,145
444,288,111512,1,0,0:0:0:0:
509,227,111676,2,0,P|505:191|497:153,1,72.5
396,112,112004,6,0,L|380:52,2,36.25,8|0|0,3:2|3:0|3:0,3:0:0:0:
420,200,112332,1,0,3:0:0:0:
320,160,112496,2,0,P|296:128|184:144,1,145,8|0,3:2|3:0,0:0:0:0:
128,192,112988,1,8,3:2:0:0:
176,272,113152,6,0,P|100:286|48:244,1,145,4|0,3:2|3:0,0:0:0:0:
40,152,113644,2,0,P|76:108|56:20,2,145,8|0|8,0:0|3:0|0:0,0:0:0:0:
128,192,114463,1,0,3:0:0:0:
184,120,114627,6,0,P|232:128|344:136,1,145,0|8,3:0|0:0,0:0:0:0:
400,312,115283,2,0,P|352:304|240:296,1,145,0|8,3:0|0:0,0:0:0:0:
176,336,115775,6,0,P|168:296|240:208,1,145,0|0,3:0|3:0,0:0:0:0:
312,208,116267,2,0,P|348:211|383:218,1,72.5,8|0,0:0|3:0,0:0:0:0:
480,200,116594,2,0,L|468:280,1,72.5,0|0,3:0|3:0,0:0:0:0:
383,218,116922,2,0,L|393:146,1,72.5,8|0,0:0|3:0,0:0:0:0:
448,64,117250,5,0,3:0:0:0:
448,64,117414,1,8,3:2:0:0:
336,80,117578,2,0,L|248:72,1,72.5,8|0,0:0|3:0,0:0:0:0:
192,16,117906,2,0,P|176:48|240:160,1,145,8|8,0:0|3:2,0:0:0:0:
303,183,118398,6,0,L|149:168,1,145,4|0,3:2|3:0,0:0:0:0:
159,169,118890,2,0,P|142:203|142:251,1,72.5,8|0,0:0|3:0,0:0:0:0:
208,296,119217,2,0,P|225:262|225:214,1,72.5,0|0,3:0|3:0,0:0:0:0:
139,236,119545,2,0,L|35:244,1,72.5,8|0,0:0|3:0,0:0:0:0:
16,152,119873,6,0,L|160:139,2,145,0|8|0,3:0|0:0|3:0,0:0:0:0:
40,56,120693,2,0,L|112:50,1,72.5,0|8,3:0|0:0,0:0:0:0:
208,72,121021,6,0,P|264:88|344:24,1,145,0|0,3:0|3:0,0:0:0:0:
416,88,121512,2,0,P|408:128|401:186,1,72.5,8|0,0:0|3:0,0:0:0:0:
408,248,121840,1,0,3:0:0:0:
408,248,122004,2,0,L|312:240,1,72.5,0|8,3:0|0:0,0:0:0:0:
280,160,122332,6,0,P|240:216|261:306,1,145,4|0,3:2|3:0,0:0:0:0:
328,336,122824,1,8,0:0:0:0:
328,336,122988,1,0,3:0:0:0:
408,248,123153,2,0,L|312:240,1,72.5,8|0,3:2|3:0,0:0:0:0:
248,288,123480,2,0,L|152:280,1,72.5,0|0,3:0|3:0,0:0:0:0:
88,328,123808,6,0,L|72:168,1,145,4|8,3:2|0:0,0:0:0:0:
176,16,124463,2,0,L|161:160,1,145,0|8,0:0|0:0,0:0:0:0:
208,248,124955,1,0,0:0:0:0:
208,248,125119,6,0,P|240:232|304:232,1,72.5,2|0,0:0|0:0,0:0:0:0:
368,248,125447,2,0,P|400:272|432:376,2,145,10|2|10,0:0|0:0|0:0,0:0:0:0:
344,88,126431,5,2,0:0:0:0:
456,192,126758,1,8,0:0:0:0:
296,176,127086,2,0,L|128:160,1,145,2|8,0:0|0:0,0:0:0:0:
72,112,127578,6,0,P|60:181|106:247,1,145,4|0,3:2|3:0,0:0:0:0:
128,332,128070,2,0,L|52:325,1,72.5,8|0,0:0|0:0,0:0:0:0:
98,241,128398,2,0,L|170:247,1,72.5,2|0,0:0|0:0,0:0:0:0:
265,253,128726,2,0,P|272:288|269:328,1,72.5,8|8,0:0|0:0,0:0:0:0:
352,368,129053,6,0,P|384:336|504:344,1,145,4|8,0:0|0:0,0:0:0:0:
448,152,129709,2,0,P|416:184|296:176,1,145,0|8,0:0|0:0,0:0:0:0:
272,120,130201,1,0,0:0:0:0:
192,157,130365,6,0,L|118:154,1,72.5,2|8,0:0|0:0,0:0:0:0:
72,72,130693,2,0,L|146:69,1,72.5,8|0,0:0|3:0,0:0:0:0:
226,38,131021,2,0,L|229:2,2,36.25,10|0|0,0:0|0:0|0:0,0:0:0:0:
192,157,131349,2,0,L|183:237,1,72.5,0|8,3:0|0:0,0:0:0:0:
208,320,131676,5,4,0:0:0:0:
256,192,131840,12,0,136266,0:0:0:0:
256,192,136922,5,4,0:0:0:0:
