osu file format v12

[General]
AudioFilename: wat dey sey.mp3
AudioLeadIn: 0
PreviewTime: -1
Countdown: 0
SampleSet: Normal
StackLeniency: 0.7
Mode: 0
LetterboxInBreaks: 1
WidescreenStoryboard: 0

[Editor]
DistanceSpacing: 0.6
BeatDivisor: 4
GridSize: 8
TimelineZoom: 1

[Metadata]
Title:What They Say
TitleUnicode:What They Say
Artist:Sonitus Vir
ArtistUnicode:Sonitus Vir
Creator:Bear
Version:Hard
Source:
Tags:renard lapfox sonitus vir mnemonic
BeatmapID:370487
BeatmapSetID:150074

[Difficulty]
HPDrainRate:6
CircleSize:4
OverallDifficulty:6
ApproachRate:7
SliderMultiplier:2.19999990463257
SliderTickRate:2

[Events]
//Background and Video events
0,0,"Mnemonica.png",0,0
//Break Periods
//Storyboard Layer 0 (Background)
//Storyboard Layer 1 (Fail)
//Storyboard Layer 2 (Pass)
//Storyboard Layer 3 (Foreground)
//Storyboard Sound Samples
//Background Colour Transformations
3,100,0,0,0

[TimingPoints]
1570,588.235294117647,4,2,0,50,1,0
5687,-50,4,3,0,75,0,0
6275,-100,4,2,0,50,0,0
10393,-100,4,3,0,75,0,0
10981,-100,4,2,0,50,0,0
11569,-80,4,2,0,50,0,0
15099,-50,4,3,0,75,0,0
15687,-66.6666666666667,4,2,0,50,0,0
19805,-66.6666666666667,4,3,0,75,0,0
20393,-100,4,2,0,50,0,0
29805,-100,4,1,0,50,0,1
47746,-66.6666666666667,4,1,0,50,0,1
48628,-80,4,2,0,50,0,0
52746,-50,4,3,0,75,0,0
53334,-80,4,2,0,50,0,0
56864,-100,4,2,0,50,0,0
57452,-100,4,3,0,75,0,0
57746,-100,4,2,0,50,0,0
62746,-66.6666666666667,4,2,0,50,0,0
63922,-90.9090909090909,4,2,0,50,0,0
65099,-100,4,2,0,50,0,0
67452,-100,4,1,0,50,0,1
76275,-100,4,3,0,75,0,1
76569,-100,4,1,0,50,0,1
81569,-133.333333333333,4,1,0,50,0,1
85393,-66.6666666666667,4,1,0,50,0,1
86275,-100,4,2,0,50,0,0
90099,-100,4,1,0,75,0,0
90981,-100,4,2,0,50,0,0
94805,-100,4,1,0,75,0,0
95687,-100,4,2,0,50,0,0
99511,-100,4,1,0,75,0,0
100393,-100,4,1,0,50,0,0
102746,-100,4,2,0,50,0,0
104511,-100,4,1,0,75,0,0
105393,-100,4,1,0,40,0,0
123334,-100,4,3,0,75,0,0
123922,-100,4,1,0,50,0,1
141569,-100,4,2,0,10,0,0

[Colours]
Combo1 : 255,255,60
Combo2 : 224,224,224
Combo3 : 124,124,124
Combo4 : 173,173,173
Combo5 : 166,235,247
Combo6 : 255,40,40
Combo7 : 179,213,247
Combo8 : 255,226,21

[HitObjects]
408,280,1570,6,0,P|320:280|288:272,1,109.999995231628
232,224,2158,1,0,0:0:0:0:
272,152,2452,1,0,0:0:0:0:
272,72,2746,1,0,0:0:0:0:
184,72,3040,2,0,L|104:72,2,54.9999976158142
272,72,3628,1,0,0:0:0:0:
360,72,3922,6,0,P|376:184|368:200,1,109.999995231628
376,200,4364,1,0,0:0:0:0:
368,232,4511,2,0,P|264:296|232:288,1,109.999995231628
208,296,5099,1,0,0:0:0:0:
200,240,5687,38,0,B|184:232|184:232|208:224|208:224|184:216|184:216|208:208|208:208|184:200|184:200|208:192|208:192|184:184|184:184|208:176|208:176,1,146.666660308838
224,192,5981,2,0,B|208:200|208:200|232:208|232:208|208:216|208:216|232:224|232:224|208:232|208:232|232:240|232:240|208:248|208:248|232:256|232:256,1,146.666660308838,0|0,0:0|0:0,0:0:0:0:
232,240,6275,85,0,0:0:0:0:
232,240,6569,2,0,P|128:304|72:296,1,109.999995231628
72,264,7158,2,0,P|48:152|56:128,2,109.999995231628
146,301,8040,1,0,0:0:0:0:
241,304,8334,1,0,0:0:0:0:
241,304,8481,1,0,0:0:0:0:
241,304,8628,1,0,0:0:0:0:
148,300,8922,86,0,P|84:268|52:228,1,109.999995231628
41,160,9511,2,0,P|97:56|121:48,1,109.999995231628
208,168,10393,53,0,0:0:0:0:
232,168,10540,1,0,0:0:0:0:
256,168,10687,1,0,0:0:0:0:
344,280,10981,101,0,0:0:0:0:
184,280,11569,2,0,B|184:168|64:168|64:32,1,274.999988079071
344,40,12746,1,0,0:0:0:0:
344,280,13334,2,0,B|224:280|224:176|64:176,1,274.999988079071
32,128,14217,1,0,0:0:0:0:
95,177,14511,1,0,0:0:0:0:
32,224,14805,1,0,0:0:0:0:
96,176,15099,6,0,B|104:160|104:160|112:184|112:184|120:160|120:160|128:184|128:184|136:160|136:160|144:184|144:184|152:160|152:160|160:184|160:184,1,146.666660308838
144,200,15393,2,0,B|136:184|136:184|128:208|128:208|120:184|120:184|112:208|112:208|104:184|104:184|96:208|96:208|88:184|88:184|80:208|80:208,1,146.666660308838,0|0,0:0|0:0,0:0:0:0:
96,208,15687,5,0,0:0:0:0:
120,56,16275,2,0,B|216:88|216:88|272:32|272:32|320:32,1,164.999999141693
296,120,16864,2,0,B|232:168|232:168|128:136|128:136|80:136,1,164.999999141693
152,216,17452,2,0,B|248:248|248:248|304:192|304:192|352:192,1,164.999999141693,0|0,0:0|0:0,0:0:0:0:
328,280,18040,2,0,B|264:328|264:328|160:296|160:296|112:296,3,164.999999141693
120,264,19217,1,0,0:0:0:0:
72,200,19511,1,0,0:0:0:0:
152,152,19805,101,0,0:0:0:0:
176,152,19952,1,0,0:0:0:0:
200,152,20099,1,0,0:0:0:0:
240,240,20393,102,0,P|336:272|384:272,1,109.999995231628
408,224,20981,1,0,0:0:0:0:
384,152,21275,1,0,0:0:0:0:
344,88,21569,1,0,0:0:0:0:
280,48,21864,1,0,0:0:0:0:
344,88,22158,1,0,0:0:0:0:
280,48,22452,1,0,0:0:0:0:
208,88,22746,21,0,0:0:0:0:
160,160,23040,1,0,0:0:0:0:
152,192,23187,1,0,0:0:0:0:
160,224,23334,1,0,0:0:0:0:
216,288,23628,2,0,P|296:208|296:168,1,109.999995231628
240,168,24217,1,0,0:0:0:0:
296,216,24511,1,0,0:0:0:0:
336,280,24805,1,0,0:0:0:0:
336,280,25099,85,0,0:0:0:0:
376,48,25687,1,0,0:0:0:0:
384,80,25834,1,0,0:0:0:0:
392,112,25981,1,0,0:0:0:0:
384,144,26128,1,0,0:0:0:0:
376,176,26275,1,0,0:0:0:0:
376,48,26569,1,0,0:0:0:0:
376,176,26864,1,0,0:0:0:0:
448,48,27158,1,0,0:0:0:0:
448,160,27452,22,0,B|432:224|368:256,1,109.999995231628
360,272,27893,1,0,0:0:0:0:
328,288,28040,2,0,P|232:312|184:296,1,109.999995231628
150,310,28628,1,0,0:0:0:0:
150,310,28922,1,0,0:0:0:0:
150,206,29217,1,0,0:0:0:0:
150,310,29511,1,0,0:0:0:0:
96,88,29805,21,0,0:0:0:0:
160,144,30099,2,8,P|216:184|256:192,1,109.999995231628,0|8,0:0|0:0,0:0:0:0:
336,208,30687,1,0,0:0:0:0:
416,272,30981,2,0,B|352:320|312:320,1,109.999995231628
232,320,31569,1,8,0:0:0:0:
144,296,31864,1,0,0:0:0:0:
80,232,32158,2,0,P|16:144|8:112,2,109.999995231628,8|0|8,0:0|0:0|0:0,0:0:0:0:
144,296,33040,1,0,0:0:0:0:
232,320,33334,1,0,0:0:0:0:
320,328,33628,101,0,0:0:0:0:
320,328,33922,1,8,0:0:0:0:
232,320,34217,1,0,0:0:0:0:
144,296,34511,1,0,0:0:0:0:
184,208,34805,5,0,0:0:0:0:
208,168,34952,1,0,0:0:0:0:
248,144,35099,1,8,0:0:0:0:
320,88,35393,1,0,0:0:0:0:
384,152,35687,1,0,0:0:0:0:
472,192,35981,1,0,0:0:0:0:
488,144,36128,1,0,0:0:0:0:
488,96,36275,1,8,0:0:0:0:
408,40,36569,1,0,0:0:0:0:
320,88,36864,101,0,0:0:0:0:
216,120,37158,1,0,0:0:0:0:
184,160,37305,1,0,0:0:0:0:
168,208,37452,1,8,0:0:0:0:
192,288,37746,1,0,0:0:0:0:
232,320,37893,1,0,0:0:0:0:
280,336,38040,1,0,0:0:0:0:
376,336,38334,1,0,0:0:0:0:
376,336,38628,1,4,0:0:0:0:
432,168,39217,5,0,0:0:0:0:
352,120,39511,2,0,B|288:72|232:88,1,109.999995231628,0|8,0:0|0:0,0:0:0:0:
160,88,40099,2,0,P|96:136|72:176,1,109.999995231628
64,248,40687,1,0,0:0:0:0:
128,312,40981,1,8,0:0:0:0:
216,336,41275,1,0,0:0:0:0:
312,336,41569,2,0,L|424:336,2,109.999995231628,8|0|8,0:0|0:0|0:0,0:0:0:0:
216,336,42452,1,0,0:0:0:0:
120,336,42746,1,0,0:0:0:0:
24,336,43040,101,0,0:0:0:0:
24,336,43334,1,8,0:0:0:0:
56,248,43628,1,0,0:0:0:0:
104,168,43922,1,0,0:0:0:0:
192,112,44217,2,0,P|280:72|320:72,1,109.999995231628,0|8,0:0|0:0,0:0:0:0:
384,96,44805,2,0,P|448:152|448:200,1,109.999995231628
432,264,45393,2,0,P|368:328|320:328,2,109.999995231628,0|8|0,0:0|0:0|0:0,0:0:0:0:
432,264,46275,1,0,0:0:0:0:
264,136,46569,5,0,0:0:0:0:
256,160,46717,1,0,0:0:0:0:
248,192,46864,1,8,0:0:0:0:
240,216,47011,1,0,0:0:0:0:
248,248,47158,1,0,0:0:0:0:
256,280,47305,1,0,0:0:0:0:
264,304,47452,1,0,0:0:0:0:
352,304,47746,2,2,B|368:320|368:320|368:288|368:288|376:304|376:304|528:304,1,164.999999141693
168,280,48628,85,0,0:0:0:0:
328,280,49216,2,0,B|328:168|448:168|448:32,1,274.999988079071
168,40,50393,1,0,0:0:0:0:
168,280,50981,2,0,B|288:280|288:176|448:176,1,274.999988079071
480,224,51864,1,0,0:0:0:0:
417,177,52158,1,0,0:0:0:0:
480,128,52452,1,0,0:0:0:0:
416,176,52746,102,0,B|408:160|408:160|400:184|400:184|392:160|392:160|384:184|384:184|376:160|376:160|368:184|368:184|360:160|360:160|352:184|352:184,1,146.666660308838
368,200,53040,2,0,B|376:184|376:184|384:208|384:208|392:184|392:184|400:208|400:208|408:184|408:184|416:208|416:208|424:184|424:184|432:208|432:208,1,146.666660308838,0|0,0:0|0:0,0:0:0:0:
416,208,53334,101,0,0:0:0:0:
112,208,53922,2,0,B|112:120|112:120|208:120|208:120|208:24,1,274.999988079071
288,64,54805,1,0,0:0:0:0:
360,112,55099,2,0,B|360:200|360:200|456:200|456:200|456:296,1,274.999988079071
456,291,55981,1,0,0:0:0:0:
456,304,56275,1,0,0:0:0:0:
456,320,56569,1,0,0:0:0:0:
384,320,56864,2,0,L|240:320,1,109.999995231628
184,288,57452,5,0,0:0:0:0:
184,288,57599,1,0,0:0:0:0:
184,288,57746,6,0,P|117:221|104:184,1,109.999995231628
80,136,58334,1,0,0:0:0:0:
144,88,58628,2,0,P|224:64|280:64,1,109.999995231628
328,63,59217,2,0,L|464:63,3,109.999995231628
438,63,60393,85,0,0:0:0:0:
440,152,60687,1,0,0:0:0:0:
448,192,60834,1,0,0:0:0:0:
440,232,60981,1,0,0:0:0:0:
384,296,61275,2,0,P|304:352|248:352,1,109.999995231628
216,352,61864,2,0,L|104:352,2,109.999995231628
296,352,62746,22,8,B|312:352|312:352|328:344|328:344|344:352|344:352|360:344|360:344|376:352|376:352|408:352,2,109.999999427795
216,352,63334,1,0,0:0:0:0:
136,352,63628,1,0,0:0:0:0:
56,352,63922,2,0,B|96:256|32:160|56:80,1,241.999996894836
136,80,64805,1,0,0:0:0:0:
216,56,65099,2,0,B|376:56|376:56|384:64|384:64|392:56|392:56|400:64|400:64|408:56|408:56|416:64|416:64|424:56|424:56|432:64|432:64|440:56|440:56|448:64|448:64|456:56|456:56|464:64|464:64|472:56|472:56|480:64|480:64|504:64|504:64,1,329.999985694885
480,152,66275,2,0,P|432:232|384:256,1,109.999995231628
344,200,66864,1,8,0:0:0:0:
272,240,67158,1,8,0:0:0:0:
416,88,67452,21,0,0:0:0:0:
352,144,67746,2,0,P|296:184|256:192,1,109.999995231628,0|8,0:0|0:0,0:0:0:0:
176,208,68334,1,0,0:0:0:0:
96,272,68628,2,0,B|160:320|200:320,1,109.999995231628
280,320,69216,1,8,0:0:0:0:
368,296,69511,1,0,0:0:0:0:
432,232,69805,2,0,P|496:144|504:112,2,109.999995231628,8|0|8,0:0|0:0|0:0,0:0:0:0:
368,296,70687,1,0,0:0:0:0:
280,320,70981,1,0,0:0:0:0:
192,288,71275,102,0,P|136:216|128:192,1,109.999995231628,0|8,0:0|0:0,0:0:0:0:
104,120,71864,1,0,0:0:0:0:
160,56,72158,1,0,0:0:0:0:
240,32,72452,2,0,P|288:96|344:104,1,109.999995231628,0|8,0:0|0:0,0:0:0:0:
400,112,73040,2,0,P|496:160|496:224,1,109.999995231628
480,64,73628,1,0,0:0:0:0:
400,112,73922,1,8,0:0:0:0:
493,153,74217,1,0,0:0:0:0:
480,64,74511,5,0,0:0:0:0:
392,24,74805,1,0,0:0:0:0:
304,48,75099,1,8,0:0:0:0:
240,104,75393,1,0,0:0:0:0:
192,176,75687,1,0,0:0:0:0:
304,48,76275,69,0,0:0:0:0:
304,48,76422,1,0,0:0:0:0:
304,48,76569,85,2,0:0:0:0:
240,104,76864,101,2,0:0:0:0:
192,176,77158,70,0,P|176:232|224:296,1,109.999995231628,0|8,0:0|0:0,0:0:0:0:
280,272,77746,2,0,P|304:208|272:152,1,109.999995231628
248,96,78334,2,0,P|168:48|136:48,1,109.999995231628,0|8,0:0|0:0,0:0:0:0:
80,48,78922,1,0,0:0:0:0:
144,80,79217,1,0,0:0:0:0:
80,112,79511,1,0,0:0:0:0:
144,144,79805,1,8,0:0:0:0:
80,176,80099,1,0,0:0:0:0:
144,208,80393,5,0,0:0:0:0:
232,208,80687,1,0,0:0:0:0:
232,208,80981,1,8,0:0:0:0:
144,208,81275,1,0,0:0:0:0:
48,72,81569,102,0,B|32:96|32:96|64:96|64:96|48:112|48:112|48:144|48:144,1,82.4999995708466
48,136,82011,1,0,0:0:0:0:
48,160,82159,1,8,0:0:0:0:
48,192,82306,1,8,0:0:0:0:
48,216,82453,1,0,0:0:0:0:
48,248,82600,1,0,0:0:0:0:
48,280,82747,1,0,0:0:0:0:
128,328,83040,5,0,0:0:0:0:
208,280,83334,1,0,0:0:0:0:
288,328,83628,1,0,0:0:0:0:
208,280,83922,101,0,0:0:0:0:
136,216,84217,1,0,0:0:0:0:
120,192,84365,1,0,0:0:0:0:
104,168,84512,1,8,0:0:0:0:
88,144,84659,1,8,0:0:0:0:
80,120,84806,1,0,0:0:0:0:
80,96,84953,1,0,0:0:0:0:
80,72,85100,1,0,0:0:0:0:
176,80,85393,2,2,B|198:80|198:80|175:102|175:102|192:97|192:97|298:206,1,164.999999141693
416,288,86275,53,0,0:0:0:0:
328,288,86569,1,0,0:0:0:0:
328,200,86864,1,0,0:0:0:0:
240,200,87158,1,0,0:0:0:0:
328,200,87452,85,0,0:0:0:0:
328,112,87746,1,0,0:0:0:0:
416,112,88040,1,0,0:0:0:0:
416,24,88334,1,0,0:0:0:0:
328,24,88628,5,0,0:0:0:0:
328,112,88922,1,0,0:0:0:0:
328,200,89217,1,0,0:0:0:0:
328,288,89511,1,0,0:0:0:0:
328,376,89805,1,0,0:0:0:0:
416,376,90099,2,0,L|528:376,2,109.999995231628
328,376,90981,5,0,0:0:0:0:
240,376,91275,1,0,0:0:0:0:
240,288,91569,1,0,0:0:0:0:
152,288,91864,1,0,0:0:0:0:
152,200,92158,85,0,0:0:0:0:
64,200,92452,1,0,0:0:0:0:
64,112,92746,1,0,0:0:0:0:
152,112,93040,1,0,0:0:0:0:
152,200,93334,5,0,0:0:0:0:
152,112,93628,1,0,0:0:0:0:
64,112,93922,1,0,0:0:0:0:
64,200,94217,1,0,0:0:0:0:
152,200,94511,1,0,0:0:0:0:
240,200,94805,2,0,L|352:200,2,109.999995231628
152,200,95687,5,0,0:0:0:0:
64,200,95981,1,0,0:0:0:0:
64,288,96275,1,0,0:0:0:0:
152,288,96569,1,0,0:0:0:0:
240,288,96864,85,0,0:0:0:0:
240,200,97158,1,0,0:0:0:0:
240,288,97452,1,0,0:0:0:0:
328,288,97746,1,0,0:0:0:0:
328,200,98040,5,0,0:0:0:0:
328,288,98334,1,0,0:0:0:0:
416,288,98628,1,0,0:0:0:0:
416,200,98922,1,0,0:0:0:0:
416,112,99217,1,0,0:0:0:0:
416,112,99511,2,0,L|304:112,2,109.999995231628
416,24,100393,69,0,0:0:0:0:
384,40,100540,1,0,0:0:0:0:
360,64,100687,1,8,0:0:0:0:
336,88,100834,1,8,0:0:0:0:
312,112,100981,2,0,L|272:160,3,54.9999976158142,0|8|0|8,0:0|0:0|0:0|0:0,0:0:0:0:
256,184,101569,5,0,0:0:0:0:
240,208,101717,1,0,0:0:0:0:
224,240,101864,1,8,0:0:0:0:
208,272,102011,1,8,0:0:0:0:
200,304,102158,101,0,0:0:0:0:
200,304,102305,1,0,0:0:0:0:
200,304,102452,1,8,0:0:0:0:
200,304,102599,1,8,0:0:0:0:
200,304,102746,101,2,0:0:0:0:
296,168,103040,1,2,0:0:0:0:
200,304,103334,1,2,0:0:0:0:
104,168,103628,1,2,0:0:0:0:
200,304,103922,2,8,P|248:336|328:336,1,109.999995231628,8|0,0:0|0:0,0:0:0:0:
384,344,104511,101,4,0:0:0:0:
384,344,104658,1,4,0:0:0:0:
472,344,104952,1,4,0:0:0:0:
320,168,105393,101,0,0:0:0:0:
296,168,105540,1,0,0:0:0:0:
272,168,105687,1,8,0:0:0:0:
192,168,105981,1,0,0:0:0:0:
152,104,106275,1,0,0:0:0:0:
112,168,106569,1,0,0:0:0:0:
72,104,106864,1,8,0:0:0:0:
32,168,107158,1,0,0:0:0:0:
112,168,107452,21,0,0:0:0:0:
192,168,107746,1,0,0:0:0:0:
216,168,107893,1,0,0:0:0:0:
240,168,108040,1,8,0:0:0:0:
320,168,108334,1,0,0:0:0:0:
360,104,108628,1,0,0:0:0:0:
400,168,108922,1,0,0:0:0:0:
440,104,109217,1,8,0:0:0:0:
480,168,109511,1,0,0:0:0:0:
480,168,109805,85,0,0:0:0:0:
416,224,110099,1,0,0:0:0:0:
384,248,110246,1,0,0:0:0:0:
344,272,110393,2,0,P|272:304|208:304,1,109.999995231628,8|0,0:0|0:0,0:0:0:0:
152,304,110981,2,0,P|64:240|64:216,1,109.999995231628
48,168,111569,2,0,P|96:80|136:72,1,109.999995231628,8|0,0:0|0:0,0:0:0:0:
184,48,112158,22,0,P|288:48|328:72,1,109.999995231628
368,88,112746,2,0,P|432:152|432:184,1,109.999995231628,8|0,0:0|0:0,0:0:0:0:
448,256,113334,1,0,0:0:0:0:
368,296,113628,1,0,0:0:0:0:
280,320,113922,1,8,0:0:0:0:
280,320,114217,1,0,0:0:0:0:
392,232,114511,85,0,0:0:0:0:
360,152,114805,1,0,0:0:0:0:
336,112,114952,1,0,0:0:0:0:
304,80,115099,1,8,0:0:0:0:
224,40,115393,1,0,0:0:0:0:
152,104,115687,1,0,0:0:0:0:
152,192,115981,1,0,0:0:0:0:
152,280,116275,1,8,0:0:0:0:
152,192,116569,1,0,0:0:0:0:
240,192,116864,21,0,0:0:0:0:
328,192,117158,1,0,0:0:0:0:
368,192,117305,1,0,0:0:0:0:
408,192,117452,1,8,0:0:0:0:
456,264,117746,1,0,0:0:0:0:
400,336,118040,1,0,0:0:0:0:
312,336,118334,2,0,L|192:336,1,109.999995231628,0|8,0:0|0:0,0:0:0:0:
112,336,118922,1,0,0:0:0:0:
216,232,119217,85,0,0:0:0:0:
288,184,119511,1,0,0:0:0:0:
320,216,119658,1,0,0:0:0:0:
360,240,119805,1,8,0:0:0:0:
360,152,120099,1,0,0:0:0:0:
280,96,120393,21,0,0:0:0:0:
192,96,120687,1,0,0:0:0:0:
280,96,120981,1,8,0:0:0:0:
192,96,121275,1,0,0:0:0:0:
144,168,121569,2,0,L|144:280,4,109.999995231628
368,104,123334,101,0,0:0:0:0:
368,280,123628,1,0,0:0:0:0:
256,192,123922,21,0,0:0:0:0:
184,136,124216,2,8,P|88:96|64:96,1,109.999995231628,0|8,0:0|0:0,0:0:0:0:
56,176,124804,1,0,0:0:0:0:
56,256,125098,2,0,B|88:304|160:320,1,109.999995231628
232,320,125686,1,8,0:0:0:0:
144,296,125981,5,0,0:0:0:0:
80,232,126275,2,0,P|16:144|8:112,2,109.999995231628,8|0|8,0:0|0:0|0:0,0:0:0:0:
144,176,127157,1,0,0:0:0:0:
88,104,127451,1,0,0:0:0:0:
168,48,127746,101,0,0:0:0:0:
232,120,128040,1,8,0:0:0:0:
272,32,128334,1,0,0:0:0:0:
336,96,128628,1,0,0:0:0:0:
328,176,128922,5,0,0:0:0:0:
304,216,129069,1,0,0:0:0:0:
264,240,129216,1,8,0:0:0:0:
192,296,129510,1,0,0:0:0:0:
128,232,129804,1,0,0:0:0:0:
40,192,130098,1,0,0:0:0:0:
24,240,130245,1,0,0:0:0:0:
24,288,130392,1,8,0:0:0:0:
104,344,130686,1,0,0:0:0:0:
192,296,130981,101,0,0:0:0:0:
296,264,131275,1,0,0:0:0:0:
328,224,131422,1,0,0:0:0:0:
344,176,131569,1,8,0:0:0:0:
320,96,131863,1,0,0:0:0:0:
280,64,132010,1,0,0:0:0:0:
232,48,132157,1,0,0:0:0:0:
136,48,132451,1,0,0:0:0:0:
136,48,132745,1,4,0:0:0:0:
72,232,133334,6,0,P|104:288|144:304,1,109.999995231628
200,248,133922,2,0,P|168:200|112:176,1,109.999995231628,8|0,0:0|0:0,0:0:0:0:
72,232,134511,102,0,P|104:288|144:304,1,109.999995231628
200,248,135099,2,0,P|168:200|112:176,1,109.999995231628,8|0,0:0|0:0,0:0:0:0:
48,152,135687,6,0,P|32:72|56:48,1,109.999995231628
120,48,136275,2,0,P|200:40|240:56,1,109.999995231628,8|0,0:0|0:0,0:0:0:0:
312,48,136864,1,0,0:0:0:0:
400,48,137158,2,0,L|512:48,2,109.999995231628
312,48,138040,101,0,0:0:0:0:
280,48,138187,1,0,0:0:0:0:
248,48,138334,1,8,0:0:0:0:
216,48,138481,1,8,0:0:0:0:
184,48,138627,5,0,0:0:0:0:
152,48,138775,1,0,0:0:0:0:
120,48,138922,1,8,0:0:0:0:
88,48,139069,1,8,0:0:0:0:
88,80,139217,2,0,L|88:136,3,54.9999976158142,0|8|0|8,0:0|0:0|0:0|0:0,0:0:0:0:
88,168,139805,101,0,0:0:0:0:
88,200,139952,1,0,0:0:0:0:
88,232,140099,1,8,0:0:0:0:
88,264,140246,1,8,0:0:0:0:
88,296,140393,69,2,0:0:0:0:
192,168,140687,1,2,0:0:0:0:
192,296,140981,1,2,0:0:0:0:
88,168,141275,1,2,0:0:0:0:
256,192,141569,12,4,143922,0:0:0:0:
