osu file format v12

[General]
AudioFilename: Heartmender _ VULPvibe Records.MP3
AudioLeadIn: 0
PreviewTime: -1
Countdown: 1
SampleSet: Soft
StackLeniency: 0.7
Mode: 0
LetterboxInBreaks: 1

[Editor]
Bookmarks: 25674
DistanceSpacing: 1
BeatDivisor: 4
GridSize: 4

[Metadata]
Title:Lune Noir
TitleUnicode:Lune Noir
Artist:Sonitus Vir
ArtistUnicode:Sonitus Vir
Creator:CTB_Trainee
Version:Noir
Source:Heartmender
Tags:Electronic Lapfox
BeatmapID:235593
BeatmapSetID:85859

[Difficulty]
HPDrainRate:6
CircleSize:4
OverallDifficulty:8
ApproachRate:9
SliderMultiplier:1.4
SliderTickRate:1

[Events]
//Background and Video events
0,0,"Sonitus.jpg",1,1
//Break Periods
2,65882,85284
//Storyboard Layer 0 (Background)
//Storyboard Layer 1 (Fail)
//Storyboard Layer 2 (Pass)
//Storyboard Layer 3 (Foreground)
//Storyboard Sound Samples
//Background Colour Transformations
3,100,163,162,255

[TimingPoints]
28,315.648262619355,4,2,0,100,1,0
28,-100,4,2,0,75,0,0
3815,-100,4,2,0,50,0,0
4131,-100,4,2,0,75,0,0
8866,-100,4,2,0,50,0,0
25279,-66.6666666666667,4,1,0,50,0,1
34118,-100,4,1,0,50,0,1
35380,-66.6666666666667,4,1,0,50,0,1
45481,-100,4,1,0,50,0,0
65682,-66.6666666666667,4,1,0,50,0,0
85884,-100,4,2,0,50,0,0
106085,-66.6666666666667,4,1,0,50,0,1
126287,-66.6666666666667,4,1,0,50,0,0

[Colours]
Combo1 : 113,138,227
Combo2 : 103,103,103
Combo3 : 40,40,40
Combo4 : 248,179,116
Combo5 : 237,194,27

[HitObjects]
59,37,2553,1,0,0:0:0:0:
40,64,2632,1,0,0:0:0:0:
44,98,2711,1,0,0:0:0:0:
60,128,2789,1,0,0:0:0:0:
87,146,2868,1,0,0:0:0:0:
121,148,2947,1,0,0:0:0:0:
150,138,3026,2,0,L|184:176|184:176,3,35
176,104,3342,2,0,L|212:116|212:116,3,35
416,260,3815,2,6,P|376:284|352:316,2,70,0|2|2,0:0|0:0|0:0,0:0:0:0:
421,53,7603,5,0,0:0:0:0:
440,80,7682,1,0,0:0:0:0:
436,114,7761,1,0,0:0:0:0:
420,144,7839,1,0,0:0:0:0:
393,162,7918,1,0,0:0:0:0:
359,164,7997,1,0,0:0:0:0:
330,154,8076,2,0,L|295:192|295:192,3,35
304,120,8392,2,0,L|268:132|268:132,3,35
88,196,8866,2,4,P|132:200|172:232,2,70,2|2|2,0:0|0:0|0:0,0:0:0:0:
56,44,10128,53,2,0:0:0:0:
340,72,10917,5,0,0:0:0:0:
340,72,10996,1,0,0:0:0:0:
338,71,11075,1,2,0:0:0:0:
92,204,11391,2,0,P|144:212|212:264,1,140
244,280,11785,1,0,0:0:0:0:
276,280,11864,1,0,0:0:0:0:
304,260,11943,1,0,0:0:0:0:
332,240,12022,2,0,P|352:204|360:168,1,70,0|2,0:0|0:0,0:0:0:0:
284,144,12443,2,2,P|260:88|284:24,2,105,0|2|0,0:0|0:0|0:0,0:0:0:0:
88,96,13285,53,2,0:0:0:0:
140,228,13758,2,0,P|168:240|188:268,2,35,0|0|2,0:0|0:0|0:0,0:0:0:0:
248,72,15179,6,0,L|232:132|232:132,4,35,0|0|0|0|0,0:0|0:0|0:0|0:0|0:0,0:0:0:0:
336,128,15573,2,0,L|348:168|348:168,3,35,0|0|0|4,0:0|0:0|0:0|0:0,0:0:0:0:
168,204,16283,2,4,P|256:228|360:304,1,210
84,336,17073,1,4,0:0:0:0:
376,88,20229,53,0,0:0:0:0:
376,88,20387,1,2,0:0:0:0:
196,120,20624,1,0,0:0:0:0:
320,256,20781,1,0,0:0:0:0:
324,272,20860,1,0,0:0:0:0:
124,236,21334,6,0,L|164:236|164:236,2,35,0|0|2,0:0|0:0|0:0,0:0:0:0:
164,132,21807,2,0,L|192:96|192:96,2,35,0|0|0,0:0|0:0|0:0,0:0:0:0:
256,136,22044,2,0,L|284:100|284:100,2,35,0|0|0,0:0|0:0|0:0,0:0:0:0:
384,132,22439,1,0,0:0:0:0:
440,240,22754,5,2,0:0:0:0:
424,280,22833,1,0,0:0:0:0:
392,304,22912,2,0,P|352:316|296:304,2,70,2|0|2,0:0|0:0|0:0,0:0:0:0:
288,104,23385,2,0,P|316:128|328:160,2,70,0|2|0,0:0|0:0|0:0,0:0:0:0:
152,272,23859,2,0,P|178:256|220:252,1,70,2|0,0:0|0:0,0:0:0:0:
180,164,24175,2,0,P|224:160|264:176,1,70,2|0,0:0|0:0,0:0:0:0:
284,76,24490,2,0,P|328:88|364:128,1,70,2|0,0:0|0:0,0:0:0:0:
68,56,24964,1,4,0:0:0:0:
424,112,25279,37,0,0:0:0:0:
396,136,25357,1,0,0:0:0:0:
380,176,25437,2,0,B|412:224|412:224|412:312,1,105.000004005432,2|8,0:0|0:0,0:0:0:0:
292,264,25753,2,2,B|260:216|260:216|260:128,1,105.000004005432,2|2,0:0|0:0,0:0:0:0:
288,100,26068,2,0,P|264:96|192:132,1,105.000004005432,2|8,0:0|0:0,0:0:0:0:
100,116,26384,1,2,0:0:0:0:
144,200,26542,1,0,0:0:0:0:
148,296,26700,1,2,0:0:0:0:
248,192,26858,2,0,P|264:244|256:304,1,105.000004005432,8|2,0:0|0:0,0:0:0:0:
340,160,27173,1,0,0:0:0:0:
344,240,27331,1,2,0:0:0:0:
392,300,27489,1,8,0:0:0:0:
440,212,27647,22,0,L|492:200|492:200,2,52.5000020027161,2|0|2,0:0|0:0|0:0,0:0:0:0:
432,56,27962,2,0,B|376:56|376:56|288:96,1,105.000004005432,0|8,0:0|0:0,0:0:0:0:
220,60,28278,2,0,B|236:112|220:172|220:172,1,105.000004005432,2|0,0:0|0:0,0:0:0:0:
400,172,28594,2,0,B|344:184|292:172,1,105.000004005432,2|8,0:0|0:0,0:0:0:0:
292,352,28909,2,2,B|268:300|292:236|292:236,1,105.000004005432
112,240,29225,2,0,B|168:216|240:240|240:240,1,105.000004005432,2|8,0:0|0:0,0:0:0:0:
432,240,29541,2,0,P|376:228|296:244,1,105.000004005432,2|0,0:0|0:0,0:0:0:0:
272,144,29856,2,0,B|256:104|288:104|252:80|288:80|264:36|264:36,1,105.000004005432,2|8,0:0|0:0,0:0:0:0:
376,48,30172,2,0,L|436:48|436:48,2,52.5000020027161,2|0|6,0:0|0:0|0:0,0:0:0:0:
408,156,30488,53,0,0:0:0:0:
388,216,30645,1,8,0:0:0:0:
352,260,30803,1,2,0:0:0:0:
288,276,30961,1,0,0:0:0:0:
240,184,31119,2,0,P|192:216|176:300,2,105.000004005432,2|8|2,0:0|0:0|0:0,0:0:0:0:
252,88,31592,2,0,P|316:132|336:188,2,105.000004005432,0|2|10,0:0|0:0|0:0,0:0:0:0:
456,160,32066,2,0,L|456:52|456:52,1,105.000004005432,0|2,0:0|0:0,0:0:0:0:
272,232,32381,2,0,L|272:344|272:344,1,105.000004005432,0|10,0:0|0:0,0:0:0:0:
432,296,32697,1,2,0:0:0:0:
412,268,32776,53,0,0:0:0:0:
392,232,32855,1,2,0:0:0:0:
216,56,33013,2,0,B|204:112|204:112|160:136|160:136,1,105.000004005432,0|10,0:0|0:0,0:0:0:0:
296,56,33328,2,0,B|308:112|308:112|352:136|352:136,1,105.000004005432,0|2,0:0|0:0,0:0:0:0:
216,328,33644,2,0,B|204:272|204:272|160:248|160:248,1,105.000004005432,0|10,0:0|0:0,0:0:0:0:
296,328,33960,2,0,B|308:272|308:272|352:248|352:248,1,105.000004005432,0|2,0:0|0:0,0:0:0:0:
392,232,34196,21,0,0:0:0:0:
418,209,34274,1,2,0:0:0:0:
436,179,34353,1,0,0:0:0:0:
443,145,34432,37,2,0:0:0:0:
439,110,34511,1,0,0:0:0:0:
425,78,34590,1,2,0:0:0:0:
401,53,34669,1,0,0:0:0:0:
370,37,34748,1,2,0:0:0:0:
332,40,34828,2,0,L|332:108|332:108,3,35,0|2|0|2,0:0|0:0|0:0|0:0,0:0:0:0:
108,64,35380,22,0,P|144:112|144:160,1,105.000004005432,4|2,0:0|0:0,0:0:0:0:
132,184,35617,1,2,0:0:0:0:
96,208,35696,1,10,0:0:0:0:
148,304,35854,2,0,P|192:256|244:240,1,105.000004005432,0|2,0:0|0:0,0:0:0:0:
296,180,36169,2,0,B|320:216|320:216|320:284,1,105.000004005432,0|10,0:0|0:0,0:0:0:0:
400,236,36485,2,0,L|400:348|400:348,1,105.000004005432,8|2,0:0|0:0,0:0:0:0:
480,268,36801,2,0,B|480:208|480:208|424:132,1,105.000004005432,0|10,0:0|0:0,0:0:0:0:
420,64,37116,2,0,P|368:92|280:88,2,105.000004005432,2|0|2,0:0|0:0|0:0,0:0:0:0:
208,40,37590,1,4,0:0:0:0:
100,136,37905,53,4,0:0:0:0:
200,228,38063,1,2,0:0:0:0:
200,228,38142,1,2,0:0:0:0:
200,228,38221,2,0,B|272:228|272:228|312:256,1,105.000004005432,10|0,0:0|0:0,0:0:0:0:
248,308,38537,2,0,B|288:328|288:328|368:328,1,105.000004005432,2|0,0:0|0:0,0:0:0:0:
420,184,38852,2,0,P|452:220|448:300,1,105.000004005432,10|0,0:0|0:0,0:0:0:0:
352,320,39168,2,0,P|312:280|312:204,1,105.000004005432,2|0,0:0|0:0,0:0:0:0:
84,72,39484,2,0,P|136:100|172:136,1,105.000004005432,10|8,0:0|0:0,0:0:0:0:
416,80,39799,2,2,P|344:120|324:144,1,105.000004005432
256,268,40115,1,4,0:0:0:0:
152,252,40430,54,0,P|128:204|128:144,1,105.000004005432,4|2,0:0|0:0,0:0:0:0:
126,153,40667,1,2,0:0:0:0:
126,153,40746,1,10,0:0:0:0:
256,48,40904,2,0,L|256:160|256:160,1,105.000004005432,0|2,0:0|0:0,0:0:0:0:
256,336,41220,2,0,L|256:220|256:220,1,105.000004005432,0|10,0:0|0:0,0:0:0:0:
396,192,41535,2,0,L|287:191|287:191,1,105.000004005432,8|2,0:0|0:0,0:0:0:0:
112,194,41851,2,0,L|228:192|228:192,1,105.000004005432,0|10,0:0|0:0,0:0:0:0:
220,280,42167,2,0,P|276:284|336:332,1,105.000004005432,2|2,0:0|0:0,0:0:0:0:
396,192,42482,1,2,0:0:0:0:
288,172,42640,6,0,L|232:172|232:172,2,52.5000020027161,4|0|0,0:0|0:0|0:0,0:0:0:0:
80,48,42956,6,0,P|100:104|92:156,1,105.000004005432,4|2,0:0|0:0,0:0:0:0:
80,180,43192,1,2,0:0:0:0:
40,192,43271,1,10,0:0:0:0:
92,292,43429,2,0,P|136:256|184:232,1,105.000004005432,0|0,0:0|0:0,0:0:0:0:
304,264,43745,2,0,P|252:304|204:328,1,105.000004005432,2|8,0:0|0:0,0:0:0:0:
244,196,44060,2,0,P|292:164|368:140,1,105.000004005432,2|0,0:0|0:0,0:0:0:0:
448,104,44376,1,10,0:0:0:0:
424,176,44534,1,10,0:0:0:0:
444,248,44692,1,0,0:0:0:0:
328,84,44850,2,4,P|300:184|356:292,1,210.000008010865,4|4,0:0|0:0,0:0:0:0:
72,64,45481,5,4,0:0:0:0:
184,172,45796,2,0,L|124:212|124:212,2,70,2|2|2,0:0|0:0|0:0,0:0:0:0:
236,252,46428,2,0,B|245:236|245:236|233:235|233:235|277:230|261:117,1,140,0|4,0:0|0:0,0:0:0:0:
376,96,47059,1,2,0:0:0:0:
389,128,47137,1,2,0:0:0:0:
396,162,47216,1,2,0:0:0:0:
397,197,47295,1,2,0:0:0:0:
392,232,47374,1,2,0:0:0:0:
272,112,47690,2,2,P|280:180|256:264,1,140,2|8,0:0|0:0,0:0:0:0:
184,264,48164,2,0,P|156:300|112:320,1,70
144,200,48480,2,0,B|168:172|168:172|180:120,1,70,0|8,0:0|0:0,0:0:0:0:
312,188,48953,37,0,0:0:0:0:
348,188,49111,1,0,0:0:0:0:
416,124,49269,2,0,P|432:184|412:276,1,140,4|0,0:0|0:0,0:0:0:0:
344,260,49742,2,0,P|324:296|296:320,1,70,0|6,0:0|0:0,0:0:0:0:
144,60,50531,54,0,P|200:92|232:184,1,140,4|0,0:0|0:0,0:0:0:0:
232,192,51005,1,2,0:0:0:0:
204,228,51163,2,0,P|160:248|60:216,1,140,2|4,0:0|0:0,0:0:0:0:
60,120,51794,1,6,0:0:0:0:
104,232,52109,1,0,0:0:0:0:
127,206,52187,1,0,0:0:0:0:
149,178,52266,1,0,0:0:0:0:
167,148,52345,1,0,0:0:0:0:
181,116,52424,1,4,0:0:0:0:
328,84,52741,38,0,P|348:144|336:220,1,140,0|12,0:0|0:0,0:0:0:0:
392,304,53214,2,0,P|348:308|308:284,1,70,8|0,0:0|0:0,0:0:0:0:
260,248,53530,2,0,P|216:240|188:252,1,70,0|12,0:0|0:0,0:0:0:0:
148,144,54003,21,0,0:0:0:0:
120,172,54161,1,0,0:0:0:0:
116,216,54319,1,4,0:0:0:0:
132,256,54477,1,0,0:0:0:0:
168,280,54635,1,0,0:0:0:0:
200,284,54792,1,0,0:0:0:0:
240,272,54950,1,4,0:0:0:0:
216,188,55266,22,0,B|244:148|260:180|272:136|288:168|304:132|340:112,1,140,8|6,0:0|0:0,0:0:0:0:
364,36,55739,1,0,0:0:0:0:
412,88,55897,1,0,0:0:0:0:
416,160,56055,2,0,L|416:248|416:248,1,70,0|6,0:0|0:0,0:0:0:0:
340,204,56371,2,0,B|340:296|340:296|340:296,1,70,0|0,0:0|0:0,0:0:0:0:
264,252,56686,2,0,L|264:328|264:328,2,70,0|6|0,0:0|0:0|0:0,0:0:0:0:
248,168,57160,1,0,0:0:0:0:
200,128,57318,1,0,0:0:0:0:
132,128,57475,1,4,0:0:0:0:
76,160,57791,1,4,0:0:0:0:
400,80,58107,6,0,P|380:148|388:228,1,140,6|0,0:0|0:0,0:0:0:0:
396,248,58580,1,0,0:0:0:0:
424,276,58738,1,6,0:0:0:0:
308,308,58896,2,0,P|264:320|228:320,2,70
308,212,59369,1,6,0:0:0:0:
204,208,59527,2,0,P|180:248|136:268,2,70
72,212,60001,2,0,P|140:144|140:72,1,140
440,64,60632,38,0,P|424:140|444:232,1,140,6|0,0:0|0:0,0:0:0:0:
424,280,61105,2,0,P|384:280|344:312,2,70,0|6|0,0:0|0:0|0:0,0:0:0:0:
292,256,61579,1,0,0:0:0:0:
264,224,61737,1,0,0:0:0:0:
256,172,61895,1,6,0:0:0:0:
268,120,62052,1,0,0:0:0:0:
300,80,62210,1,0,0:0:0:0:
344,72,62368,1,0,0:0:0:0:
392,76,62526,2,4,P|472:136|472:200,2,140,0|0|6,0:0|0:0|0:0,0:0:0:0:
344,72,63315,5,0,0:0:0:0:
300,80,63473,1,0,0:0:0:0:
268,120,63631,1,0,0:0:0:0:
252,168,63788,1,6,0:0:0:0:
264,224,63946,1,0,0:0:0:0:
292,256,64104,1,0,0:0:0:0:
358,294,64262,2,0,P|384:280|424:280,2,70,0|6|0,0:0|0:0|0:0,0:0:0:0:
440,204,64735,2,0,P|424:160|424:120,1,70
257,69,65051,2,4,P|328:76|392:52,1,140,4|6,0:0|0:0,0:0:0:0:
436,40,65525,1,0,0:0:0:0:
452,80,65682,1,0,0:0:0:0:
72,48,85884,38,0,P|76:112|136:180,1,140,2|0,0:0|0:0,0:0:0:0:
72,48,86357,1,0,0:0:0:0:
184,116,86515,2,0,B|216:152|216:152|216:244,1,140,2|0,0:0|0:0,0:0:0:0:
328,184,87146,2,0,B|296:216|296:216|296:312|296:312,1,140
456,64,87778,1,2,0:0:0:0:
244,56,88409,54,0,P|232:120|188:188,1,140,2|0,0:0|0:0,0:0:0:0:
164,204,88882,1,0,0:0:0:0:
148,240,89040,1,2,0:0:0:0:
368,248,89356,2,0,B|328:248|328:248|284:268,2,70,0|2|0,0:0|0:0|0:0,0:0:0:0:
416,52,89987,2,0,P|392:96|424:192,1,140,0|2,0:0|0:0,0:0:0:0:
328,172,90619,2,0,P|288:216|304:296,1,140,0|2,0:0|0:0,0:0:0:0:
360,244,91250,2,0,L|192:216,1,140,0|2,0:0|0:0,0:0:0:0:
164,72,91881,5,0,0:0:0:0:
136,112,92039,1,0,0:0:0:0:
128,168,92197,1,0,0:0:0:0:
144,216,92355,1,0,0:0:0:0:
184,236,92512,2,0,L|232:236|232:236,4,35
292,40,93459,6,0,P|276:104|296:184,1,140,2|0,0:0|0:0,0:0:0:0:
192,176,94091,2,0,P|208:244|180:328,1,140,2|0,0:0|0:0,0:0:0:0:
296,56,94722,2,0,P|252:104|251:182,1,140,2|0,0:0|0:0,0:0:0:0:
172,236,95195,2,0,P|204:252|264:240,1,70,0|2,0:0|0:0,0:0:0:0:
372,244,95511,2,0,P|344:224|304:224,1,70,0|2,0:0|0:0,0:0:0:0:
428,28,95985,1,0,0:0:0:0:
348,32,96300,38,0,L|348:172|348:172,1,140,0|2,0:0|0:0,0:0:0:0:
268,108,96932,2,0,B|268:208|268:208|304:232|304:232,1,140,0|2,0:0|0:0,0:0:0:0:
432,160,97563,1,2,0:0:0:0:
432,200,97878,1,0,0:0:0:0:
320,248,98510,2,0,P|252:232|164:252,1,140
252,128,99141,1,0,0:0:0:0:
380,128,99457,2,0,L|456:128|456:128,2,70,0|2|2,0:0|0:0|0:0,0:0:0:0:
432,216,100088,2,0,B|404:308|404:308|352:308|352:308,1,140,0|2,0:0|0:0,0:0:0:0:
280,204,100719,1,0,0:0:0:0:
240,132,101035,2,0,P|204:176|216:260,1,140,2|0,0:0|0:0,0:0:0:0:
280,204,101666,1,0,0:0:0:0:
388,112,101982,5,0,0:0:0:0:
420,160,102140,1,0,0:0:0:0:
412,216,102298,1,0,0:0:0:0:
384,264,102455,1,0,0:0:0:0:
332,272,102613,2,0,L|268:272|268:272,4,35
152,156,104349,53,0,0:0:0:0:
196,132,104428,1,0,0:0:0:0:
252,136,104507,1,2,0:0:0:0:
184,332,104823,2,0,P|260:328|324:292,1,140,0|2,0:0|0:0,0:0:0:0:
344,276,105217,1,0,0:0:0:0:
368,240,105296,1,0,0:0:0:0:
380,196,105375,1,0,0:0:0:0:
372,144,105454,2,0,P|356:100|324:68,1,70,0|2,0:0|0:0,0:0:0:0:
96,48,106085,38,0,P|80:104|88:164,1,105.000004005432,6|0,0:0|0:0,0:0:0:0:
100,184,106322,1,0,0:0:0:0:
140,204,106400,1,8,0:0:0:0:
196,132,106559,2,8,B|240:160|240:160|240:256,1,105.000004005432,0|2,0:0|0:0,0:0:0:0:
204,288,106874,2,0,B|276:288|276:288|308:256|308:256,1,105.000004005432,0|8,0:0|0:0,0:0:0:0:
316,192,107190,2,0,B|376:192|376:192|432:248|432:248,1,105.000004005432,8|2,0:0|0:0,0:0:0:0:
444,120,107506,37,0,0:0:0:0:
444,120,107585,1,0,0:0:0:0:
444,120,107664,2,0,P|376:84|344:84,2,105.000004005432,8|0|2,0:0|0:0|0:0,0:0:0:0:
448,220,108137,2,0,P|448:280|416:320,1,105.000004005432,2|2,0:0|0:0,0:0:0:0:
292,172,108611,22,0,P|296:240|248:296,1,105.000004005432,4|0,0:0|0:0,0:0:0:0:
248,292,108847,1,0,0:0:0:0:
196,296,108926,1,8,0:0:0:0:
60,288,109084,2,0,P|116:236|128:192,1,105.000004005432
76,88,109400,2,0,P|48:164|52:184,2,105.000004005432,0|8|8,0:0|0:0|0:0,0:0:0:0:
152,152,109873,1,0,0:0:0:0:
256,80,110031,1,0,0:0:0:0:
264,96,110110,1,0,0:0:0:0:
272,108,110189,1,8,0:0:0:0:
368,168,110347,2,0,P|288:196|256:240,1,105.000004005432
364,280,110820,37,4,0:0:0:0:
216,300,111136,2,0,P|144:308|80:260,1,105.000004005432
88,276,111372,1,0,0:0:0:0:
80,232,111451,1,8,0:0:0:0:
184,120,111609,2,0,B|184:184|184:184|156:240,1,105.000004005432,0|0,0:0|0:0,0:0:0:0:
284,220,111925,1,0,0:0:0:0:
320,144,112083,1,8,0:0:0:0:
280,72,112240,1,0,0:0:0:0:
460,76,112398,2,0,L|404:164,1,105.000004005432,0|0,0:0|0:0,0:0:0:0:
424,248,112714,1,8,0:0:0:0:
388,288,112872,1,0,0:0:0:0:
344,308,113030,1,0,0:0:0:0:
264,304,113187,22,0,P|204:288|144:232,1,105.000004005432,0|4,0:0|0:0,0:0:0:0:
84,72,113661,1,4,0:0:0:0:
172,120,113820,1,0,0:0:0:0:
221,135,113898,1,0,0:0:0:0:
272,127,113977,1,8,0:0:0:0:
308,36,114134,2,0,B|276:68|276:68|276:144|276:144,1,105.000004005432,0|0,0:0|0:0,0:0:0:0:
180,172,114450,2,0,B|212:204|212:204|288:204|288:204,1,105.000004005432,0|8,0:0|0:0,0:0:0:0:
308,296,114766,2,0,B|340:264|340:264|340:188|340:188,1,105.000004005432,8|0,0:0|0:0,0:0:0:0:
440,160,115081,2,0,B|408:128|408:128|332:128|332:128,2,105.000004005432,0|8|0,0:0|0:0|0:0,0:0:0:0:
416,296,115555,1,0,0:0:0:0:
128,296,115870,53,0,0:0:0:0:
108,112,116186,2,0,P|192:88|248:92,2,105.000004005432,0|8|0,0:0|0:0|0:0,0:0:0:0:
404,112,116660,2,0,P|320:88|264:92,1,105.000004005432,8|0,0:0|0:0,0:0:0:0:
120,216,116975,2,0,P|188:200|240:196,1,105.000004005432,8|0,0:0|0:0,0:0:0:0:
392,216,117291,2,0,P|324:200|272:196,1,105.000004005432,8|0,0:0|0:0,0:0:0:0:
160,64,117606,1,8,0:0:0:0:
228,52,117764,1,0,0:0:0:0:
296,60,117922,1,8,0:0:0:0:
400,132,118080,2,0,L|400:24|400:24,1,105.000004005432,8|8,0:0|0:0,0:0:0:0:
459,239,118396,5,0,0:0:0:0:
459,239,118474,1,0,0:0:0:0:
459,239,118553,1,8,0:0:0:0:
352,320,118711,2,0,P|300:288|280:232,1,105.000004005432,0|8,0:0|0:0,0:0:0:0:
232,188,119027,2,0,B|208:220|208:220|208:312,1,105.000004005432,0|8,0:0|0:0,0:0:0:0:
108,332,119343,2,0,B|132:300|132:300|132:208,1,105.000004005432,0|8,0:0|0:0,0:0:0:0:
144,160,119658,2,0,B|92:160|92:160|48:224,2,105.000004005432,0|8|0,0:0|0:0|0:0,0:0:0:0:
236,104,120132,1,8,0:0:0:0:
268,156,120289,1,0,0:0:0:0:
328,168,120447,1,8,0:0:0:0:
312,88,120605,2,0,P|384:104|384:228,1,210.000008010865,8|0,0:0|0:0,0:0:0:0:
96,64,121236,38,0,L|96:172|96:172,1,105.000004005432,0|0,0:0|0:0,0:0:0:0:
176,120,121552,2,0,B|176:192|176:192|152:232,1,105.000004005432
228,340,121868,2,0,B|228:268|228:268|248:232|248:232,1,105.000004005432
244,239,122104,1,0,0:0:0:0:
244,239,122183,1,0,0:0:0:0:
340,172,122341,2,0,P|360:224|336:288,2,105.000004005432
348,108,122736,1,0,0:0:0:0:
308,80,122815,2,0,B|272:116|272:116|200:116|200:116,1,105.000004005432
84,92,123130,2,0,L|84:144,2,52.5000020027161
88,236,123446,2,0,B|156:236|156:236|184:208|184:208,1,105.000004005432,0|0,0:0|0:0,0:0:0:0:
308,172,123762,2,0,B|280:200|280:200|280:272|280:272,1,105.000004005432
376,248,124077,2,0,B|412:212|412:212|412:136|412:136,1,105.000004005432
356,56,124393,1,0,0:0:0:0:
264,80,124551,2,0,L|264:24|264:24,2,52.5000020027161
184,128,124866,5,0,0:0:0:0:
104,104,125024,2,0,B|104:168|104:168|136:216|136:216,1,105.000004005432
296,208,125340,2,0,B|296:272|296:272|264:320|264:320,2,105.000004005432
104,104,125971,1,0,0:0:0:0:
