osu file format v9

[General]
AudioFilename: 04. Sonitus Vir - Leave It.mp3
AudioLeadIn: 0
PreviewTime: 18255
Countdown: 0
SampleSet: Soft
StackLeniency: 0.7
Mode: 0
LetterboxInBreaks: 1

[Editor]
Bookmarks: 18255,119684
DistanceSpacing: 0.9
BeatDivisor: 4
GridSize: 4

[Metadata]
Title:Leave It
Artist:Sonitus Vir
Creator:Blue Dragon
Version:Relaxing
Source:
Tags:renard lapfox mnemonic [luanny_phnyx] luanny phnyx niva nivalis

[Difficulty]
HPDrainRate:2
CircleSize:3
OverallDifficulty:1
ApproachRate:2
SliderMultiplier:1
SliderTickRate:2

[Events]
//Background and Video events
0,0,"sleepless_nights-1024x768.jpg"
//Break Periods
//Storyboard Layer 0 (Background)
//Storyboard Layer 1 (Fail)
//Storyboard Layer 2 (Pass)
//Storyboard Layer 3 (Foreground)
//Storyboard Sound Samples
//Background Colour Transformations
3,100,163,162,255

[TimingPoints]
25,571.428571428571,4,2,0,60,1,0
128024,-100,4,2,0,50,0,0
137024,-100,4,2,0,5,0,0

[Colours]
Combo1 : 141,177,243
Combo2 : 128,255,255
Combo3 : 49,26,255
Combo4 : 0,128,192

[HitObjects]
206,48,18310,2,0,B|306:48,1,99.9999999999999,2|8
376,108,19453,1,2
344,192,20024,1,8
256,212,20596,6,0,B|242:260|268:260|256:309,2,99.9999999999999,2|8|2
168,192,22310,2,0,B|108:192,2,50,8|0|2
213,114,23453,2,0,B|234:86|278:86|299:114,2,99.9999999999999,8|2|8
132,72,25167,6,0,B|160:28|212:12,1,99.9999999999999,2|8
302,12,26310,2,0,B|352:28|380:72,1,99.9999999999999,2|8
424,168,27453,5,4
420,268,28024,2,8,B|312:268,1,99.9999999999999,8|2
256,332,29167,2,0,B|224:284,2,50,8|0|2
320,268,30310,1,8
292,184,30882,2,0,B|297:148|265:117|231:122,1,99.9999999999999,2|8
208,208,32024,5,4
124,236,32596,2,8,B|20:236,1,99.9999999999999,8|2
24,148,33739,2,8,B|124:148,1,99.9999999999999,8|2
160,65,34882,2,8,B|256:12|351:65,1,200,8|8
364,156,36596,5,4
348,244,37167,2,8,B|288:244,1,50,8|2
232,124,38310,1,8
148,156,38882,5,4
164,244,39453,2,8,B|224:244,1,50,8|2
280,124,40596,1,8
303,37,41167,6,8,B|255:9|208:37,1,99.9999999999999,2|8
176,120,42310,2,0,B|148:116|136:92,2,50,2|0|8
208,204,43453,6,8,B|255:231|302:204,1,99.9999999999999,2|8
335,121,44596,2,0,B|363:125|375:149,2,50,2|0|8
335,30,45739,6,4,B|487:30,1,150,4|2
485,164,47453,1,8
421,227,48025,6,4,B|269:227,1,150,4|2
271,91,49739,1,8
188,60,50310,6,0,B|164:48|140:60,2,50,2|0|4
212,148,51453,1,0
300,148,52025,1,4
324,60,52596,6,0,B|396:23|468:60,1,150,2|2
468,192,54310,1,4
399,249,54882,6,0,B|326:285|326:212|252:249,1,150,2|2
124,232,56596,1,4
113,135,57167,6,0,B|185:98|185:171|259:135,1,150,2|2
388,152,58882,1,4
424,236,59453,6,0,B|432:292|376:332|324:308,1,150,2|2
220,224,61167,1,4
188,308,61739,6,0,B|136:332|80:292|88:236,1,150,2|2
87,102,63453,1,4
156,44,64025,6,0,B|312:44,1,150,2|2
369,107,65453,2,0,B|425:107,1,50,0|4
400,196,66310,6,0,B|244:196,1,150,2|2
187,133,67739,2,0,B|131:133,1,50,0|4
124,220,68596,5,2
124,312,69167,2,4,B|193:395|316:395|387:312,1,300,4|2
336,234,71453,2,0,B|298:303|213:303|175:234,1,200,8|4
204,148,73167,6,0,B|216:96|164:48|114:57,2,150,2|2|2
112,152,75453,1,2
168,224,76025,1,12
256,248,76596,1,0
344,224,77167,1,12
308,148,77739,6,0,B|296:96|348:48|398:57,2,150,2|2|2
400,152,80025,1,2
344,224,80596,1,12
256,248,81167,1,0
168,224,81739,1,12
124,148,82310,6,0,B|212:24,2,150,2|2|2
119,240,84596,2,0,B|164:273|210:240,1,99.9999999999999,2|12
299,239,85739,2,0,B|346:273|392:240,1,99.9999999999999,2|12
388,148,86882,6,0,B|300:24,2,150,2|2|2
392,240,89167,2,0,B|346:273|300:240,1,99.9999999999999,2|12
212,239,90310,2,0,B|165:273|120:240,1,99.9999999999999,2|12
40,288,91453,6,0,B|40:238,1,50,2|0
40,144,92310,2,0,B|40:94,1,50,2|0
116,48,93167,1,4
160,128,93739,2,0,B|208:148|256:128,1,99.9999999999999,2|12
300,48,94882,2,0,B|348:28|396:48,1,99.9999999999999,2|12
472,96,96025,6,0,B|472:146,1,50,2|0
472,240,96882,2,0,B|472:290,1,50,2|0
396,336,97739,1,12
352,256,98310,2,0,B|304:236|256:256,1,99.9999999999999,2|12
212,336,99453,2,0,B|164:356|116:336,1,99.9999999999999,2|12
60,264,100596,6,0,B|96:228,1,50,2|0
31,164,101453,2,0,B|67:128,1,50,2|0
130,64,102310,1,12
200,124,102882,2,0,B|180:172|200:220,1,99.9999999999999,2|12
311,221,104025,2,0,B|332:172|312:124,1,99.9999999999999,2|12
416,156,105167,6,0,B|452:120,1,50,2|0
481,220,106025,2,0,B|445:256,1,50,2|0
382,320,106882,1,12
304,276,107453,2,0,B|256:256|208:276,1,99.9999999999999,2|12
208,364,108596,2,0,B|256:384|304:364,1,99.9999999999999,2|12
382,320,109739,5,2
440,252,110310,1,12
404,168,110882,2,0,B|416:112,2,50,2|0|12
320,196,112025,2,0,B|231:253|221:159|130:215,2,200,2|2|2
332,108,114882,5,12
256,60,115453,2,0,B|256:0,2,50,2|0|12
180,108,116596,1,2
256,160,117167,2,0,B|256:268,2,99.9999999999999,12|2|12
332,108,118882,5,2
416,80,119453,1,12
500,112,120025,2,0,B|500:168,2,50,2|0|12
416,80,121167,2,0,B|368:174|463:174|416:270,2,200,2|2|2
344,28,124025,5,12
300,108,124596,1,2
212,108,125167,1,12
168,28,125739,1,2
80,28,126310,6,0,B|56:80,1,50,0|2
122,137,127167,2,0,B|98:189,1,50,2|4
118,276,128025,6,0,B|154:324|225:333|238:267|273:267|286:333|362:324|393:276,1,300,2|0
389,185,130310,2,0,B|335:128|256:108|176:128|121:185,1,300,2|0
52,248,132596,6,0,B|36:304|80:340,2,99.9999999999999,2|0|2
32,160,134310,1,0
116,124,134882,2,0,B|132:68|88:32,2,99.9999999999999,2|0|2
172,192,136596,1,0
217,192,136882,6,0,B|233:188|233:188|249:192|249:192|265:188|265:188|281:192|281:192|297:188|297:188|313:192|313:192|329:188|329:188|345:192|345:192|361:188|361:188,1,150,2|0
