osu file format v9

[General]
AudioFilename: 04. Sonitus Vir - Leave It.mp3
AudioLeadIn: 0
PreviewTime: 18255
Countdown: 0
SampleSet: Normal
StackLeniency: 0.7
Mode: 1
LetterboxInBreaks: 0

[Editor]
DistanceSpacing: 0.8
BeatDivisor: 4
GridSize: 32

[Metadata]
Title:Leave It
Artist:Sonitus Vir
Creator:Blue Dragon
Version:PhNyx's Taiko Oni
Source:
Tags:renard lapfox mnemonic [luanny_phnyx] luanny phnyx niva nivalis

[Difficulty]
HPDrainRate:5
CircleSize:5
OverallDifficulty:5
ApproachRate:5
SliderMultiplier:1.6
SliderTickRate:1

[Events]
//Background and Video events
0,0,"Taiko_BG.png"
//Break Periods
//Storyboard Layer 0 (Background)
//Storyboard Layer 1 (Fail)
//Storyboard Layer 2 (Pass)
//Storyboard Layer 3 (Foreground)
//Storyboard Sound Samples
//Background Colour Transformations
3,100,163,162,255

[TimingPoints]
25,571.428571428571,4,1,0,70,1,0
91453,-100,4,1,0,70,0,1
109739,-100,4,1,0,70,0,0
127739,-111.111111111111,4,1,0,70,0,0
128024,-125,4,1,0,50,0,0

[Colours]
Combo1 : 0,0,255
Combo2 : 255,0,0

[HitObjects]
256,192,18310,1,4
256,192,18596,1,0
256,192,18882,1,8
256,192,19167,1,0
256,192,19310,1,8
256,192,19453,1,0
256,192,19596,1,8
256,192,19739,1,0
256,192,20024,1,8
256,192,20310,1,8
256,192,20596,1,12
256,192,20882,1,0
256,192,21167,1,12
256,192,21453,1,0
256,192,21596,1,8
256,192,21739,1,0
256,192,21882,1,8
256,192,22024,1,8
256,192,22167,1,0
256,192,22310,1,8
256,192,22453,1,8
256,192,22596,1,0
256,192,22739,1,8
256,192,22882,1,0
256,192,23167,1,0
256,192,23453,1,8
256,192,23739,1,0
256,192,24024,1,4
256,192,24310,1,0
256,192,24453,1,0
256,192,24596,1,8
256,192,24739,1,0
256,192,24882,1,8
256,192,25167,1,0
256,192,25453,1,0
256,192,25596,1,0
256,192,25739,1,8
256,192,26024,1,0
256,192,26167,1,0
256,192,26310,1,8
256,192,26453,1,0
256,192,26596,1,8
256,192,26739,1,0
256,192,26882,1,8
256,192,27024,1,0
256,192,27167,1,8
256,192,27310,1,8
256,192,27453,1,0
256,192,27739,1,0
256,192,28024,1,8
256,192,28310,1,0
256,192,28453,1,8
256,192,28596,1,0
256,192,28739,1,8
256,192,28882,1,0
256,192,29167,1,8
256,192,29453,1,0
256,192,29739,1,8
256,192,30024,1,0
256,192,30167,1,0
256,192,30310,1,8
256,192,30596,1,0
256,192,30739,1,8
256,192,30882,1,8
256,192,31024,1,8
256,192,31167,1,8
256,192,31310,1,0
256,192,31453,1,8
256,192,31596,1,0
256,192,31739,1,0
256,192,31882,1,8
256,192,32024,1,0
256,192,32310,1,0
256,192,32596,1,8
256,192,32882,1,8
256,192,33167,1,0
256,192,33453,1,0
256,192,33596,1,0
256,192,33739,1,8
256,192,34024,1,8
256,192,34310,1,0
256,192,34453,1,0
256,192,34739,1,0
256,192,34882,1,8
256,192,35167,1,0
256,192,35310,1,8
256,192,35453,1,0
256,192,35739,1,0
256,192,36024,1,8
256,192,36167,1,8
256,192,36310,1,8
256,192,36453,1,8
256,192,36596,1,0
256,192,36882,1,8
256,192,37024,1,8
256,192,37167,1,0
256,192,37453,1,8
256,192,37596,1,0
256,192,37882,1,8
256,192,38024,1,0
256,192,38310,1,8
256,192,38596,1,8
256,192,38882,1,0
256,192,39167,1,0
256,192,39310,1,0
256,192,39453,1,8
256,192,39739,1,0
256,192,39882,1,8
256,192,40024,1,0
256,192,40310,1,0
256,192,40596,1,8
256,192,40882,1,8
256,192,41167,1,4
256,192,41453,1,0
256,192,41739,1,8
256,192,42024,1,0
256,192,42167,1,8
256,192,42310,1,0
256,192,42453,1,0
256,192,42596,1,0
256,192,42739,1,0
256,192,42882,1,8
256,192,43024,1,0
256,192,43167,1,8
256,192,43453,1,4
256,192,43739,1,0
256,192,44025,1,0
256,192,44310,1,8
256,192,44596,1,8
256,192,44739,1,0
256,192,44882,1,0
256,192,45025,1,8
256,192,45167,1,8
256,192,45310,1,0
256,192,45453,1,0
256,192,45596,1,8
256,192,45739,1,0
256,192,46025,1,0
256,192,46310,1,8
256,192,46596,1,8
256,192,46882,1,0
256,192,47025,1,8
256,192,47167,1,0
256,192,47453,1,8
256,192,47596,1,8
256,192,47739,1,0
256,192,48025,1,0
256,192,48310,1,0
256,192,48596,1,8
256,192,48882,1,8
256,192,49167,1,0
256,192,49310,1,8
256,192,49453,1,0
256,192,49739,1,8
256,192,50025,1,8
256,192,50310,1,0
256,192,50596,1,0
256,192,50739,1,8
256,192,50882,1,0
256,192,51025,1,8
256,192,51167,1,8
256,192,51453,1,0
256,192,51739,1,0
256,192,51882,1,8
256,192,52024,1,8
256,192,52167,1,0
256,192,52310,1,8
256,192,52596,1,0
256,192,52882,1,8
256,192,53025,1,8
256,192,53167,1,8
256,192,53453,1,8
256,192,53596,1,0
256,192,53739,1,8
256,192,53882,1,0
256,192,54025,1,8
256,192,54167,1,8
256,192,54310,1,8
256,192,54453,1,0
256,192,54596,1,0
256,192,54739,1,8
256,192,54882,1,0
256,192,55167,1,0
256,192,55310,1,8
256,192,55596,1,8
256,192,55739,1,0
256,192,56025,1,0
256,192,56167,1,8
256,192,56310,1,0
256,192,56453,1,8
256,192,56596,1,8
256,192,56739,1,8
256,192,56882,1,0
256,192,57025,1,8
256,192,57167,1,0
256,192,57453,1,0
256,192,57596,1,8
256,192,57739,1,8
256,192,58025,1,0
256,192,58167,1,0
256,192,58310,1,8
256,192,58453,1,0
256,192,58596,1,8
256,192,58739,1,8
256,192,58882,1,8
256,192,59025,1,0
256,192,59167,1,0
256,192,59310,1,8
256,192,59453,1,0
256,192,59739,1,0
256,192,59882,1,0
256,192,60025,1,8
256,192,60167,1,0
256,192,60310,1,8
256,192,60596,1,0
256,192,60882,1,8
256,192,61025,1,8
256,192,61167,1,0
256,192,61310,1,8
256,192,61453,1,8
256,192,61739,1,0
256,192,62025,1,8
256,192,62167,1,8
256,192,62453,1,0
256,192,62596,1,8
256,192,62882,1,8
256,192,63167,1,0
256,192,63453,1,8
256,192,63596,1,0
256,192,63739,1,8
256,192,64025,1,12
256,192,64310,1,0
256,192,64596,1,8
256,192,64882,1,8
256,192,65453,1,0
256,192,65739,1,8
256,192,66025,1,0
256,192,66310,1,12
256,192,66596,1,0
256,192,66882,1,8
256,192,67167,1,8
256,192,67739,1,0
256,192,68025,1,8
256,192,68310,1,8
256,192,68596,1,4
256,192,68882,1,0
256,192,69167,1,8
256,192,69453,1,8
256,192,69596,1,8
256,192,69739,1,0
256,192,69882,1,8
256,192,70025,1,0
256,192,70310,1,8
256,192,70596,1,8
256,192,70882,1,0
256,192,71167,1,0
256,192,71453,1,8
256,192,71739,1,8
256,192,72310,1,0
256,192,72596,1,12
256,192,72882,1,12
256,192,73167,1,8
256,192,73453,1,0
256,192,73596,1,8
256,192,73739,1,8
256,192,74025,1,8
256,192,74310,1,0
256,192,74453,1,8
256,192,74596,1,8
256,192,74882,1,8
256,192,75167,1,8
256,192,75453,1,0
256,192,75739,1,0
256,192,76025,1,8
256,192,76310,1,8
256,192,76596,1,0
256,192,76882,1,0
256,192,77167,1,8
256,192,77310,1,8
256,192,77453,1,8
256,192,77739,1,0
256,192,78024,1,8
256,192,78167,1,8
256,192,78310,1,0
256,192,78596,1,8
256,192,78882,1,0
256,192,79024,1,8
256,192,79167,1,8
256,192,79310,1,8
256,192,79453,1,8
256,192,79739,1,0
256,192,80025,1,4
256,192,80310,1,0
256,192,80596,1,8
256,192,80882,1,8
256,192,81167,1,0
256,192,81310,1,0
256,192,81453,1,8
256,192,81596,1,8
256,192,81739,1,0
256,192,81882,1,0
256,192,82025,1,8
256,192,82167,1,8
256,192,82310,1,0
256,192,82596,1,8
256,192,82739,1,8
256,192,82882,1,0
256,192,83167,1,0
256,192,83453,1,8
256,192,83596,1,8
256,192,83739,1,0
256,192,84025,1,8
256,192,84310,1,8
256,192,84596,1,0
256,192,84882,1,0
256,192,85025,1,0
256,192,85167,1,8
256,192,85453,1,0
256,192,85739,1,8
256,192,85882,1,0
256,192,86025,1,0
256,192,86167,1,8
256,192,86310,1,8
256,192,86453,1,0
256,192,86596,1,8
256,192,86739,1,8
256,192,86882,1,0
256,192,87167,1,8
256,192,87453,1,8
256,192,87596,1,8
256,192,87739,1,8
256,192,88025,1,0
256,192,88310,1,8
256,192,88453,1,8
256,192,88596,1,8
256,192,88739,1,8
256,192,88882,1,0
256,192,89025,1,8
256,192,89167,1,0
256,192,89453,1,0
256,192,89739,1,8
256,192,89882,1,0
256,192,90025,1,8
256,192,90310,1,8
256,192,90596,1,0
256,192,90882,1,8
256,192,91167,1,0
256,192,91453,1,12
256,192,91739,1,8
256,192,92025,1,0
256,192,92310,1,8
256,192,92596,1,8
256,192,92882,1,0
256,192,93167,1,8
256,192,93739,1,0
256,192,94025,1,0
256,192,94167,1,0
256,192,94310,1,8
256,192,94453,1,8
256,192,94596,1,0
256,192,94882,1,0
256,192,95167,1,0
256,192,95310,1,8
256,192,95453,1,8
256,192,95596,1,0
256,192,95739,1,8
256,192,95882,1,8
256,192,96025,1,0
256,192,96310,1,0
256,192,96596,1,8
256,192,96882,1,0
256,192,97167,1,0
256,192,97453,1,8
256,192,97739,1,8
256,192,98025,1,8
256,192,98310,1,0
256,192,98453,1,8
256,192,98596,1,8
256,192,98882,1,8
256,192,99025,1,0
256,192,99167,1,8
256,192,99453,1,0
256,192,99739,1,0
256,192,100025,1,8
256,192,100167,1,0
256,192,100310,1,8
256,192,100596,1,8
256,192,100882,1,0
256,192,101167,1,0
256,192,101453,1,8
256,192,101596,1,8
256,192,101739,1,0
256,192,102025,1,0
256,192,102310,1,8
256,192,102596,1,0
256,192,102882,1,8
256,192,103025,1,8
256,192,103167,1,8
256,192,103453,1,8
256,192,103596,1,0
256,192,103739,1,8
256,192,104025,1,0
256,192,104310,1,0
256,192,104596,1,8
256,192,104739,1,8
256,192,104882,1,0
256,192,105025,1,8
256,192,105167,1,0
256,192,105453,1,8
256,192,105739,1,8
256,192,106025,1,0
256,192,106310,1,8
256,192,106596,1,8
256,192,106882,1,0
256,192,107167,1,8
256,192,107453,1,0
256,192,107739,1,0
256,192,108025,1,8
256,192,108310,1,0
256,192,108596,1,0
256,192,108739,1,0
256,192,108882,1,0
256,192,109025,1,8
256,192,109167,1,8
256,192,109310,1,0
256,192,109453,1,8
256,192,109596,1,8
256,192,109739,1,0
256,192,110025,1,0
256,192,110310,1,8
256,192,110596,1,8
256,192,110882,1,0
256,192,111167,1,8
256,192,111453,1,8
256,192,111739,1,0
256,192,112025,1,8
256,192,112310,1,0
256,192,112596,1,8
256,192,112882,1,8
256,192,113025,1,8
256,192,113167,1,8
256,192,113453,1,0
256,192,113739,1,8
256,192,114025,1,0
256,192,114310,1,4
256,192,114596,1,0
256,192,114882,1,8
256,192,115167,1,8
256,192,115453,1,0
256,192,115596,1,0
256,192,115739,1,8
256,192,115882,1,0
256,192,116025,1,0
256,192,116167,1,8
256,192,116310,1,0
256,192,116596,1,8
256,192,116882,1,0
256,192,117167,1,8
256,192,117453,1,8
256,192,117739,1,8
256,192,117882,1,0
256,192,118025,1,0
256,192,118310,1,8
256,192,118453,1,8
256,192,118596,1,8
256,192,118882,1,0
256,192,119167,1,0
256,192,119453,1,8
256,192,119739,1,0
256,192,120025,1,0
256,192,120310,1,8
256,192,120596,1,8
256,192,120882,1,0
256,192,121167,1,8
256,192,121453,1,0
256,192,121739,1,8
256,192,121882,1,8
256,192,122025,1,8
256,192,122310,1,8
256,192,122596,1,0
256,192,122882,1,8
256,192,123167,1,0
256,192,123453,1,0
256,192,123739,1,0
256,192,124025,1,8
256,192,124310,1,0
256,192,124596,1,8
256,192,124739,1,8
256,192,124882,1,8
256,192,125167,1,0
256,192,125453,1,8
256,192,125596,1,0
256,192,125739,1,8
256,192,126025,1,0
256,192,126310,1,0
256,192,126596,1,8
256,192,126739,1,8
256,192,126882,1,8
256,192,127167,1,0
256,192,127453,1,8
256,192,127739,1,8
256,192,128025,1,4
256,192,128310,1,0
256,192,128596,1,8
256,192,128882,1,8
256,192,129167,1,0
256,192,129453,1,8
256,192,129739,1,0
256,192,130025,1,8
256,192,130310,1,8
256,192,130596,1,0
256,192,130882,1,8
256,192,131167,1,8
256,192,131453,1,8
256,192,131739,1,0
256,192,132025,1,8
256,192,132310,1,0
256,192,132596,1,4
256,192,132882,1,8
256,192,133167,1,0
256,192,133453,1,0
256,192,133739,1,8
256,192,134025,1,0
256,192,134310,1,8
256,192,134596,1,8
256,192,134882,1,8
256,192,135167,1,0
256,192,135453,1,0
256,192,135739,1,8
256,192,136025,1,0
256,192,136310,1,8
256,192,136596,1,8
256,192,136882,1,12
256,192,137167,12,0,139453
