osu file format v9

[General]
AudioFilename: 04. Sonitus Vir - Leave It.mp3
AudioLeadIn: 0
PreviewTime: 18255
Countdown: 0
SampleSet: Soft
StackLeniency: 0.7
Mode: 0
LetterboxInBreaks: 1

[Editor]
Bookmarks: 18255
DistanceSpacing: 0.9
BeatDivisor: 4
GridSize: 4

[Metadata]
Title:Leave It
Artist:Sonitus Vir
Creator:Blue Dragon
Version:Difficult
Source:
Tags:renard lapfox mnemonic [luanny_phnyx] luanny phnyx niva nivalis

[Difficulty]
HPDrainRate:5
CircleSize:4
OverallDifficulty:6
ApproachRate:7
SliderMultiplier:1.8
SliderTickRate:2

[Events]
//Background and Video events
0,0,"sleepless_nights-1024x768.jpg"
//Break Periods
//Storyboard Layer 0 (Background)
//Storyboard Layer 1 (Fail)
//Storyboard Layer 2 (Pass)
//Storyboard Layer 3 (Foreground)
//Storyboard Sound Samples
//Background Colour Transformations
3,100,163,162,255

[TimingPoints]
25,571.428571428571,4,2,0,60,1,0
128024,-100,4,2,0,50,0,0
137024,-100,4,2,0,5,0,0

[Colours]
Combo1 : 141,177,243
Combo2 : 128,255,255
Combo3 : 49,26,255
Combo4 : 0,128,192

[HitObjects]
216,259,18310,2,4,B|236:284|276:284|295:259,1,90,4|0
352,201,18882,2,8,B|352:109,1,90,8|0
339,98,19310,1,0
326,85,19453,2,0,B|238:85,1,90,2|0
156,100,20024,1,8
108,164,20310,1,0
160,224,20596,6,4,B|156:255|184:284|215:279,1,90,2|0
296,279,21167,2,4,B|327:284|355:255|352:224,1,90,8|0
296,164,21739,1,2
256,92,22024,1,0
256,92,22310,1,8
216,164,22596,1,0
136,148,22882,6,4,B|104:203|134:277|195:294,1,180,4|8
216,372,23739,2,4,B|235:347|274:347|294:372,1,90,0|2
316,294,24310,1,0
316,294,24596,2,0,B|377:277|407:203|376:148,2,180,8|2|8
296,216,26024,1,0
301,135,26310,2,0,B|213:135,1,90,2|0
216,216,26882,1,8
256,288,27167,1,0
200,348,27453,6,0,B|114:390|114:305|29:348,1,180,4|8
12,268,28310,1,0
16,252,28453,1,0
20,236,28596,2,0,B|68:232|96:192,1,90,2|0
124,116,29167,1,8
72,52,29453,1,0
44,132,29739,6,0,B|60:192|134:222|190:191,1,180,4|8
256,148,30596,2,0,B|256:56,2,90,0|2|0
256,228,31453,1,8
256,308,31739,1,0
328,268,32024,6,0,B|383:236|457:266|474:327,2,180,2|8|2
372,336,33453,1,0
301,376,33739,2,0,B|213:376,1,90,8|0
256,296,34310,2,0,B|213:210|298:210|256:125,1,180,4|8
304,60,35167,2,0,B|329:97,2,45,0|0|2
183,97,35739,2,0,B|208:60,2,45,0|0|8
108,124,36310,1,0
80,200,36596,5,2
100,280,36882,1,0
176,312,37167,1,8
256,300,37453,2,4,B|436:300,1,180,2|0
493,242,38310,1,8
468,164,38596,6,0,B|484:112,2,45,0|0|2
388,172,39167,1,0
316,136,39453,1,8
272,68,39739,2,0,B|92:68,1,180,2|0
40,132,40596,1,8
72,204,40882,6,0,B|72:248,2,45,0|0|2
152,188,41453,1,0
224,224,41739,1,8
256,300,42024,2,0,B|317:282|348:209|317:154,1,180,2|0
375,97,42882,2,8,B|459:65,1,90,8|0
500,136,43453,5,2
436,188,43739,1,0
412,264,44025,1,8
424,344,44310,2,0,B|340:376|340:376|256:344,1,180,2|0
256,264,45167,2,0,B|256:172,1,90,8|0
296,104,45739,6,4,B|277:79|237:79|217:104,1,90,2|0
176,172,46310,1,8
140,100,46596,2,0,B|148:40|212:0|276:8,1,180,2|0
348,44,47453,1,8
380,120,47739,1,0
340,188,48025,6,4,B|359:212|398:212|418:188,1,90,2|0
460,120,48596,1,8
496,192,48882,2,0,B|488:252|424:292|360:284,1,180,2|0
288,248,49739,1,8
256,172,50025,1,0
256,92,50310,6,0,B|256:4,1,90,2|0
172,12,50882,2,4,B|222:50|289:50|339:12,2,180,4|2|4
256,292,52596,6,0,B|256:380,1,90,2|0
339,370,53167,1,8
339,371,53453,2,4,B|289:333|222:333|172:371,1,180,4|2
112,316,54310,1,8
32,172,54882,6,0,B|32:80,2,90,2|0|8
112,192,55739,2,0,B|198:235|198:150|283:192,1,180,2|0
360,212,56596,1,8
416,152,56882,1,0
472,212,57167,6,0,B|472:304,2,90,2|0|8
416,152,58025,2,0,B|330:109|330:194|245:152,1,180,2|0
164,152,58882,1,8
140,232,59167,1,0
145,246,59310,1,0
151,260,59453,6,0,B|151:292|175:316|207:316,1,90,2|0
256,252,60025,1,8
303,316,60310,2,0,B|389:359|389:274|474:316,1,180,2|0
432,384,61167,1,8
512,248,61453,5,0
504,232,61596,1,0
498,216,61739,2,0,B|498:183|473:159|441:159,1,90,2|0
360,176,62310,1,8
342,96,62596,2,0,B|256:53|256:138|171:96,1,180,2|0
216,28,63453,1,8
38,220,64025,6,0,B|24:249|38:280|67:293,1,90,2|0
144,256,64596,1,8
216,296,64882,2,0,B|396:336,1,180,2|0
408,332,65596,1,0
424,328,65739,1,8
468,260,66025,1,0
428,192,66310,6,0,B|440:162|427:131|398:118,1,90,2|0
324,156,66882,1,8
252,116,67167,2,0,B|72:76,1,180,2|0
60,80,67882,1,0
44,84,68025,1,8
0,152,68310,1,0
72,192,68596,6,0,B|160:192,1,90,2|0
231,228,69167,2,0,B|257:287|230:351|170:376,2,180,4|2|4
440,192,70882,6,0,B|352:192,1,90,2|0
284,236,71453,1,8
280,156,71739,2,0,B|254:96|280:32|340:7,1,180,4|2
398,64,72596,1,4
412,224,73167,6,0,B|412:288|363:337|298:337,1,180,2|0
214,337,74025,2,0,B|148:337|100:288|100:224,1,180,2|0
170,183,74882,2,0,B|260:148|251:233|340:200,1,180,2|2
340,119,75739,1,0
340,38,76025,1,12
172,184,76596,5,2
172,265,76882,1,0
172,346,77167,1,12
100,160,77739,6,0,B|100:96|149:47|214:47,1,180,2|0
298,47,78596,2,0,B|364:47|412:96|412:160,1,180,2|0
342,201,79453,2,0,B|251:235|260:150|171:183,1,180,2|2
172,265,80310,1,0
172,346,80596,1,12
340,200,81167,5,2
340,119,81453,1,0
340,38,81739,1,12
107,37,82310,6,0,B|73:127|157:118|124:208,1,180,2|0
51,175,83167,2,0,B|17:266|101:257|68:346,1,180,2|0
150,347,84025,1,2
304,292,84596,5,2
304,210,84882,1,0
376,248,85167,1,12
208,92,85739,5,2
208,174,86025,1,0
136,136,86310,1,12
404,37,86882,6,0,B|438:127|354:118|387:208,1,180,2|0
460,175,87739,2,0,B|494:266|410:257|443:346,1,180,2|0
362,347,88596,1,2
208,292,89167,5,2
208,210,89453,1,0
136,248,89739,1,12
304,92,90310,5,2
304,174,90596,1,0
376,136,90882,1,12
212,136,91453,6,0,B|120:136,2,90,2|0|0
212,217,92310,2,0,B|212:281|163:330|98:330,1,180,2|0
104,248,93167,2,0,B|256:344,1,180,2|2
313,286,94025,1,0
370,228,94310,1,12
255,39,94882,1,2
199,98,95167,1,0
142,156,95453,1,12
300,136,96025,6,0,B|392:136,2,90,2|0|0
300,217,96882,2,0,B|300:281|349:330|414:330,1,180,2|0
408,248,97739,2,0,B|256:344,1,180,2|2
199,286,98596,1,0
142,228,98882,1,12
256,39,99453,1,2
313,98,99739,1,0
370,156,100025,1,12
328,312,100596,5,2
256,348,100882,1,0
184,312,101167,1,0
184,232,101453,1,2
256,196,101739,1,0
328,232,102025,1,0
256,272,102310,5,4
420,272,102882,6,0,B|462:297|504:272,2,90,2|0|12
92,112,104025,2,0,B|49:137|7:112,2,90,2|0|12
328,72,105167,5,2
256,36,105453,1,0
184,72,105739,1,0
184,152,106025,1,2
256,188,106310,1,0
328,152,106596,1,0
256,112,106882,5,4
420,112,107453,6,0,B|462:86|504:112,2,90,2|0|12
92,272,108596,2,0,B|49:246|7:272,2,90,2|0|12
240,336,109739,6,0,B|212:248,1,90,2|0
270,192,110310,2,0,B|360:157|351:242|440:209,1,180,12|2
488,140,111167,1,0
408,136,111453,2,0,B|321:177|388:229|301:270,1,180,12|2
256,340,112310,1,0
176,348,112596,5,12
108,304,112882,1,0
76,232,113167,1,2
76,152,113453,1,0
108,80,113739,1,12
176,36,114025,1,0
256,40,114310,6,0,B|256:144,1,90,2|0
216,200,114882,1,12
296,200,115167,1,0
328,276,115453,1,2
296,352,115739,1,0
216,352,116025,1,12
184,276,116310,1,0
216,200,116596,5,2
296,200,116882,1,0
328,128,117167,1,12
296,56,117453,1,0
216,56,117739,1,2
184,128,118025,1,0
216,56,118310,1,12
216,56,118596,1,0
140,32,118882,6,0,B|96:48|52:32,1,90,2|0
29,105,119453,2,0,B|-4:196|79:186|46:276,1,180,12|2
104,333,120310,1,0
172,288,120596,2,0,B|216:272|260:288,1,90,12|0
332,328,121167,2,0,B|376:344|420:328,1,90,2|0
482,278,121739,2,0,B|516:187|432:197|465:107,1,180,12|2
416,44,122596,1,0
336,28,122882,1,12
264,64,123167,1,0
296,140,123453,6,0,B|296:192|296:192|316:224,1,90,2|0
376,168,124025,1,12
136,216,124596,1,2
216,244,124882,2,0,B|216:192|216:192|196:160,1,90,0|12
195,78,125453,1,0
116,56,125739,6,0,B|72:38|29:56,1,90,2|0
24,72,126167,1,0
20,88,126310,1,12
24,104,126453,1,0
28,120,126596,1,0
68,192,126882,2,0,B|160:192,2,90,2|0|12
28,264,127739,1,0
88,320,128025,6,0,B|176:320,1,90,2|0
235,262,128596,2,0,B|259:161|170:108,1,180,2|0
88,104,129453,2,0,B|68:152|24:168,2,90,2|0|0
136,40,130310,2,0,B|230:-3|298:74,1,180,2|0
332,148,131167,1,0
332,228,131453,1,2
288,296,131739,1,0
208,316,132025,1,2
132,288,132310,1,0
88,220,132596,6,0,B|109:172|70:138,1,90,2|0
12,196,133167,2,0,B|144:64,1,180,2|0
204,20,134025,1,2
256,80,134310,1,0
308,20,134596,1,0
372,68,134882,2,0,B|500:196,1,180,2|0
492,276,135739,5,2
436,336,136025,1,0
356,344,136310,1,0
284,304,136596,1,0
256,228,136882,6,0,B|248:221|248:221|264:208|264:208|248:194|248:194|264:181|264:181|248:168|248:168|264:154|264:154|248:141|248:141|264:128|264:128|248:115|248:115|264:101|264:101|248:88|248:88|264:72|264:72|256:64|256:60|256:60|256:36,1,270,2|0
