osu file format v13

[General]
AudioFilename: 11 Evergreen + Anima Mundi.mp3
AudioLeadIn: 2000
PreviewTime: 85333
Countdown: 0
SampleSet: None
StackLeniency: 0.7
Mode: 0
LetterboxInBreaks: 0
WidescreenStoryboard: 0

[Editor]
DistanceSpacing: 1.2
BeatDivisor: 4
GridSize: 4
TimelineZoom: 2.1

[Metadata]
Title:Evergreen + Anima Mundi
TitleUnicode:Evergreen + Anima Mundi
Artist:Sonitus Vir
ArtistUnicode:Sonitus Vir
Creator:P o M u T a
Version:Hard
Source:
Tags:lapfox trax Heartmender africa renard queenston pomuta Blue Dragon
BeatmapID:332249
BeatmapSetID:131557

[Difficulty]
HPDrainRate:6
CircleSize:4
OverallDifficulty:6
ApproachRate:7
SliderMultiplier:1.5
SliderTickRate:2

[Events]
//Background and Video events
0,0,"new_38077896.jpg",0,0
//Break Periods
2,63999,68433
//Storyboard Layer 0 (Background)
//Storyboard Layer 1 (Fail)
//Storyboard Layer 2 (Pass)
//Storyboard Layer 3 (Foreground)
//Storyboard Sound Samples
//Background Colour Transformations
3,100,163,162,255

[TimingPoints]
0,444.444444444444,4,3,1,40,1,0
7111,-100,4,3,1,50,0,0
7888,-100,4,3,1,5,0,0
7999,-100,4,3,1,60,0,0
14999,-100,4,3,1,5,0,0
15111,-100,4,3,1,60,0,0
21333,-100,4,3,1,60,0,0
35555,-100,4,3,1,50,0,0
76444,-100,4,3,1,50,0,0
78222,-100,4,3,1,60,0,0
83555,-100,4,3,1,50,0,0
85333,-100,4,3,1,70,0,1
98666,-100,4,3,1,70,0,0
99555,-100,4,3,1,70,0,1
113777,-100,4,3,1,60,0,0
133333,-100,4,3,1,50,0,0
135111,-100,4,3,1,60,0,0
140444,-100,4,3,1,50,0,0
142222,-100,4,3,1,60,0,0

[Colours]
Combo1 : 134,202,139
Combo2 : 224,221,101
Combo3 : 216,197,250

[HitObjects]
64,128,0,5,0,0:0:0:0:
144,168,222,2,0,L|140:208,2,37.5,0|0|8,0:0|0:0|0:0,0:0:0:0:
184,88,666,1,0,0:0:0:0:
256,36,888,2,0,B|304:16|304:16|364:16,2,112.5,0|8|8,0:0|0:0|0:0,0:0:0:0:
184,88,1777,5,0,0:0:0:0:
256,140,1999,2,0,L|256:180,2,37.5,0|0|8,0:0|0:0|0:0,0:0:0:0:
328,88,2444,1,0,0:0:0:0:
368,168,2666,2,0,B|388:221|388:221|362:274,2,112.5,0|8|8,0:0|0:0|0:0,0:0:0:0:
328,88,3555,5,0,0:0:0:0:
408,48,3777,2,0,L|408:8,2,37.5,0|0|8,0:0|0:0|0:0,0:0:0:0:
472,112,4222,1,0,0:0:0:0:
428,192,4444,1,0,0:0:0:0:
468,272,4666,2,0,L|468:312,1,37.5,0|8,0:0|0:0,0:0:0:0:
388,309,4999,2,0,L|388:272,1,37.5,0|8,0:0|0:0,0:0:0:0:
308,352,5333,5,0,0:0:0:0:
256,276,5555,2,0,L|256:232,2,37.5,0|0|8,0:0|0:0|0:0,0:0:0:0:
204,352,5999,1,4,0:0:0:0:
132,296,6222,2,0,L|168:256,2,50,4|4|4,2:0|0:0|0:0,0:0:0:0:
72,300,6666,2,0,L|32:344,2,50,4|4|4,0:0|0:0|0:0,0:0:0:0:
64,240,7111,5,4,2:0:0:0:
152,84,7555,2,0,B|208:72|208:72|264:76,1,112.5,8|0,0:0|0:0,0:0:0:0:
300,100,7999,2,0,B|300:152|300:152|332:204,2,112.5,0|8|8,0:0|0:0|0:0,0:0:0:0:
376,52,8888,5,0,0:0:0:0:
444,112,9111,2,0,L|468:140,2,37.5,0|0|8,0:0|0:0|0:0,0:0:0:0:
376,52,9555,1,0,0:0:0:0:
300,100,9777,2,0,B|264:144|264:144|212:164,2,112.5,0|8|8,0:0|0:0|0:0,0:0:0:0:
272,64,10555,1,0,0:0:0:0:
244,28,10666,6,0,L|92:20,1,150,0|8,0:0|0:0,0:0:0:0:
20,72,11333,1,0,0:0:0:0:
80,140,11555,2,0,B|72:196|72:196|24:224,2,112.5,0|8|8,0:0|0:0|0:0,0:0:0:0:
124,128,12333,1,0,0:0:0:0:
168,144,12444,6,0,L|320:152,1,150,0|8,0:0|0:0,0:0:0:0:
400,192,13111,1,0,0:0:0:0:
317,232,13333,2,0,L|204:236,1,112.5,0|8,0:0|0:0,0:0:0:0:
160,236,13777,1,0,0:0:0:0:
83,283,13999,1,8,0:0:0:0:
162,326,14222,5,4,2:0:0:0:
162,326,14666,2,0,L|274:329,1,112.5,8|0,0:0|0:0,0:0:0:0:
319,330,15111,2,0,B|364:354|364:354|428:354,2,112.5,0|8|8,0:0|0:0|0:0,0:0:0:0:
364,252,15999,5,0,0:0:0:0:
452,260,16222,2,0,L|468:300,2,37.5,0|0|8,0:0|0:0|0:0,0:0:0:0:
420,176,16666,1,0,0:0:0:0:
388,92,16888,2,0,B|432:52|432:52|488:40,2,112.5,0|8|8,0:0|0:0|0:0,0:0:0:0:
348,112,17666,1,0,0:0:0:0:
304,116,17777,6,0,L|144:104,1,150,0|8,0:0|0:0,0:0:0:0:
68,76,18444,1,0,0:0:0:0:
24,156,18666,2,0,L|4:268,2,112.5,0|8|8,0:0|0:0|0:0,0:0:0:0:
108,192,19555,6,0,L|108:304,2,112.5,0|0|0,0:0|0:0|0:0,0:0:0:0:
192,156,20444,2,0,B|244:136|244:136|300:136,1,112.5,0|0,0:0|0:0,0:0:0:0:
344,136,20888,1,4,2:0:0:0:
344,136,21333,5,4,2:0:0:0:
256,328,21777,1,8,0:0:0:0:
168,312,21999,1,0,0:0:0:0:
148,320,22111,1,0,0:0:0:0:
128,328,22222,2,0,B|72:268|72:268|72:200,1,150,0|8,0:0|0:0,0:0:0:0:
84,112,22888,2,0,L|124:100,1,37.5,8|0,0:0|0:0,0:0:0:0:
164,88,23111,6,0,B|140:40|140:40|84:20,2,112.5,0|8|8,0:0|0:0|0:0,0:0:0:0:
208,164,23999,2,0,B|252:192|252:192|312:180,1,112.5,0|8,0:0|0:0,0:0:0:0:
356,168,24444,1,0,0:0:0:0:
428,116,24666,1,8,0:0:0:0:
356,64,24888,6,0,B|300:60|300:60|248:28,2,112.5,0|8|0,0:0|0:0|0:0,0:0:0:0:
428,116,25777,2,0,L|436:228,1,112.5,0|8,0:0|0:0,0:0:0:0:
440,272,26222,1,0,0:0:0:0:
484,352,26444,1,8,0:0:0:0:
396,352,26666,6,0,L|356:352,1,37.5,0|0,0:0|0:0,0:0:0:0:
320,332,26888,2,0,B|248:320|248:320|172:336,1,150,0|0,0:0|0:0,0:0:0:0:
84,352,27555,2,0,B|96:296|96:296|84:240,2,112.5,0|8|8,0:0|0:0|0:0,0:0:0:0:
84,352,28444,5,4,2:0:0:0:
256,232,28888,1,8,0:0:0:0:
340,268,29111,1,0,0:0:0:0:
360,276,29222,1,0,0:0:0:0:
380,284,29333,2,0,B|432:268|432:268|448:212,1,112.5,0|8,0:0|0:0,0:0:0:0:
408,192,29777,2,0,B|404:156|404:156|420:120,1,75,0|8,0:0|0:0,0:0:0:0:
388,88,30111,1,0,0:0:0:0:
344,76,30222,6,0,B|288:84|288:84|232:72,2,112.5,0|8|8,0:0|0:0|0:0,0:0:0:0:
416,20,31111,2,0,B|480:64|480:64|480:136,2,150,0|0|0,0:0|0:0|0:0,0:0:0:0:
344,76,32222,6,0,B|324:76|324:76|304:68,1,37.5,0|0,0:0|0:0,0:0:0:0:
268,48,32444,2,0,B|228:40|228:40|192:44,1,75,8|0,0:0|0:0,0:0:0:0:
108,72,32888,2,0,B|48:60|48:60|16:20,2,112.5,0|8|8,0:0|0:0|0:0,0:0:0:0:
345,202,34222,6,0,B|304:264|304:264|201:264,1,150,4|0,0:2|0:0,0:0:0:0:
141,346,34888,2,0,L|111:367,3,25,4|4|4|4,0:0|0:0|0:0|0:2,0:0:0:0:
384,300,35555,6,0,L|416:320,2,37.5,4|0|0,2:0|0:0|0:0,0:0:0:0:
304,260,35999,2,0,B|268:260|268:260|236:284,1,75,8|0,0:0|0:0,0:0:0:0:
180,353,36444,2,0,B|120:348|120:348|80:312,1,112.5,4|8,0:0|0:0,0:0:0:0:
92,268,36888,2,0,L|76:192,1,75,0|8,0:0|0:0,0:0:0:0:
80,104,37333,5,0,0:0:0:0:
104,100,37444,1,0,0:0:0:0:
128,96,37555,2,0,L|204:84,1,75,0|8,0:0|0:0,0:0:0:0:
284,124,37999,1,0,0:0:0:0:
352,64,38222,2,0,B|412:72|412:72|448:116,2,112.5,4|8|8,0:0|0:0|0:0,0:0:0:0:
284,124,39111,6,0,L|288:164,1,37.5,0|0,0:0|0:0,0:0:0:0:
316,196,39333,2,0,B|328:232|328:232|320:268,2,75,0|8|0,0:0|0:0|0:0,0:0:0:0:
236,240,39999,2,0,B|208:284|208:284|244:332,1,112.5,4|8,0:0|0:0,0:0:0:0:
216,368,40444,2,0,B|252:360|252:360|288:372,1,75,0|8,0:0|0:0,0:0:0:0:
376,352,40888,1,0,0:0:0:0:
396,344,40999,5,0,0:0:0:0:
416,336,41111,2,0,B|424:304|424:304|416:260,1,75,0|8,0:0|0:0,0:0:0:0:
364,192,41555,1,0,0:0:0:0:
416,121,41777,2,0,B|372:88|372:88|312:80,1,112.5,4|8,0:0|0:0,0:0:0:0:
288,44,42222,2,0,L|252:112,1,75,0|8,0:0|0:0,0:0:0:0:
256,200,42666,5,4,2:0:0:0:
260,220,42777,1,0,0:0:0:0:
264,240,42888,2,0,B|260:272|260:272|224:296,2,75,0|8|0,0:0|0:0|0:0,0:0:0:0:
176,228,43555,2,0,B|136:256|136:256|140:320,1,112.5,4|8,0:0|0:0,0:0:0:0:
116,356,43999,2,0,B|76:344|76:344|56:316,1,75,0|8,0:0|0:0,0:0:0:0:
36,228,44444,6,0,L|40:188,1,37.5,0|0,0:0|0:0,0:0:0:0:
12,156,44666,2,0,B|20:120|20:120|52:100,1,75,0|8,0:0|0:0,0:0:0:0:
140,112,45111,1,0,0:0:0:0:
104,32,45333,2,0,B|152:8|152:8|212:0,2,112.5,4|8|8,0:0|0:0|0:0,0:0:0:0:
140,112,46222,5,0,0:0:0:0:
162,109,46333,1,0,0:0:0:0:
184,106,46444,2,0,B|216:128|216:128|228:164,1,75,0|8,0:0|0:0,0:0:0:0:
200,248,46888,1,0,0:0:0:0:
256,320,47111,2,0,B|312:336|312:336|364:320,1,112.5,4|8,0:0|0:0,0:0:0:0:
400,344,47555,2,0,B|420:312|420:312|456:304,1,75,0|8,0:0|0:0,0:0:0:0:
488,220,47999,5,0,0:0:0:0:
481,198,48111,1,0,0:0:0:0:
474,176,48222,2,0,L|480:100,1,75,0|8,0:0|0:0,0:0:0:0:
508,16,48666,1,0,0:0:0:0:
420,36,48888,2,0,L|268:44,1,150,4|4,0:0|3:0,0:0:0:0:
120,192,49777,5,4,2:0:0:0:
256,352,50222,1,8,0:0:0:0:
336,312,50444,1,0,0:0:0:0:
356,300,50555,1,0,0:0:0:0:
376,288,50666,2,0,B|428:232|428:232|428:156,1,150,0|8,0:0|0:0,0:0:0:0:
420,68,51333,2,0,L|376:60,1,37.5,8|0,0:0|0:0,0:0:0:0:
340,56,51555,6,0,B|280:48|280:48|240:16,2,112.5,0|8|8,0:0|0:0|0:0,0:0:0:0:
384,136,52444,2,0,B|412:160|412:160|452:168,1,75,0|0,0:0|0:0,0:0:0:0:
332,192,52888,2,0,B|304:168|304:168|264:160,1,75,0|8,0:0|0:0,0:0:0:0:
176,156,53333,6,0,B|116:160|116:160|64:152,2,112.5,0|0|0,0:0|0:0|0:0,0:0:0:0:
228,224,54222,2,0,B|196:272|196:272|144:292,1,112.5,0|8,0:0|0:0,0:0:0:0:
100,300,54666,1,0,0:0:0:0:
164,364,54888,1,8,0:0:0:0:
252,348,55111,5,0,0:0:0:0:
276,348,55222,1,0,0:0:0:0:
300,348,55333,2,0,B|376:348|376:348|404:280,1,150,0|0,0:0|0:0,0:0:0:0:
436,196,55999,2,0,L|484:92,2,112.5,0|8|8,0:0|0:0|0:0,0:0:0:0:
348,212,56888,5,4,2:0:0:0:
140,192,57333,1,8,0:0:0:0:
76,128,57555,1,0,0:0:0:0:
88,108,57666,1,0,0:0:0:0:
100,92,57777,2,0,B|144:64|144:64|204:56,1,112.5,0|8,0:0|0:0,0:0:0:0:
248,52,58222,1,0,0:0:0:0:
332,80,58444,2,0,L|344:116,1,37.5,8|0,0:0|0:0,0:0:0:0:
380,140,58666,6,0,B|348:192|348:192|360:244,1,112.5,0|8,0:0|0:0,0:0:0:0:
380,280,59111,1,0,0:0:0:0:
308,332,59333,1,8,0:0:0:0:
256,260,59555,2,0,L|256:184,1,75,0|0,0:0|0:0,0:0:0:0:
180,276,59999,2,0,L|180:352,1,75,0|8,0:0|0:0,0:0:0:0:
88,352,60444,6,0,B|28:336|28:336|4:292,2,112.5,0|0|0,0:0|0:0|0:0,0:0:0:0:
180,351,61333,2,0,B|240:335|240:335|264:291,2,112.5,0|8|8,0:0|0:0|0:0,0:0:0:0:
18,134,62666,6,0,B|86:107|86:107|162:114,1,150,4|0,2:0|0:0,0:0:0:0:
298,48,63333,2,0,L|326:36,3,25,4|4|4|4,0:0|0:0|0:0|0:2,0:0:0:0:
256,248,69333,6,0,L|256:360,2,112.5,4|4|4,2:0|2:0|2:0,0:0:0:0:
256,156,70222,1,4,2:0:0:0:
256,68,70444,2,0,L|256:40,3,25,0|0|0|4,0:0|0:0|0:0|0:0,0:0:0:0:
88,192,71111,6,0,B|88:248|88:248|128:288,1,112.5,4|0,2:0|0:0,0:0:0:0:
100,324,71555,2,0,B|136:316|136:316|176:324,1,75,8|0,0:0|0:0,0:0:0:0:
216,332,71888,1,0,0:0:0:0:
260,344,71999,2,0,B|332:352|332:352|412:344,1,150,0|8,0:0|0:0,0:0:0:0:
472,144,72888,6,0,B|424:108|424:108|372:96,1,112.5,0|0,0:0|0:0,0:0:0:0:
352,56,73333,2,0,B|316:64|316:64|276:56,1,75,8|0,0:0|0:0,0:0:0:0:
236,48,73666,1,0,0:0:0:0:
192,40,73777,2,0,B|120:32|120:32|52:72,1,150,0|8,0:0|0:0,0:0:0:0:
56,280,74666,6,0,B|60:224|60:224|108:192,1,112.5,0|0,0:0|0:0,0:0:0:0:
148,172,75111,2,0,B|140:208|140:208|160:240,1,75,8|0,0:0|0:0,0:0:0:0:
200,264,75444,1,0,0:0:0:0:
244,276,75555,2,0,B|304:228|304:228|304:152,1,150,0|8,0:0|0:0,0:0:0:0:
460,12,76444,6,0,B|460:68|460:68|420:108,1,112.5,4|0,2:0|0:0,0:0:0:0:
376,92,76888,2,0,B|340:84|340:84|300:84,1,75,8|0,0:0|0:0,0:0:0:0:
212,72,77333,2,0,B|200:36,3,25
244,156,77777,1,8,0:0:0:0:
328,192,77999,2,0,L|364:208,1,37.5,0|0,0:0|0:0,0:0:0:0:
404,228,78222,6,0,B|424:272|424:272|376:320,1,112.5,4|0,2:0|0:0,0:0:0:0:
404,352,78666,2,0,L|324:356,1,75,8|0,0:0|0:0,0:0:0:0:
284,360,78999,1,0,0:0:0:0:
240,364,79111,2,0,B|176:312|176:312|160:244,1,150,0|8,0:0|0:0,0:0:0:0:
52,104,79999,6,0,B|108:104|108:104|160:84,1,112.5,0|0,0:0|0:0,0:0:0:0:
204,76,80444,2,0,B|216:112|216:112|212:152,1,75,8|0,0:0|0:0,0:0:0:0:
196,192,80777,1,0,0:0:0:0:
180,236,80888,2,0,B|180:308|180:308|244:352,1,150,0|8,0:0|0:0,0:0:0:0:
412,288,81777,6,0,B|408:232|408:232|444:188,1,112.5,0|0,0:0|0:0,0:0:0:0:
488,172,82222,2,0,B|480:136|480:136|448:112,1,75,8|0,0:0|0:0,0:0:0:0:
404,124,82555,1,0,0:0:0:0:
360,136,82666,2,0,B|272:132|272:132|216:100,1,150,0|8,0:0|0:0,0:0:0:0:
20,32,83555,6,0,B|20:88|20:88|60:128,1,112.5,4|0,2:0|0:0,0:0:0:0:
24,156,83999,2,0,L|40:232,1,75,8|0,0:0|0:0,0:0:0:0:
40,320,84444,2,0,L|16:340,3,25
120,276,84888,1,8,0:0:0:0:
204,244,85111,2,0,L|228:276,1,37.5,0|0,0:0|0:0,0:0:0:0:
256,308,85333,6,0,B|304:328|304:328|364:328,1,112.5,4|0,2:0|0:0,0:0:0:0:
408,328,85777,2,0,L|450:262,1,75,8|0,0:0|0:0,0:0:0:0:
500,192,86222,2,0,L|488:152,3,37.5,0|0|0|0,0:0|0:0|0:0|0:0,0:0:0:0:
480,112,86666,1,8,0:0:0:0:
412,52,86888,2,0,L|368:48,1,37.5,0|0,0:0|0:0,0:0:0:0:
328,48,87111,6,0,B|272:48|272:48|228:84,2,112.5,0|0|0,0:0|0:0|0:0,0:0:0:0:
372,128,87999,2,0,L|384:168,3,37.5,0|0|0|0,0:0|0:0|0:0|0:0,0:0:0:0:
396,208,88444,1,8,0:0:0:0:
336,276,88666,1,0,0:0:0:0:
256,236,88888,6,0,B|224:184|224:184|220:132,2,112.5,0|0|0,0:0|0:0|0:0,0:0:0:0:
256,328,89777,2,0,B|300:360|300:360|360:360,2,112.5,0|0|0,0:0|0:0|0:0,0:0:0:0:
176,284,90666,6,0,L|84:220,1,112.5,0|0,0:0|0:0,0:0:0:0:
40,232,91111,2,0,B|28:196|28:196|40:160,2,75,8|8|0,0:0|0:0|0:0,0:0:0:0:
256,328,91999,1,8,0:0:0:0:
316,260,92222,1,0,0:0:0:0:
280,176,92444,6,0,B|224:168|224:168|168:184,1,112.5,4|0,2:0|0:0,0:0:0:0:
152,224,92888,2,0,L|96:172,1,75,8|0,0:0|0:0,0:0:0:0:
40,104,93333,2,0,L|72:84,3,37.5,0|0|0|0,0:0|0:0|0:0|0:0,0:0:0:0:
112,64,93777,1,8,0:0:0:0:
196,32,93999,2,0,L|236:32,1,37.5,0|0,0:0|0:0,0:0:0:0:
272,52,94222,6,0,B|248:104|248:104|280:148,2,112.5,0|0|0,0:0|0:0|0:0,0:0:0:0:
360,28,95111,2,0,B|408:52|408:52|464:36,1,112.5,0|0,0:0|0:0,0:0:0:0:
508,24,95555,1,8,0:0:0:0:
488,112,95777,2,0,L|476:148,1,37.5,0|0,0:0|0:0,0:0:0:0:
460,192,95999,6,0,L|480:304,2,112.5,0|0|0,0:0|0:0|0:0,0:0:0:0:
388,248,96888,2,0,L|408:360,2,112.5,0|0|0,0:0|0:0|0:0,0:0:0:0:
324,184,97777,5,4,2:0:0:0:
188,184,98111,1,4,2:0:0:0:
256,300,98444,2,0,L|256:376,1,75,4|4,2:0|2:0,0:0:0:0:
256,225,98888,2,0,L|256:197,3,25,0|0|0|8,0:0|0:0|0:0|0:0,0:0:0:0:
352,72,99555,6,0,B|408:92|408:92|424:148,1,112.5,4|0,2:0|0:0,0:0:0:0:
392,176,99999,2,0,L|412:252,1,75,8|0,0:0|0:0,0:0:0:0:
436,336,100444,1,0,0:0:0:0:
404,348,100555,1,0,0:0:0:0:
371,352,100666,1,0,0:0:0:0:
337,348,100777,1,0,0:0:0:0:
306,336,100888,1,8,0:0:0:0:
216,284,101111,2,0,L|192:312,1,37.5,0|0,0:0|0:0,0:0:0:0:
160,344,101333,6,0,L|136:232,1,112.5,0|0,0:0|0:0,0:0:0:0:
160,196,101777,2,0,B|144:164|144:164|112:140,1,75,8|0,0:0|0:0,0:0:0:0:
36,96,102222,2,0,B|92:96|92:96|144:72,1,112.5,0|0,0:0|0:0,0:0:0:0:
180,48,102666,1,8,0:0:0:0:
260,92,102888,2,0,L|268:136,1,37.5,0|0,0:0|0:0,0:0:0:0:
308,148,103111,6,0,L|264:252,1,112.5,0|0,0:0|0:0,0:0:0:0:
248,292,103555,1,8,0:0:0:0:
312,356,103777,1,0,0:0:0:0:
396,324,103999,2,0,L|440:220,1,112.5,0|0,0:0|0:0,0:0:0:0:
476,192,104444,1,8,0:0:0:0:
432,112,104666,2,0,L|404:80,1,37.5,0|0,0:0|0:0,0:0:0:0:
380,48,104888,6,0,B|424:24|424:24|484:40,2,112.5,0|0|0,0:0|0:0|0:0,0:0:0:0:
300,88,105777,2,0,L|148:80,1,150,0|8,0:0|0:0,0:0:0:0:
64,52,106444,1,0,0:0:0:0:
32,136,106666,6,0,L|24:248,1,112.5,4|0,2:0|0:0,0:0:0:0:
20,292,107111,2,0,B|48:312|48:312|96:320,1,75,8|0,0:0|0:0,0:0:0:0:
168,276,107555,2,0,B|220:272|220:272|264:316,1,112.5,0|0,0:0|0:0,0:0:0:0:
260,360,107999,2,0,B|296:344|296:344|340:352,1,75,8|0,0:0|0:0,0:0:0:0:
376,352,108333,1,0,0:0:0:0:
420,356,108444,6,0,L|464:252,2,112.5,0|0|0,0:0|0:0|0:0,0:0:0:0:
376,276,109333,2,0,L|420:172,1,112.5,0|0,0:0|0:0,0:0:0:0:
436,132,109777,1,8,0:0:0:0:
348,144,109999,1,0,0:0:0:0:
260,156,110222,6,0,L|224:140,3,37.5,0|0|0|0,0:0|0:0|0:0|0:0,0:0:0:0:
184,152,110666,1,8,0:0:0:0:
136,228,110888,1,0,0:0:0:0:
184,304,111111,2,0,B|136:344|136:344|80:348,2,112.5,0|0|0,0:0|0:0|0:0,0:0:0:0:
264,260,111999,5,4,2:0:0:0:
264,124,112333,1,4,2:0:0:0:
380,192,112666,2,0,L|304:192,1,75,4|4,2:0|2:0,0:0:0:0:
455,192,113111,2,0,L|479:192,3,25,0|0|0|8,0:0|0:0|0:0|0:0,0:0:0:0:
256,344,113777,6,0,L|180:332,1,75,4|0,2:0|0:0,0:0:0:0:
200,244,114222,2,0,L|124:232,1,75,4|0,2:0|0:0,0:0:0:0:
84,220,114555,1,0,0:0:0:0:
40,208,114666,2,0,L|32:128,1,75,0|8,0:0|0:0,0:0:0:0:
108,40,115111,2,0,L|115:114,1,75,8|0,0:0|0:0,0:0:0:0:
192,160,115555,5,0,0:0:0:0:
280,136,115777,1,0,0:0:0:0:
368,112,115999,1,4,2:0:0:0:
456,88,116222,2,0,L|456:128,1,37.5,0|0,0:0|0:0,0:0:0:0:
492,152,116444,2,0,B|440:200|440:200|460:276,1,150,0|8,0:0|0:0,0:0:0:0:
296,352,117333,5,0,0:0:0:0:
256,272,117555,1,0,0:0:0:0:
216,352,117777,1,4,2:0:0:0:
176,272,117999,2,0,L|152:300,1,37.5,0|0,0:0|0:0,0:0:0:0:
120,332,118222,2,0,B|80:324|80:324|56:300,1,75,0|8,0:0|0:0,0:0:0:0:
92,220,118666,2,0,L|80:144,1,75,8|0,0:0|0:0,0:0:0:0:
160,104,119111,6,0,L|148:29,2,75,0|0|4,0:0|0:0|2:0,0:0:0:0:
184,192,119777,2,0,L|224:204,1,37.5,0|0,0:0|0:0,0:0:0:0:
258,226,119999,2,0,B|310:270|310:270|393:270,1,150,0|4,0:0|2:0,0:0:0:0:
355,82,120888,6,0,B|316:96|316:96|284:88,1,75,4|0,2:0|0:0,0:0:0:0:
204,44,121333,2,0,B|164:30|164:30|132:38,1,75,4|0,2:0|0:0,0:0:0:0:
92,56,121666,1,0,0:0:0:0:
60,88,121777,2,0,L|44:168,1,75,0|8,0:0|0:0,0:0:0:0:
64,311,122222,2,0,L|80:231,1,75,8|0,0:0|0:0,0:0:0:0:
167,222,122666,6,0,B|207:218|207:218|239:234,1,75,0|0,0:0|0:0,0:0:0:0:
304,296,123111,2,0,B|336:312|336:312|376:308,1,75,4|0,2:0|0:0,0:0:0:0:
412,284,123444,1,0,0:0:0:0:
452,264,123555,2,0,L|472:340,2,75,0|8|8,0:0|0:0|0:0,0:0:0:0:
416,40,124444,6,0,B|380:56|380:56|360:88,1,75,0|0,0:0|0:0,0:0:0:0:
364,176,124888,2,0,B|328:192|328:192|284:188,1,75,4|0,2:0|0:0,0:0:0:0:
272,148,125222,1,0,0:0:0:0:
258,105,125333,2,0,L|290:33,2,75,0|8|8,0:0|0:0|0:0,0:0:0:0:
180,152,125999,1,0,0:0:0:0:
88,152,126222,6,0,P|68:120|64:84,1,75,0|0,0:0|0:0,0:0:0:0:
24,196,126666,2,0,P|44:228|48:264,1,75,4|0,2:0|0:0,0:0:0:0:
80,296,126999,1,0,0:0:0:0:
112,328,127111,2,0,B|180:348|180:348|256:320,1,150,0|4,0:0|2:0,0:0:0:0:
280,112,127999,6,0,B|332:88|332:88|388:104,1,112.5,4|0,2:0|0:0,0:0:0:0:
428,84,128444,2,0,B|424:124|424:124|440:156,1,75,8|0,0:0|0:0,0:0:0:0:
472,184,128777,1,0,0:0:0:0:
460,228,128888,2,0,L|340:320,1,150,0|8,0:0|0:0,0:0:0:0:
148,236,129777,6,0,B|144:180|144:180|180:136,1,112.5,0|0,0:0|0:0,0:0:0:0:
220,116,130222,2,0,B|184:92|184:92|168:60,1,75,8|0,0:0|0:0,0:0:0:0:
169,63,130555,1,0,0:0:0:0:
169,63,130666,2,0,L|320:40,1,150,0|8,0:0|0:0,0:0:0:0:
412,192,131555,6,0,B|384:244|384:244|336:272,1,112.5,0|0,0:0|0:0,0:0:0:0:
296,252,131999,2,0,B|256:256|256:256|228:280,1,75,8|0,0:0|0:0,0:0:0:0:
204,316,132333,1,0,0:0:0:0:
180,356,132444,2,0,B|116:312|116:312|88:244,1,150,0|8,0:0|0:0,0:0:0:0:
84,64,133333,6,0,B|140:72|140:72|196:56,1,112.5,4|0,2:0|0:0,0:0:0:0:
236,48,133777,2,0,B|272:44|272:44|308:56,1,75,8|0,0:0|0:0,0:0:0:0:
367,125,134222,2,0,L|352:160,3,25
444,80,134666,1,8,0:0:0:0:
444,304,135111,6,0,B|384:300|384:300|336:276,1,112.5,4|0,2:0|0:0,0:0:0:0:
308,244,135555,2,0,L|280:172,1,75,8|0,0:0|0:0,0:0:0:0:
300,132,135888,1,0,0:0:0:0:
280,92,135999,2,0,B|212:52|212:52|140:40,1,150,0|8,0:0|0:0,0:0:0:0:
40,224,136888,6,0,B|84:264|84:264|100:316,1,112.5,0|0,0:0|0:0,0:0:0:0:
48,320,137333,2,0,B|84:328|84:328|112:356,1,75,8|0,0:0|0:0,0:0:0:0:
156,360,137666,1,0,0:0:0:0:
196,340,137777,2,0,B|260:324|260:324|344:336,1,150,0|8,0:0|0:0,0:0:0:0:
472,172,138666,6,0,B|468:228|468:228|428:268,1,112.5,0|0,0:0|0:0,0:0:0:0:
384,284,139111,2,0,B|376:248|376:248|344:224,1,75,8|0,0:0|0:0,0:0:0:0:
304,208,139444,1,0,0:0:0:0:
260,192,139555,2,0,L|396:128,1,150,0|8,0:0|0:0,0:0:0:0:
204,40,140444,6,0,L|100:84,1,112.5,4|0,2:0|0:0,0:0:0:0:
60,104,140888,2,0,B|60:140|60:140|44:176,1,75,8|0,0:0|0:0,0:0:0:0:
92,252,141333,2,0,L|108:220,2,25
92,252,141555,2,0,L|132:316,1,75,0|8,0:0|0:0,0:0:0:0:
208,360,141999,2,0,L|250:353,1,37.5,0|0,0:0|0:0,0:0:0:0:
289,347,142222,6,0,P|326:341|364:336,1,75,4|0,2:0|0:0,0:0:0:0:
412,260,142666,1,4,2:0:0:0:
456,184,142888,1,0,0:0:0:0:
436,96,143111,2,0,B|448:60|448:60|476:36,2,75,0|8|8,0:0|0:0|0:0,0:0:0:0:
456,184,143777,1,0,0:0:0:0:
412,260,143999,6,0,L|336:272,1,75,0|0,0:0|0:0,0:0:0:0:
256,232,144444,2,0,L|180:244,1,75,4|0,2:0|0:0,0:0:0:0:
136,248,144777,1,0,0:0:0:0:
92,248,144888,2,0,B|32:192|32:192|40:124,1,150,0|8,0:0|0:0,0:0:0:0:
192,32,145777,5,0,0:0:0:0:
192,32,145999,1,0,0:0:0:0:
256,96,146222,1,4,2:0:0:0:
256,96,146444,1,0,0:0:0:0:
320,32,146666,2,0,B|360:36|360:36|388:56,1,75,0|8,0:0|0:0,0:0:0:0:
472,88,147111,2,0,B|452:120|452:120|412:136,1,75,8|0,0:0|0:0,0:0:0:0:
332,164,147555,6,0,B|304:192|304:192|304:228,1,75,0|0,0:0|0:0,0:0:0:0:
396,304,147999,2,0,B|424:276|424:276|424:240,1,75,4|0,2:0|0:0,0:0:0:0:
332,164,148444,2,0,B|256:128|256:128|184:128,1,150,0|4,0:0|2:0,0:0:0:0:
32,40,149333,5,4,2:0:0:0:
60,124,149555,1,0,0:0:0:0:
88,208,149777,1,4,2:0:0:0:
116,292,149999,2,0,L|160:304,1,37.5,0|0,0:0|0:0,0:0:0:0:
196,316,150222,2,0,B|184:348|184:348|152:372,2,75,0|8|8,0:0|0:0|0:0,0:0:0:0:
256,248,150888,1,0,0:0:0:0:
316,316,151111,6,0,B|328:348|328:348|360:372,2,75,0|0|4,0:0|0:0|2:0,0:0:0:0:
256,248,151777,2,0,L|288:216,1,37.5,0|0,0:0|0:0,0:0:0:0:
264,180,151999,2,0,B|316:232|316:232|392:216,1,150,0|8,0:0|0:0,0:0:0:0:
484,28,152888,5,0,0:0:0:0:
416,88,153111,1,0,0:0:0:0:
348,28,153333,1,4,2:0:0:0:
280,88,153555,1,0,0:0:0:0:
212,28,153777,2,0,B|176:44|176:44|136:44,1,75,0|8,0:0|0:0,0:0:0:0:
140,136,154222,2,0,B|175:136|175:136|211:152,1,75,8|0,0:0|0:0,0:0:0:0:
256,228,154666,6,0,B|228:256|228:256|192:268,2,75,0|0|4,0:0|0:0|2:0,0:0:0:0:
324,168,155333,2,0,L|356:188,1,37.5,0|0,0:0|0:0,0:0:0:0:
388,220,155555,2,0,L|388:372,1,150,0|4,0:0|2:0,0:0:0:0:
