osu file format v5

[General]
AudioFilename: Title Screen.mp3
AudioLeadIn: 0
PreviewTime: -1
Countdown: 1
SampleSet: Normal
StackLeniency: 0.7
Mode: 0
LetterboxInBreaks: 1

[Metadata]
Title:Title Screen
Artist:Sonic Unleashed
Creator:pokemon2265
Version:Easy
Source:
Tags:

[Difficulty]
HPDrainRate:3
CircleSize:4
OverallDifficulty:3
SliderMultiplier:1.4
SliderTickRate:1

[Events]
//Background and Video events
//Break Periods
2,74306,80494
2,87613,94975
//Storyboard Layer 0 (Background)
//Storyboard Layer 1 (Failing)
//Storyboard Layer 2 (Passing)
//Storyboard Layer 3 (Foreground)
//Storyboard Sound Samples
//Background Colour Transformations
3,100,163,162,255

[TimingPoints]
1699.35448661554,195.694716242661,4,1,0,100,1

[HitObjects]
256,192,1307,12,0,8352
96,288,8744,6,0,B|448:32|512:352|0:352|32:32|416:0|448:64,5,700
64,192,15202,1,0
96,64,15397,1,0
224,64,15789,1,0
352,64,16180,1,0
448,160,16376,1,0
416,288,16572,1,0
288,320,16767,1,0
192,320,17159,2,0,B|32:64|448:32|480:352|0:320|64:32|480:96|512:160,3,560
96,320,21660,2,0,B|64:160|448:64|448:352|32:64|512:64|192:352|32:96|256:256,13,420
96,288,31640,1,0
32,128,32032,1,0
160,64,32423,1,0
448,96,32814,1,0
448,160,33010,1,0
352,288,33401,1,0
96,224,33988,1,0
96,96,34967,1,0
256,64,35945,1,0
352,64,36141,1,0
448,192,36533,1,0
224,352,37511,1,0
96,288,37902,1,0
64,128,38489,1,0
160,64,39272,1,0
288,64,39859,1,0
448,160,40446,1,0
416,256,40838,1,0
224,320,41425,1,0
128,192,41816,1,0
128,96,42208,1,0
288,64,42599,1,0
448,128,43186,1,0
448,224,43578,1,0
288,320,44165,1,0
64,192,44752,1,0
256,192,45926,12,0,47883
128,96,48861,5,0
352,96,49253,1,0
416,128,49644,1,0
448,256,50035,1,0
288,352,50427,1,0
64,288,50818,1,0
32,224,51014,1,0
64,128,51601,1,0
128,64,51992,1,0
256,64,52384,1,0
416,96,52775,1,0
448,256,53362,1,0
416,256,54928,2,0,B|64:320|64:64|448:64|448:352|32:160|384:32|128:352|0:32|512:0,7,700
160,288,64125,1,0
64,160,64517,1,0
96,64,64908,1,0
320,64,65300,1,0
448,160,65887,1,0
448,320,66082,1,0
288,320,66474,1,0
96,256,67452,1,0
64,160,67648,1,0
64,64,68039,1,0
192,64,68626,1,0
352,96,69018,1,0
352,288,69605,1,0
192,256,69996,1,0
128,128,70388,1,0
288,96,70975,1,0
416,96,71170,1,0
448,224,71562,1,0
192,256,71953,1,0
64,160,72345,1,0
192,64,72736,1,0
288,64,72932,1,0
352,160,73323,1,0
96,256,74106,1,0
64,288,81934,5,0
96,160,82325,1,0
128,64,82716,1,0
320,64,83108,1,0
448,192,83695,1,0
384,288,84478,1,0
192,320,84869,1,0
64,128,85652,1,0
192,64,86630,1,0
384,128,87413,1,0
256,192,95437,12,0,102090
64,320,102873,6,0,B|448:32|480:352|64:64|480:32|32:224|288:384|352:288,16,560
96,64,115985,5,0
224,64,116376,1,0
416,160,116767,1,0
416,256,117159,1,0
288,320,117354,1,0
64,288,117942,1,0
64,160,118137,1,0
192,96,118920,1,0
352,96,119311,1,0
416,192,119703,1,0
320,288,119898,1,0
160,320,120290,1,0
96,192,120486,1,0
224,64,121464,1,0
320,96,121660,1,0
384,128,121855,1,0
416,224,122247,1,0
224,288,122638,1,0
96,224,123030,1,0
64,64,123617,1,0
128,64,124008,1,0
224,64,124399,1,0
352,256,124987,1,0
352,256,125182,1,0
256,288,125574,1,0
160,256,125965,1,0
64,192,126356,1,0
64,96,126748,1,0
64,96,126943,1,0
160,96,127335,1,0
256,128,128118,1,0
384,288,128900,1,0
384,288,129096,1,0
160,256,129683,1,0
64,192,130270,1,0
96,128,130466,1,0
224,96,131053,1,0
352,160,131640,1,0
352,160,131836,1,0
352,160,132032,1,0
320,288,132619,1,0
96,288,133010,1,0
96,160,133401,1,0
96,96,133793,1,0
256,96,134184,1,0
448,288,134771,1,0
96,256,135163,1,0
128,160,135554,1,0
416,160,135945,1,0
352,64,136533,1,0
160,96,136924,1,0
96,192,137315,1,0
288,256,137707,1,0
448,224,138489,1,0
448,224,138881,1,0
96,192,139664,1,0
96,64,140642,1,0
416,128,141229,1,0
128,256,142208,1,0
320,256,142599,1,0
160,128,142990,1,0
96,64,143382,1,0
96,64,143773,1,0
96,64,143969,1,0
96,224,144360,1,0
224,256,144752,1,0
320,192,144947,1,0
288,64,145534,1,0
416,96,145926,1,0
448,224,146317,1,0
160,256,146709,1,0
96,160,147100,1,0
96,160,147296,1,0
352,96,148274,1,0
352,160,148470,1,0
288,224,148666,1,0
128,256,149057,1,0
64,96,149448,1,0
160,32,149840,1,0
416,64,150427,1,0
416,160,150623,1,0
128,256,151014,1,0
96,128,151601,1,0
160,128,151797,1,0
256,128,151992,1,0
352,160,152188,1,0
320,288,152579,1,0
64,256,153558,1,0
64,96,153949,1,0
416,96,154732,1,0
128,256,155515,1,0
320,256,155906,1,0
416,256,156298,1,0
224,64,156689,1,0
96,64,157080,1,0
64,160,157276,1,0
416,128,157668,1,0
256,256,158059,1,0
128,320,158450,1,0
96,96,158842,1,0
288,96,159233,1,0
384,224,159820,1,0
224,288,160016,1,0
96,224,160603,1,0
160,128,161581,1,0
288,128,161777,1,0
320,192,161973,1,0
320,256,162169,1,0
224,288,162364,1,0
64,224,162756,1,0
64,96,163147,1,0
320,64,163734,1,0
416,96,163930,1,0
448,288,164321,1,0
160,320,164908,1,0
32,128,165104,1,0
64,96,165300,1,0
128,96,165691,1,0
352,128,165887,1,0
384,224,166474,1,0
128,288,166670,1,0
128,192,167061,1,0
160,128,167257,1,0
192,128,167452,1,0
352,160,168039,1,0
192,288,168822,1,0
256,192,170192,12,0,175476
256,192,175671,12,0,176454
