osu file format v5

[General]
AudioFilename: Sonic Unleashed - Title Screen.mp3
AudioLeadIn: 0
PreviewTime: -1
Countdown: 1
SampleSet: Normal
StackLeniency: 0.7
Mode: 0
LetterboxInBreaks: 1

[Metadata]
Title:Title Screen (Take 2)
Artist:Sonic Unleashed
Creator:pokemon2265
Version:Hard
Source:
Tags:

[Difficulty]
HPDrainRate:5
CircleSize:6
OverallDifficulty:7
SliderMultiplier:1.4
SliderTickRate:1

[Events]
//Background and Video events
0,0,"sonicunleashed.jpg"
//Break Periods
2,32958,39019
2,72749,79317
//Storyboard Layer 0 (Background)
//Storyboard Layer 1 (Failing)
//Storyboard Layer 2 (Passing)
//Storyboard Layer 3 (Foreground)
//Storyboard Sound Samples
//Background Colour Transformations
3,100,163,162,255

[TimingPoints]
424.783633799242,207.253886010363,4,1,0,100,1

[HitObjects]
256,192,10,12,0,6849
128,96,7471,5,0
192,96,7885,1,0
256,96,8300,1,0
288,96,8507,1,0
384,96,8922,1,0
448,128,9336,1,0
480,160,9751,1,0
480,224,10372,1,0
448,256,10787,1,0
416,256,11201,5,0
384,256,11616,1,0
320,256,11823,1,0
224,256,12238,1,0
192,256,12860,1,0
160,256,13067,1,0
96,256,13274,1,0
64,192,13689,1,0
64,128,14103,1,0
64,96,14518,1,0
128,96,15139,1,0
192,96,15347,1,0
256,96,15761,1,0
352,96,16383,1,0
384,96,16590,1,0
448,128,16797,1,0
480,192,17212,1,0
448,288,18041,1,0
384,256,18663,5,0
320,288,19492,1,0
288,288,20321,2,0,B|0:64|480:32|512:320|480:320,3,560
320,352,23637,1,0
192,256,23844,1,0
64,160,24466,1,0
64,64,24673,1,0
160,64,25087,1,0
320,96,25295,1,0
480,192,26124,1,0
448,256,26331,1,0
416,288,26538,1,0
320,288,26746,1,0
192,256,27367,1,0
96,160,27782,1,0
128,64,28404,1,0
128,64,28611,1,0
192,64,29025,5,0
352,96,29647,1,0
416,128,29854,1,0
480,192,30062,1,0
480,288,30269,1,0
384,288,30683,1,0
256,256,31098,1,0
64,160,31512,1,0
64,160,31720,1,0
64,64,31927,1,0
192,96,32756,1,0
160,288,40217,5,0
64,224,40632,1,0
96,128,41046,1,0
128,64,41461,1,0
224,64,41875,1,0
352,64,42290,1,0
448,192,43326,1,0
448,192,43740,1,0
448,288,44155,1,0
416,320,44569,1,0
320,320,45191,1,0
192,288,46020,1,0
96,224,46849,1,0
96,192,47264,1,0
96,128,47678,1,0
160,64,47885,1,0
224,64,48300,1,0
320,64,48507,1,0
352,128,48922,1,0
416,160,49129,5,0
448,224,49543,1,0
448,288,49751,1,0
384,288,50165,1,0
320,256,50580,1,0
192,224,50787,1,0
128,224,51201,1,0
96,192,51616,1,0
64,160,51823,1,0
128,96,52238,1,0
224,96,52652,1,0
320,96,52860,1,0
288,160,53274,1,0
192,192,53689,1,0
96,224,54103,1,0
224,256,54518,1,0
320,256,55139,1,0
384,256,55347,1,0
416,256,55761,5,0
448,224,56383,1,0
448,192,56590,1,0
448,160,56797,1,0
416,96,57212,1,0
352,96,58041,1,0
288,96,58663,1,0
160,96,59492,1,0
96,192,60321,1,0
128,224,60528,1,0
192,224,60942,1,0
320,224,62186,5,0
384,224,62393,1,0
416,160,62600,1,0
416,64,63429,1,0
288,64,63844,1,0
160,96,64051,1,0
128,160,64466,1,0
128,224,64673,1,0
160,256,65087,1,0
256,288,65295,1,0
416,256,66124,1,0
448,192,66538,1,0
448,128,66746,1,0
448,96,66953,1,0
352,160,67367,1,0
224,224,67782,1,0
128,224,68404,1,0
64,160,68611,1,0
64,96,69025,5,0
192,96,69647,1,0
320,64,69854,1,0
448,64,70062,1,0
512,160,70269,1,0
480,224,70683,1,0
448,256,71098,1,0
320,256,71512,1,0
256,192,71720,1,0
128,160,71927,1,0
64,96,72549,1,0
96,288,80217,5,0
64,192,80632,1,0
64,128,81046,1,0
128,64,81461,1,0
224,64,81875,1,0
352,96,82290,1,0
448,192,83119,1,0
448,256,83533,1,0
352,288,84362,1,0
256,288,85191,1,0
256,192,85606,12,0,91150
