osu file format v6

[General]
AudioFilename: Sonic Underground - Theme Song.mp3
AudioLeadIn: 0
PreviewTime: -1
Countdown: 0
SampleSet: None
StackLeniency: 0.7
Mode: 0
LetterboxInBreaks: 1

[Editor]
DistanceSpacing: 0.800000011920929
BeatDivisor: 4
GridSize: 32

[Metadata]
Title:Sonic underground theme
Artist:Sonic Underground
Creator:puyobeat
Version:manic hegehog
Source:
Tags:

[Difficulty]
HPDrainRate:4
CircleSize:6
OverallDifficulty:5
SliderMultiplier:1.4
SliderTickRate:2

[Events]
//Background and Video events
//Break Periods
//Storyboard Layer 0 (Background)
//Storyboard Layer 1 (Fail)
//Storyboard Layer 2 (Pass)
//Storyboard Layer 3 (Foreground)
//Storyboard Sound Samples
//Background Colour Transformations
3,100,128,255,255

[TimingPoints]
1.14699668836369,428.571428571429,4,0,0,100,1,0

[Colours]
Combo1 : 255,0,255
Combo2 : 0,128,255
Combo3 : 128,255,128

[HitObjects]
96,96,3001,1,0
96,160,3644,1,0
96,224,4394,1,0
96,288,4501,1,0
96,352,5144,1,0
224,96,6001,5,0
128,192,6644,1,0
192,192,7608,1,0
224,192,7822,1,0
288,192,8144,1,0
384,64,8786,5,0
384,128,9536,1,0
384,192,9858,1,0
384,256,10501,1,0
384,320,11036,1,0
32,224,11679,6,0,B|320:128|64:64|128:320,1,350
160,288,13501,1,0
224,288,13822,1,0
256,288,14251,1,0
416,224,15108,5,0
320,224,15429,1,0
224,224,15858,1,0
160,224,16179,1,0
64,224,16608,1,0
96,160,17251,1,0
192,64,18001,5,0
192,128,18429,1,0
192,192,18858,1,0
192,224,19179,1,0
128,288,19394,2,0,B|352:288,1,210
256,192,20786,12,0,24001
128,64,27108,5,0
128,160,27644,1,0
128,224,28608,1,0
128,288,28929,1,0
128,320,29251,1,0
224,96,30322,5,0
128,128,30751,1,0
192,160,31179,1,0
128,192,31394,1,0
160,224,31822,1,0
224,160,32144,1,0
288,64,32786,5,0
288,160,33001,1,0
288,224,33644,1,0
352,64,34286,5,0
352,128,34501,1,0
352,192,34929,1,0
320,224,35144,1,0
96,256,36108,5,0
160,256,36644,1,0
128,192,37286,1,0
128,192,37394,1,0
160,128,37929,1,0
128,128,38251,1,0
32,288,38786,6,0,B|352:256|160:128,1,315
160,128,40501,1,0
128,160,41144,1,0
256,64,42001,5,0
256,128,42536,1,0
256,192,42858,1,0
256,224,43179,1,0
256,256,43608,1,0
320,192,44358,5,0
352,128,45322,5,0
384,160,45751,1,0
384,224,46286,1,0
96,256,48001,5,0
160,256,48429,1,0
224,256,48858,1,0
256,256,49608,1,0
320,256,50036,1,0
256,192,50786,12,0,53358
64,192,54108,5,0
128,192,54644,1,0
224,192,55179,1,0
256,192,55501,1,0
320,192,56036,1,0
352,192,56572,1,0
384,192,56894,1,0
320,256,57429,5,0
192,256,57751,1,0
256,192,58179,1,0
