osu file format v5

[General]
AudioFilename: Sonic Underground - Theme Song.mp3
AudioLeadIn: 3000
PreviewTime: -1
Countdown: 1
SampleSet: Normal
StackLeniency: 0.7
Mode: 0
LetterboxInBreaks: 1

[Metadata]
Title:Sonic Underground Opening
Artist:Sonic Underground
Creator:DarkCenobyte
Version:Normal
Source:Sonic Underground OST
Tags:sonic underground opening

[Difficulty]
HPDrainRate:7
CircleSize:5
OverallDifficulty:5
SliderMultiplier:1.4
SliderTickRate:2

[Events]
//Background and Video events
0,0,"Sonicunderground.jpg"
1,0,"OP Sonic Underground.avi"
//Break Periods
2,24299,25711
2,47549,52899
//Storyboard Layer 0 (Background)
//Storyboard Layer 1 (Failing)
//Storyboard Layer 2 (Passing)
//Storyboard Layer 3 (Foreground)
//Storyboard Sound Samples
//Background Colour Transformations
3,100,163,162,255

[TimingPoints]
3099,375,4,1,0,65,1

[HitObjects]
160,96,99,1,0
224,96,474,1,8
320,96,1224,1,0
352,96,1411,1,8
384,96,1599,1,0
256,192,3099,5,8
256,256,3474,2,0,L|128:256,2,70
256,192,4224,5,8
320,192,4599,2,0,L|416:192,2,70
256,128,5911,5,8
256,64,6286,1,0
224,192,7224,2,0,L|352:192,4,70
288,128,8724,5,8
352,128,9099,2,0,L|352:224,2,70
256,64,10224,5,8
320,64,10599,2,0,L|416:64,2,70
256,128,11349,1,0
192,128,11724,2,0,L|96:128,2,70
256,192,12849,1,0
320,192,13224,2,4,L|416:192,8,70
256,192,15099,5,0
224,192,15286,1,0
192,192,15474,1,0
160,192,15661,1,0
128,192,15849,2,4,L|128:32,4,140
192,192,18099,5,0
256,192,18474,1,0
320,192,18849,1,0
384,192,19224,2,4,L|384:352,4,140
256,192,20911,12,4,24099
256,192,26911,5,8
256,256,27286,2,0,L|384:256,2,70
256,192,28036,5,8
192,192,28411,2,0,L|96:192,2,70
256,128,29349,5,8
256,64,29724,1,0
288,192,30286,2,0,L|160:192,4,70
288,192,31224,2,0,C|288:96,3,70
224,128,32349,5,8
160,128,32724,2,0,L|160:224,2,70
256,64,33849,5,8
192,64,34224,2,0,L|96:64,2,70
256,128,34974,1,0
320,128,35349,2,0,L|416:128,2,70
256,192,36099,1,0
192,192,36474,2,0,L|96:192,12,70
352,64,39286,5,0
352,64,39474,1,0
352,64,39661,2,4,C|224:64|224:160|352:160|352:256|160:288,1,630
256,192,41724,5,0
288,192,41911,1,0
320,192,42099,1,0
352,192,42286,1,0
384,192,42474,2,4,L|384:32,4,140
320,192,44724,5,0
256,192,45099,1,0
192,192,45474,1,0
128,192,45849,2,4,L|128:352,4,140
256,192,54099,12,4,57099
256,192,57474,5,2
256,192,57661,1,2
256,192,57849,1,2
256,192,58036,1,2
256,192,58224,1,6
