osu file format v5

[General]
AudioFilename: Sonic Underground - Theme Song.mp3
AudioLeadIn: 3000
PreviewTime: -1
Countdown: 1
SampleSet: Normal
StackLeniency: 0.7
Mode: 0
LetterboxInBreaks: 1

[Metadata]
Title:Sonic Underground Opening
Artist:Sonic Underground
Creator:DarkCenobyte
Version:Hard
Source:Sonic Underground OST
Tags:sonic underground opening

[Difficulty]
HPDrainRate:7
CircleSize:5
OverallDifficulty:7
SliderMultiplier:1.4
SliderTickRate:2

[Events]
//Background and Video events
0,0,"Sonicunderground.jpg"
1,0,"OP Sonic Underground.avi"
//Break Periods
2,24299,26011
2,48486,53199
//Storyboard Layer 0 (Background)
//Storyboard Layer 1 (Failing)
//Storyboard Layer 2 (Passing)
//Storyboard Layer 3 (Foreground)
//Storyboard Sound Samples
//Background Colour Transformations
3,100,163,162,255

[TimingPoints]
3099,375,4,1,0,65,1

[HitObjects]
256,96,99,1,0
256,128,474,1,8
288,192,1224,1,0
256,224,1411,1,8
224,256,1599,1,0
256,224,1786,1,8
288,192,1974,1,4
256,192,3099,5,8
256,192,3474,2,0,L|128:192,2,70
256,192,4411,5,8
256,192,4786,2,0,L|352:192,2,70
256,128,5911,5,0
256,96,6099,1,0
256,64,6286,1,0
256,32,6474,1,0
224,192,7224,2,0,L|352:192,4,70
288,128,8911,5,8
352,128,9286,2,0,L|352:224,2,70
256,64,10224,5,8
320,64,10599,2,0,L|416:64,2,70
256,96,11161,1,2
256,128,11349,1,0
192,128,11724,2,0,L|96:128,2,70
256,160,12286,1,2
256,192,12474,1,0
320,192,12849,2,4,L|416:192,8,70
256,192,15099,5,0
224,192,15286,1,0
192,192,15474,1,0
160,192,15661,1,0
128,192,15849,2,8,L|128:32,2,140
128,192,16786,2,8,L|128:352,2,140
128,192,17724,1,4
192,192,18099,5,0
256,192,18474,1,0
320,192,18849,1,0
384,192,19224,2,8,L|384:352,2,140
384,192,20161,2,8,L|384:32,2,140
384,192,21099,1,4
256,192,21286,12,4,24099
256,192,26911,5,8
256,192,27099,2,0,L|384:192,2,70
256,192,28599,5,8
256,192,28786,2,0,L|160:192,2,70
256,64,30286,5,8
256,96,30473,1,0
256,128,30661,1,0
256,160,30849,2,0,L|128:160,6,70
224,128,32911,5,8
160,128,33286,2,0,L|160:224,2,70
256,64,34224,5,8
192,64,34599,2,0,L|96:64,2,70
256,96,35161,1,2
256,128,35349,1,0
320,128,35724,2,0,L|416:128,2,70
256,160,36286,1,2
256,192,36474,1,0
192,192,36849,2,4,L|96:192,8,70
352,64,39286,5,0
352,64,39474,1,0
352,64,39661,1,0
352,64,39849,1,0
352,64,40036,2,4,C|224:64|224:160|352:160|352:256|160:288,1,630
256,192,42099,5,0
288,192,42286,1,0
320,192,42474,1,0
352,192,42661,1,0
384,192,43036,2,12,L|384:32,2,140
384,192,43974,2,12,L|384:352,2,140
384,192,44911,1,4
320,192,45286,5,0
256,192,45661,1,0
192,192,46036,1,0
128,192,46411,2,12,L|128:352,2,140
128,192,47349,2,12,L|128:32,2,140
128,192,48286,1,0
256,192,54099,12,4,57099
256,192,57474,5,2
224,160,57661,1,2
256,192,57849,1,2
288,224,58036,1,2
256,192,58224,1,6
