osu file format v7

[General]
AudioFilename: Osu SRB2 Egg Rock Zone 1.mp3
AudioLeadIn: 3000
PreviewTime: -1
Countdown: 1
SampleSet: Normal
StackLeniency: 0.7
Mode: 0
LetterboxInBreaks: 1

[Editor]
Bookmarks: 17916,32091,69232,78393,99183,131311
DistanceSpacing: 0.800000011920929
BeatDivisor: 4
GridSize: 16

[Metadata]
Title:SRB2 Egg Rock Zone
Artist:Sonic Team Jr.
Creator:Invert Tails Prower
Version:Insane
Source:
Tags:

[Difficulty]
HPDrainRate:7
CircleSize:6
OverallDifficulty:7
SliderMultiplier:1.4
SliderTickRate:4

[Events]
//Background and Video events
0,0,"srb20005.png"
//Break Periods
2,71036,77499
//Storyboard Layer 0 (Background)
//Storyboard Layer 1 (Fail)
//Storyboard Layer 2 (Pass)
//Storyboard Layer 3 (Foreground)
//Storyboard Sound Samples
//Background Colour Transformations
3,100,128,128,255

[TimingPoints]
2731,472.925041380941,4,1,0,100,1,0

[HitObjects]
96,96,2731,1,0
160,160,3203,1,0
96,160,3676,1,0
160,224,4149,1,0
96,288,4622,1,0
160,288,5095,1,0
224,288,5568,1,0
288,288,6041,2,0,B|336:288,1,35
352,288,6514,5,0
416,288,6987,1,0
480,288,7460,1,0
480,224,7933,1,0
416,224,8406,1,0
352,224,8879,1,0
352,160,9351,1,0
416,160,9824,2,0,B|464:160,1,35
480,160,10297,5,0
448,128,10534,1,0
480,96,10770,1,8
448,64,11007,1,0
416,96,11243,1,0
384,64,11480,1,0
352,96,11716,1,8
320,64,11953,1,0
288,96,12189,1,4
256,64,12425,1,0
224,96,12662,1,8
192,64,12898,1,0
160,96,13135,1,0
128,64,13371,1,0
96,96,13608,1,8
128,128,13844,1,2
96,160,14081,5,4
128,192,14317,1,0
160,160,14554,1,0
192,192,14790,1,0
224,160,15027,2,8,B|384:160,1,140
368,160,15972,1,4
400,160,16209,1,0
400,192,16682,1,0
400,224,16918,1,2
160,64,17864,6,0,B|384:64,1,210
432,64,18810,1,0
432,128,19283,1,0
432,128,19401,1,0
384,128,19756,2,0,B|384:352,1,210
432,352,20702,1,0
368,352,21175,1,0
368,352,21293,1,0
320,352,21648,2,0,B|96:352,1,210
64,352,22593,1,0
48,288,23066,1,0
48,288,23185,1,0
96,288,23539,2,8,B|96:64,1,210
160,80,24485,1,0
112,64,24958,1,0
112,64,25076,1,0
112,64,25194,1,0
112,64,25313,1,4
160,64,25431,6,0,B|384:64,1,210
416,64,26377,1,0
448,96,26850,1,0
448,96,26968,1,0
384,128,27323,2,0,B|192:288,1,210
160,256,28268,1,0
160,128,28741,1,0
160,128,28860,1,0
224,128,29214,2,0,B|416:288,1,210
448,256,30160,1,0
448,320,30633,1,0
448,320,30751,1,0
384,320,31106,2,8,B|128:320,1,210
128,352,32052,1,0
80,288,32525,1,0
80,288,32643,1,0
80,288,32761,1,0
80,288,32879,1,4
128,288,32998,5,0
160,256,33234,1,0
128,224,33471,1,0
160,192,33707,2,0,B|128:128,1,70
96,96,34416,1,0
128,32,34889,5,0
192,32,35362,1,0
224,32,35599,1,0
256,64,35835,5,0
320,64,36072,1,0
320,128,36545,1,0
288,144,36781,1,0
240,176,37254,1,0
160,192,37490,5,0
192,192,37727,1,0
224,192,37963,1,0
256,192,38200,1,0
288,192,38436,2,0,B|224:256,1,70
272,256,38909,5,0
304,256,39146,1,0
336,256,39382,2,0,B|304:320,1,70
336,320,39855,5,0
368,320,40092,1,0
400,320,40328,1,0
432,320,40565,2,4,B|432:160,1,140
416,128,41274,1,0
384,128,41510,1,0
352,128,41747,1,0
320,128,41983,1,4
320,192,42929,5,0
352,160,43166,1,0
384,192,43402,1,0
416,160,43639,1,0
448,192,43875,1,0
480,192,44111,1,0
448,256,44348,5,0
448,288,44466,2,0,B|384:288,1,35
384,256,44821,1,0
384,288,44939,2,0,B|320:288,1,35
320,256,45294,1,0
320,288,45412,2,0,B|256:288,1,35
256,256,45767,1,0
256,288,45885,2,0,B|208:288,1,35
192,256,46240,2,0,B|192:32,1,210
208,16,47067,1,0
256,32,47185,2,0,B|256:128,1,140
288,112,47895,1,0
320,32,48131,2,2,B|288:416|32:160|64:160,1,420
96,144,49787,1,0
128,128,50023,2,0,B|192:160|192:224|128:288|64:224,1,210
112,256,50851,1,0
128,288,50969,2,0,B|64:320|32:128,1,175
16,144,51678,1,0
32,128,51915,1,0
64,96,52151,1,0
96,96,52388,1,0
128,96,52624,1,0
160,96,52861,1,0
192,96,53097,1,0
224,96,53333,2,0,L|272:96,1,35
192,128,53806,5,0
256,128,54043,1,0
256,192,54279,1,0
256,256,54516,1,0
320,256,54752,1,0
384,256,54989,1,0
384,320,55225,1,0
384,320,55343,1,0
384,320,55462,1,4
448,320,55698,5,0
448,288,55935,1,0
448,256,56171,1,0
448,224,56407,1,0
448,192,56644,1,0
448,160,56880,1,0
448,128,57117,1,4
448,64,57590,5,4
416,64,58063,5,0
384,64,58299,1,0
352,64,58536,1,0
320,64,58772,1,0
288,64,59009,1,0
256,64,59245,1,0
224,64,59482,2,0,B|224:288,1,210
224,274,60427,1,0
224,274,60664,1,0
224,274,60900,1,0
160,288,61373,2,0,B|160:64,1,210
224,96,62319,1,0
224,128,62556,1,0
224,160,62792,1,0
224,192,63028,1,4
256,192,63265,12,0,70836
256,192,78399,5,0
320,192,78871,1,0
384,192,79344,1,0
416,160,79581,1,0
448,192,79817,1,8
448,256,80290,5,0
384,256,80763,1,0
320,256,81236,1,0
288,288,81473,1,0
320,320,81709,1,8
256,320,82182,5,0
192,320,82655,1,0
128,320,83128,1,0
160,288,83364,1,0
128,256,83601,1,8
128,192,84074,5,0
128,128,84547,1,0
128,64,84783,2,4,L|176:64,8,35
256,64,85965,5,0
288,96,86202,1,0
320,128,86438,1,0
352,160,86793,2,8,B|416:224|496:112,1,175
480,96,87857,1,0
480,128,88330,1,0
480,160,88803,1,0
480,192,89039,2,8,B|384:160|384:256,3,140
416,224,90695,5,0
384,224,90931,1,0
352,224,91167,1,0
320,224,91404,1,0
288,224,91640,5,0
256,224,91877,1,0
224,224,92113,1,0
192,224,92350,1,0
192,256,92586,1,0
192,288,92823,1,0
160,320,93059,1,0
128,320,93296,1,0
128,288,93532,5,0
96,256,93769,1,0
128,224,94005,1,0
160,192,94241,1,0
128,160,94478,1,0
128,128,94714,1,0
128,96,94951,2,2,B|144:-16|176:112,1,105
192,96,96133,5,0
224,96,96370,1,0
256,96,96606,1,0
288,96,96843,1,0
320,96,97079,1,0
352,96,97316,1,0
352,128,97552,2,0,B|272:256|144:192,1,210
112,176,98380,1,8
96,192,98498,1,0
80,208,98616,1,0
80,240,98734,1,0
96,256,98971,2,8,B|320:128,2,210
96,224,100508,2,0,B|96:128,1,140
256,192,101099,12,0,104885
256,192,105355,5,0
288,192,105592,1,0
320,192,105828,1,0
352,192,106065,2,0,B|352:144|224:144,1,140
224,112,106774,1,0
176,112,106892,2,0,B|176:336,1,210
176,322,107720,1,0
208,320,107956,1,0
240,320,108193,1,0
272,320,108429,1,0
368,320,108666,5,0
432,320,109139,2,0,B|432:64,1,245
432,75,110084,1,0
432,75,110203,1,0
368,80,110557,1,0
304,80,111030,1,0
272,80,111385,1,0
256,80,111503,1,0
224,80,111740,1,0
224,112,111976,1,0
224,144,112213,1,8
256,192,112449,5,8
288,192,112686,1,0
320,192,112922,1,0
320,160,113158,1,0
256,128,113395,1,0
256,96,113631,1,0
288,96,113868,1,0
320,128,114341,2,8,B|384:224|416:128,1,140
432,96,115050,1,0
400,64,115287,1,0
400,32,115523,2,0,B|496:-16|464:128,1,140
448,128,116233,2,0,B|192:352,2,280
128,320,118834,5,0
128,288,119070,1,0
128,256,119307,1,0
128,224,119543,1,0
128,192,119779,1,0
128,160,120016,2,0,B|128:32|192:32|256:32|256:160,1,280
304,160,121198,2,0,B|368:224|304:288|240:224|192:160,1,210
192,160,122617,1,8
256,160,122853,1,8
256,32,123563,1,2
320,32,123799,6,0,B|320:256,1,210
384,224,124745,1,0
384,128,124982,1,0
384,96,125100,1,0
384,32,125455,1,2
448,32,125691,2,0,B|448:256,1,210
256,256,126637,1,0
320,256,126873,1,0
352,256,126992,1,0
416,256,127346,1,2
448,320,127583,2,0,B|224:320,1,210
208,352,128529,2,2,B|64:352|64:304|176:304,1,175
160,304,129474,2,0,B|160:16,1,280
224,32,130657,1,4
224,32,130775,1,4
224,32,130893,1,4
224,32,131011,1,4
224,32,131130,1,4
256,32,131366,2,8,L|256:192,15,140
304,176,138933,1,4
336,176,139169,1,4
368,176,139406,1,4
400,176,139642,2,6,L|432:176|432:240|400:240,1,140,14|6
