osu file format v6

[General]
AudioFilename: Osu SRB2 Egg Rock Zone 1.mp3
AudioLeadIn: 3000
PreviewTime: -1
Countdown: 1
SampleSet: Soft
StackLeniency: 0.7
Mode: 0
LetterboxInBreaks: 1

[Editor]
Bookmarks: 17916,32091,69232,78393,99183,131311
DistanceSpacing: 0.800000011920929
BeatDivisor: 1
GridSize: 32

[Metadata]
Title:SRB2 Egg Rock Zone
Artist:Sonic Team Jr.
Creator:Invert Tails Prower
Version:Easy
Source:
Tags:

[Difficulty]
HPDrainRate:5
CircleSize:6
OverallDifficulty:3
SliderMultiplier:0.7
SliderTickRate:1

[Events]
//Background and Video events
0,0,"srb20005.png"
//Break Periods
2,76234,82634
2,99405,107226
//Storyboard Layer 0 (Background)
//Storyboard Layer 1 (Fail)
//Storyboard Layer 2 (Pass)
//Storyboard Layer 3 (Foreground)
//Storyboard Sound Samples
//Background Colour Transformations
3,100,163,162,255

[TimingPoints]
2731,472.925041380941,4,2,0,100,1,0

[HitObjects]
192,192,2735,1,0
320,192,3681,1,0
448,192,4627,1,0
320,192,5573,1,0
192,192,6519,1,0
320,192,7465,1,0
448,192,8411,1,0
352,192,9357,1,0
287,189,10303,5,0
224,128,11250,1,0
288,128,12196,1,0
288,192,13142,1,0
224,192,14088,1,0
224,128,15034,1,0
288,192,15980,1,0
384,192,16926,1,0
256,192,17872,5,0
320,256,18337,1,0
256,256,18818,1,0
192,256,19283,1,0
192,192,19764,1,0
128,192,20229,1,0
128,128,20710,1,0
64,128,21175,1,0
64,192,21656,1,0
128,256,22120,1,0
192,192,22602,1,0
128,192,23066,1,0
128,128,23549,1,0
192,128,24012,1,0
192,64,24495,1,0
128,64,24958,1,0
64,64,25431,5,0
64,128,25904,1,0
64,192,26377,1,0
160,192,26850,1,0
160,128,27323,1,0
160,64,27796,1,0
256,64,28268,1,0
256,128,28741,1,0
256,192,29225,1,0
352,192,29687,1,0
352,128,30171,1,0
352,64,30633,1,0
448,64,31117,1,0
448,128,31579,1,0
448,192,32063,1,0
448,256,32525,1,0
96,32,33009,6,0,B|384:32,1,280
224,32,35835,1,0
96,96,36781,2,0,B|384:96,1,280
160,192,39619,1,0
256,192,40565,2,0,B|416:192,1,140
416,256,42456,5,0
320,256,43402,1,0
320,192,44348,1,0
224,192,45294,1,0
160,160,48131,2,0,B|256:32,2,140
352,160,51915,1,0
320,96,52861,1,0
288,160,53806,1,0
192,192,54752,1,0
192,96,55698,5,0
192,160,56644,2,0,B|320:160|320:160,1,70
288,224,57590,1,0
160,224,58536,1,0
160,128,59482,1,0
256,96,61373,2,0,B|288:160,1,140
96,160,63265,5,0
160,160,64211,1,0
224,160,65157,1,0
288,160,66102,1,0
352,160,67048,5,0
352,224,67994,1,0
352,288,68940,1,0
288,288,69886,1,0
224,288,70832,5,0
160,288,71305,1,0
96,288,71778,1,0
32,224,72250,1,0
96,192,72723,5,0
160,192,73196,1,0
224,192,73669,1,0
192,128,74142,1,0
256,128,74615,5,0
320,128,75088,1,0
384,128,75561,1,0
384,192,76034,1,0
352,192,84074,5,0
128,256,85019,1,0
256,128,85965,1,0
256,192,87857,1,0
352,128,89749,5,0
224,128,90695,1,0
288,96,91640,1,0
352,160,92586,1,0
320,160,93532,5,0
256,224,94478,1,0
384,224,95424,1,0
256,208,95897,12,0,99205
256,192,108666,5,0
256,128,109612,1,0
320,128,110557,1,0
224,160,111503,1,0
128,224,112449,1,0
192,160,113395,1,0
224,224,114341,1,0
128,128,115287,1,0
128,192,116233,6,0,B|416:192|384:64,1,350
288,160,120016,5,0
224,160,120962,1,0
160,160,121908,1,0
96,192,122853,1,0
160,192,123799,5,0
224,192,124272,1,0
288,192,124745,1,0
352,192,125218,1,0
416,192,125691,5,0
480,192,126164,1,0
480,256,126637,1,0
480,320,127110,1,0
416,320,127583,5,0
352,320,128056,1,0
288,320,128529,1,0
288,256,129001,1,0
288,160,129474,5,0
288,96,129947,1,0
352,96,130420,1,0
416,96,130893,1,0
416,160,131366,5,0
352,192,132312,1,0
256,192,133258,1,0
320,128,134204,1,0
320,192,135150,1,0
256,192,136095,1,0
192,192,137041,1,0
192,64,137987,1,0
256,128,138933,5,0
384,128,139879,1,0
320,192,140825,1,0
256,128,141770,1,0
192,192,142716,1,0
192,256,143662,1,0
256,256,144608,1,0
320,320,145554,1,0
