osu file format v5

[General]
AudioFilename: sonic-cd-32-opening-sonic-boom.mp3
AudioLeadIn: 0
PreviewTime: -1
Countdown: 0
SampleSet: Normal
StackLeniency: 0.7
Mode: 0

[Metadata]
Title:Sonic Boom - Opening
Artist:Sonic Team - Pastiche
Creator:buraimaster1234
Version:Normal
Source:
Tags:

[Difficulty]
HPDrainRate:2
CircleSize:3
OverallDifficulty:4
SliderMultiplier:1
SliderTickRate:0.5

[Events]
//Background and Video events
0,0,"Sonic Boom.jpg"
1,-859,"soniccd_intro.avi"
//Break Periods
//Storyboard Layer 0 (Background)
//Storyboard Layer 1 (Failing)
//Storyboard Layer 2 (Passing)
//Storyboard Layer 3 (Foreground)
//Storyboard Sound Samples
//Background Colour Transformations
3,100,163,162,255

[TimingPoints]
4246,320.855614973262,4,1,0,100

[HitObjects]
96,64,4245,1,0
256,64,4887,1,0
416,64,5529,5,0
416,224,6171,1,0
256,224,6812,2,0,B|128:224,1,100
96,224,7454,1,2
96,64,8096,5,0
256,64,8737,2,2,L|384:64,1,100
416,64,9379,5,0
416,224,10021,1,0
336,224,10342,1,2
256,224,10663,5,4
96,224,11304,1,4
96,64,11946,5,0
176,64,12267,5,4
256,64,12588,5,0
336,64,12909,5,6
416,64,13229,1,0
416,256,13871,5,0
288,256,14352,1,0
352,192,15155,1,0
352,320,15636,1,2
160,320,16438,5,2
160,192,16919,1,4
224,128,17240,1,0
288,192,17561,1,4
352,128,17882,1,4
416,192,18203,2,4,L|416:320|288:320,1,250
192,320,19486,1,4
96,256,20288,5,0
96,176,20609,1,2
96,96,20930,1,4
256,128,21572,1,0
256,208,21893,1,2
256,192,22053,12,0,23336
288,96,24139,5,4
160,96,24620,1,0
64,192,25423,1,4
192,192,25903,1,4
320,288,26706,5,0
160,288,27187,1,4
256,256,27508,1,2
160,160,28149,1,2
256,192,28470,1,4
288,96,29272,5,0
160,96,29754,1,0
160,96,30074,2,6,L|160:256,1,150
160,320,30877,1,0
352,64,31839,1,0
352,64,32160,1,0
256,96,32481,5,2
256,224,32962,1,2
256,304,33283,1,2
256,224,33604,1,2
320,320,34406,5,0
192,320,34887,2,4,L|64:320|64:192,1,250
192,224,36171,2,4,L|320:224|320:96,1,250
224,160,37454,2,4,L|128:160|128:192|32:192,1,200
32,128,38416,1,4
104,96,38737,1,2
184,96,39058,1,6
288,96,39539,5,0
384,96,40021,2,4,L|480:96|480:192|416:192,1,250
320,192,41304,2,4,L|224:192|224:288|288:288,1,250
384,288,42588,2,4,L|448:288|480:224|352:192,1,250
256,192,43871,1,6
160,192,44192,1,6
64,192,44512,1,6
160,192,44833,1,6
208,192,44994,6,0,L|272:192,2,50
192,96,45795,1,6
272,96,46117,1,2
416,112,46598,1,2
416,192,46919,1,4
416,272,47240,1,2
320,192,47881,5,2
240,192,48203,1,0
160,192,48524,1,2
80,192,48844,1,4
64,256,49486,1,4
64,176,49807,1,2
192,96,50449,6,2,L|320:96,1,100
352,128,51090,2,2,L|352:256,1,100
288,256,51732,2,6,L|160:256,1,100
128,224,52374,2,6,L|128:96,1,100
256,192,52855,12,0,54620
416,192,54940,1,2
288,192,55421,1,4
96,192,56224,1,2
224,192,56705,1,4
320,64,57507,1,2
192,160,57988,1,4
288,128,58309,1,2
288,256,58951,1,2
192,224,59272,1,4
224,320,59753,1,2
320,320,60074,1,4
416,256,60555,1,6
416,160,60877,6,6,L|160:160,1,250
64,160,61999,1,4
64,256,62320,2,6,L|64:320|224:320,1,200
256,192,63122,12,2,64566
96,224,65208,1,0
96,96,65689,2,4,L|256:96,1,150
256,192,66491,5,0
256,320,66973,2,4,L|416:320,1,150
416,224,67774,5,0
352,128,68417,2,6,L|192:128,2,150
352,208,69700,2,2,B|288:272|224:208,1,100
192,224,70341,5,0
128,160,70823,2,6,L|192:96|256:160,1,150
288,192,71625,5,0
224,256,72106,2,6,L|288:320|352:256,1,150
384,224,72908,1,6
320,96,73550,2,6,L|96:96,2,200
320,224,75475,5,0
192,224,75957,2,4,L|32:224,1,150
64,144,76759,1,0
192,144,77240,2,4,L|352:144,1,150
416,144,78042,1,0
256,192,78363,12,0,80288
256,192,80609,2,4,L|128:192,2,100
256,192,81893,2,4,L|256:64,2,100
256,192,83176,2,4,L|384:192,2,100
256,192,83978,12,4,86224
