osu file format v4

[General]
AudioFilename: 12-ice_cap_act_1.mp3
AudioLeadIn: 0
AudioHash: 641a42236d6ca49c390617607f244396
PreviewTime: -1
Countdown: 1
SampleSet: Normal
EditorBookmarks: 111087,123237

[Metadata]
Title:Ice Cap Act 1
Artist:Sonic Team
Creator:MetalSonic3
Version:Normal

[Difficulty]
HPDrainRate:3
CircleSize:5
OverallDifficulty:6
SliderMultiplier: 1.1
SliderTickRate: 2

[Events]
//Background and Video events
0,-100000,"icecap11.png"
//Break Periods
//Storyboard Layer 0 (Background)
//Storyboard Layer 1 (Failing)
//Storyboard Layer 2 (Passing)
//Storyboard Layer 3 (Foreground)
//Storyboard Sound Samples
//Background Colour Transformations
3,100,140,221,255

[TimingPoints]
6890,433.839479392625,4,1,0,100

[Colours]
Combo1 : 0,0,255
Combo2 : 255,255,255
Combo3 : 0,255,255
Combo4 : 0,128,255

[HitObjects]
128,96,6890,1,0
128,160,7323,1,0
192,192,7757,1,0
192,256,8191,1,0
128,288,8625,1,0
128,352,9059,1,0
224,288,9493,1,0
224,352,9926,1,0
320,224,10360,1,0
320,160,10794,1,0
320,96,11228,1,0
256,96,11662,1,0
224,160,12096,1,0
32,128,13831,5,0
96,128,14265,1,0
32,224,14699,1,0
96,224,15132,1,0
128,288,15566,1,0
192,288,16000,1,0
224,224,16434,1,0
160,224,16868,1,0
128,160,17302,1,0
192,160,17735,1,0
224,96,18169,1,0
288,96,18603,1,0
320,160,19037,1,0
128,288,20772,5,0
128,224,21206,1,0
224,288,21640,1,0
224,224,22074,1,0
320,288,22508,1,0
320,224,22942,1,0
320,160,23375,1,0
320,96,23809,1,0
224,128,24243,1,0
224,64,24677,1,0
128,160,25111,1,0
128,224,25545,1,0
224,224,25978,1,0
64,96,27714,5,0
64,160,28148,1,0
128,160,28581,1,0
224,160,29449,1,0
224,192,29666,1,0
224,224,29883,1,0
256,224,30100,1,0
288,224,30317,1,0
352,256,31185,5,0
288,256,31618,1,0
224,256,32052,1,0
288,160,32920,2,0,B|288:160|192:32|64:160,1,220
224,256,34655,5,0
288,256,35089,1,0
352,256,35523,1,0
352,128,36391,1,0
320,128,36608,1,0
288,128,36824,1,0
288,96,37041,1,0
288,64,37258,1,0
224,224,38126,5,0
160,256,38560,1,0
96,224,38994,1,0
160,128,39861,2,0,B|160:128|288:96|352:224,1,220
256,32,41597,6,0,B|256:32|384:128|192:192|416:320,1,330
392,306,43332,2,0,B|392:306|288:352|160:388|267:231|64:288,1,330
64,192,45067,6,0,B|64:192|64:64|160:96|192:224|320:96,1,330
317,98,46803,2,0,B|317:98|425:267|58:64|288:352|128:288,1,330
64,192,48538,6,0,B|64:192|128:32|160:224|320:288,1,330
304,281,50273,2,0,B|304:281|480:224|288:128|192:192|224:64,1,330
320,32,52009,6,0,B|320:32|448:128|224:96|224:320,1,330
224,298,53744,2,0,B|224:298|96:224|320:192|128:64|32:192,1,330
96,224,55480,5,0
96,160,55913,1,0
96,96,56347,1,0
192,96,57215,1,0
224,96,57432,1,0
256,96,57649,1,0
256,128,57866,1,0
256,160,58083,1,0
320,288,58950,6,0,B|320:288|160:288,2,110
256,224,60686,1,0
384,64,62421,5,0
320,64,62855,1,0
256,64,63289,1,0
256,160,64156,1,0
224,160,64373,1,0
192,160,64590,1,0
192,192,64807,1,0
192,224,65024,1,0
320,320,65892,6,0,B|320:320|416:224,2,110
288,224,67627,1,0
352,64,69362,5,0
352,128,69796,1,0
352,192,70230,1,0
224,192,71098,1,0
192,192,71315,1,0
160,192,71532,1,0
160,160,71749,1,0
160,128,71965,1,0
192,320,72833,6,0,B|192:320|352:320,2,110
192,224,74568,1,0
128,192,76304,5,0
192,192,76738,1,0
256,192,77171,1,0
256,320,78039,1,0
288,320,78256,1,0
320,320,78473,1,0
320,288,78690,1,0
320,256,78907,1,0
96,128,79775,6,0,B|96:128|96:256,2,110
192,64,81510,1,0
160,192,83245,5,0
160,256,83679,1,0
256,256,84113,1,0
256,192,84547,1,0
352,192,84981,1,0
352,256,85414,1,0
448,256,85848,1,0
448,192,86282,1,0
448,128,86716,1,0
384,128,87150,1,0
320,128,87584,1,0
256,128,88017,1,0
192,128,88451,1,0
96,352,90187,5,0
96,288,90621,1,0
192,352,91054,1,0
192,288,91488,1,0
288,352,91922,1,0
288,288,92356,1,0
288,224,92790,1,0
224,224,93224,1,0
160,224,93657,1,0
160,160,94091,1,0
160,96,94525,1,0
224,96,94959,1,0
288,96,95393,1,0
352,320,97128,5,0
288,320,97562,1,0
224,320,97996,1,0
224,256,98430,1,0
224,192,98863,1,0
160,192,99297,1,0
96,192,99731,1,0
96,256,100165,1,0
96,320,100599,1,0
160,256,101033,1,0
224,192,101467,1,0
288,192,101900,1,0
352,192,102334,1,0
384,64,104070,5,0
384,128,104503,1,0
384,192,104937,1,0
384,256,105371,1,0
288,256,105805,1,0
288,192,106239,1,0
288,128,106673,1,0
288,64,107106,1,0
192,64,107540,1,0
192,128,107974,1,0
192,192,108408,1,0
192,256,108842,1,0
128,192,109276,1,0
128,96,111011,6,0,B|128:96|128:224,3,110
192,192,112746,6,0,B|192:192|192:64,3,110
256,96,114482,6,0,B|256:96|256:256,3,110
320,160,116217,5,0
416,96,117952,6,0,B|416:96|256:96,3,110
320,160,119688,6,0,B|320:160|160:160,3,110
224,224,121423,6,0,B|224:224|96:224,3,110
96,160,123158,5,0
