osu file format v4

[General]
AudioFilename: Green Hill.mp3
AudioLeadIn: 0
AudioHash: 6d7be3222b4a230e61340e4f9e316e3f
PreviewTime: -1
SampleSet: Soft

[Metadata]
Title:Green Hill Zone
Artist:Sonic Team
Creator:RadioShadow
Version:Insane

[Difficulty]
HPDrainRate:6
CircleSize:5
OverallDifficulty:7
SliderMultiplier: 1.7
SliderTickRate: 2

[Events]
0,0,"picture.jpg"
2,39441,52178
2,78045,90562
3,0,163,162,255

[TimingPoints]
1.578,399.786780383795,4,2,1

[HitObjects]
416,288,15193,5,0,
416,288,15393,1,0,
352,320,15793,1,2,
352,320,15993,2,2,B|352:320|160:320,1,170
128,320,16992,1,4,
224,224,18391,5,0,
224,224,18791,2,2,B|224:224|416:224,2,170
160,224,20190,1,4,
224,160,21590,6,0,B|224:160|256:64|384:0|512:64|535:173,1,340
448,160,22989,1,4,
448,160,23389,1,4,
416,256,24788,5,0,
320,320,25388,1,4,
256,256,25987,1,2,
256,256,26187,2,4,B|256:256|320:96,1,170
384,64,27986,6,2,B|384:64|448:96|480:160,1,85
448,192,28786,1,4,
448,288,29385,2,2,B|448:288|384:320|256:352,1,170
147,343,31184,6,4,B|147:343|51:311|-13:183|51:55|160:32,1,340
160,32,32584,1,2,
160,32,32983,1,2,
256,128,34383,5,0,
256,128,34583,2,0,B|256:128|433:135|444:178|256:256|216:329|352:320|480:320,1,425
256,192,37381,12,0,39180
256,192,53573,12,0,55372
352,288,56371,5,2,
288,288,56771,1,2,
288,288,56971,1,2,
224,256,57370,1,2,
224,256,57570,1,2,
160,224,57970,1,2,
160,224,58170,2,2,B|160:224|32:32,1,170
160,96,59569,5,4,
224,96,59969,1,4,
224,96,60169,1,4,
288,128,60568,1,4,
288,128,60768,1,4,
352,160,61168,1,4,
352,160,61368,2,4,B|352:160|480:352,1,170
480,352,62768,5,2,
448,256,63167,2,2,B|448:256|448:96|320:64|152:320|90:239|64:96,1,510
32,32,64966,1,2,
256,192,66566,12,0,68365
448,288,69564,5,0,
416,192,70164,1,2,
320,128,70763,1,2,
320,128,70963,1,2,
256,224,71363,1,4,
160,320,72762,5,0,
96,256,73362,1,0,
64,160,74162,1,0,
64,160,74561,1,0,
64,64,75961,6,2,B|64:64|192:64|214:112|172:246|235:359|480:352,1,510
512,352,77760,1,4,
320,64,91952,1,2,
320,64,92152,1,2,
416,64,92552,1,0,
416,64,92752,2,0,B|416:64|448:64|512:160|512:224|448:320|489:324|369:348|260:346|238:335|224:320,1,425
64,64,95150,5,0,
64,64,95350,1,0,
160,96,95950,2,2,B|160:96|388:83|223:302|386:360|480:320|512:352,1,425
256,192,98149,12,4,100747
