osu file format v9

[General]
AudioFilename: myzuka.ru_6._Sonic_Syndicate_-_Only_Inhuman_-_Denied.mp3
AudioLeadIn: 2493
PreviewTime: -1
Countdown: 1
SampleSet: Normal
StackLeniency: 0.7
Mode: 0
LetterboxInBreaks: 1

[Editor]
DistanceSpacing: 1
BeatDivisor: 4
GridSize: 4

[Metadata]
Title:Denied
Artist:Sonic Syndicate
Creator:ToXIKoN
Version:MITOOOL
Source:
Tags:

[Difficulty]
HPDrainRate:6
CircleSize:5
OverallDifficulty:7
ApproachRate:8
SliderMultiplier:2.2
SliderTickRate:2

[Events]
//Background and Video events
0,0,"Sonic-Syndicate-55-6.jpg"
//Break Periods
//Storyboard Layer 0 (Background)
//Storyboard Layer 1 (Fail)
//Storyboard Layer 2 (Pass)
//Storyboard Layer 3 (Foreground)
//Storyboard Sound Samples
//Background Colour Transformations
3,100,163,162,255

[TimingPoints]
990,300,4,1,1,70,1,0
49440,-142.857142857143,4,1,1,70,0,0

[Colours]
Combo1 : 128,0,0
Combo2 : 0,0,0
Combo3 : 0,0,128

[HitObjects]
256,192,15,12,0,990
96,32,1290,6,0,B|48:96|48:96|32:208|32:208|48:256,1,220
40,233,1740,1,0
40,232,1890,6,0,B|120:232|120:232|232:216|232:216|280:232,1,220
257,224,2340,1,0
257,224,2490,1,0
257,224,2640,1,0
257,224,2790,6,0,B|352:216|352:216|416:152|416:152|432:104,1,220
426,119,3390,1,0
432,56,3690,6,0,B|360:192|296:232,1,220
360,64,4290,2,0,B|320:152|256:200|200:224,1,220
288,72,4890,2,0,B|224:144|176:176|128:192|96:192,1,220
108,191,5340,1,0
108,191,5490,1,0
24,96,6090,6,0,B|96:232|160:272,1,220
96,104,6690,2,0,B|136:192|200:240|256:264,1,220
168,112,7290,2,0,B|232:184|280:216|328:232|360:232,1,220
347,231,7740,1,0
347,231,7890,1,0
347,231,8190,1,0
392,72,8790,6,0,B|256:256,1,220
128,72,9390,6,0,B|264:256,1,220
258,248,9990,1,0
258,248,10065,1,0
258,248,10140,1,0
258,248,10215,1,0
258,248,10290,1,0
258,248,10365,1,0
258,248,10440,1,0
258,248,10515,1,0
258,248,10590,1,0
16,80,10890,6,0,B|48:176|88:224|136:260|184:284|240:300|300:304|352:296,1,385
355,295,11790,6,0,B|312:136|196:88,1,220
355,295,12390,2,0,B|392:168|280:64,1,220
355,295,12990,2,0,B|416:148|352:36,1,220
56,84,13590,5,0
72,104,13665,1,0
92,128,13740,1,0
120,144,13815,1,0
148,148,13890,1,0
176,152,13965,1,0
204,152,14040,1,0
232,152,14115,1,0
256,140,14190,1,0
256,140,14490,5,0
256,168,14565,1,0
240,192,14640,1,0
208,208,14715,1,0
172,208,14790,1,0
256,140,15090,1,0
256,168,15165,1,0
272,188,15240,1,0
300,200,15315,1,0
332,200,15390,1,0
256,140,15690,1,0
272,116,15765,1,0
300,104,15840,1,0
336,100,15915,1,0
368,104,15990,1,0
368,104,16140,1,0
368,104,16290,1,0
256,32,16590,5,0
44,280,16890,1,0
448,252,17190,1,0
60,52,17490,1,0
464,40,17790,1,0
148,316,18090,1,0
16,120,18390,6,0,B|60:192|104:212,1,110
87,202,18690,2,0,B|168:224|208:216,1,110
195,217,18990,2,0,B|288:224|344:196,1,110
305,210,19290,2,0,B|400:172|440:116|448:52,1,220
420,48,19665,1,0
392,48,19740,1,0
368,60,19815,1,0
348,76,19890,1,0
336,100,19965,1,0
328,128,20040,1,0
328,156,20115,1,0
332,184,20190,1,0
100,48,20790,6,0,B|100:108|100:108|40:136,2,110
100,48,21240,1,0
100,48,21390,2,0,B|140:96|140:96|200:72,2,110
100,48,21840,1,0
100,48,21990,1,0
100,48,22140,1,0
100,48,22290,1,0
100,48,22590,1,0
408,24,23190,6,0,B|376:152|376:152|312:208|312:208|308:208,1,220
220,148,23640,6,0,B|280:208|336:212,1,110
208,176,23940,6,0,B|288:220|332:200,1,110
204,208,24240,6,0,B|300:240|348:180,1,110
311,209,24690,5,0
311,209,24765,1,0
311,209,24840,1,0
311,209,24915,1,0
311,209,24990,1,0
311,209,25065,1,0
311,209,25140,1,0
311,209,25215,1,0
311,209,25290,1,0
164,136,25590,6,0,B|236:152|260:204,1,110
220,92,25890,6,0,B|264:128|252:212,1,110
296,96,26190,6,0,B|300:152|232:216,1,110
348,144,26490,6,0,B|312:188|228:200,1,110
164,248,26790,6,0,B|236:232|260:180,1,110
220,292,27090,6,0,B|264:256|252:172,1,110
296,288,27390,6,0,B|300:232|232:168,1,110
348,240,27690,6,0,B|312:196|228:184,1,110
253,188,27990,5,0
253,169,28140,1,0
253,149,28290,1,0
56,48,28590,1,0
252,132,28890,1,0
456,48,29190,1,0
256,192,29490,12,0,30090
72,33,30390,6,0,B|72:117|72:117|84:161|84:161|124:217|124:217|156:229,1,220
144,224,30840,1,0
144,224,30990,6,0,B|220:224|220:224|256:256|292:228|292:228|360:228|360:228|360:228,1,220
360,228,31440,1,0
364,228,31590,6,0,B|384:220|384:220|424:164|424:164|436:120|436:120|436:36,1,220
436,36,31965,1,0
436,36,32040,1,0
436,36,32115,1,0
436,36,32190,1,0
436,36,32265,1,0
436,36,32340,1,0
436,36,32415,1,0
436,36,32490,1,0
64,40,32790,5,0
100,236,33090,2,0,B|183:235|224:164|224:164|224:80,1,220
448,40,33690,5,0
412,236,33990,2,0,B|328:235|288:164|288:164|288:80,1,220
288,93,34440,1,0
288,93,34590,1,0
32,32,34890,6,0,B|104:72|32:168|160:148|88:260,1,220
480,32,35490,6,0,B|408:72|480:168|352:148|424:260,1,220
480,352,36090,6,0,B|408:312|408:312|480:216|352:236|352:236|348:232,1,220
32,352,36690,6,0,B|104:312|104:312|32:216|160:236|160:236|160:236,1,220
141,233,37290,6,0,B|120:172|200:176|136:128,2,110
140,236,37890,6,0,B|201:214|197:294|245:230,2,110
140,232,38490,6,0,B|161:293|81:289|145:337,2,110
140,232,38940,1,0
140,232,39090,1,0
140,232,39165,5,0
152,200,39240,1,0
156,168,39315,1,0
152,140,39390,1,0
140,112,39465,1,0
120,88,39540,1,0
96,72,39615,1,0
68,60,39690,1,0
256,44,39990,5,0
256,104,40140,1,0
256,164,40290,1,0
256,164,40590,6,0,B|296:344|500:324|320:16,2,440
256,164,41865,1,0
256,164,41940,1,0
256,164,42015,1,0
256,164,42090,6,0,B|216:344|12:324|192:16,2,440
256,164,43440,1,0
256,164,43590,1,0
256,164,43740,1,0
256,164,43890,1,0
256,164,44040,6,0,B|260:84|152:56|124:208|280:336,1,330
36,60,45090,6,0,B|52:128|108:184,1,110
84,157,45390,2,0,B|140:216|196:232,1,110
172,223,45690,2,0,B|244:248|300:236,1,110
280,239,45990,2,0,B|384:232|428:144|388:68|284:48|200:140|256:172|308:184,1,330
267,164,46590,1,0
244,152,46665,1,0
216,148,46740,1,0
188,152,46815,1,0
160,160,46890,2,0,B|120:124|120:124|152:80,2,110
160,160,47490,6,0,B|205:200|205:200|173:240,2,110
160,160,48090,6,0,B|205:120|205:120|173:80,4,110
256,192,48990,12,0,49290
64,40,49590,6,0,B|76:88|128:112,4,76.999998164177
64,40,50490,2,0,B|96:120|148:168|268:204|328:204,1,307.999992656708
308,204,51390,2,0,B|360:141|312:117,4,76.999998164177
308,204,52290,2,0,B|256:256|208:228,1,76.999998164177
241,237,52590,2,0,B|148:232|88:168,1,153.999996328354
101,181,53190,6,0,B|68:152|68:152|80:112,1,76.999998164177
76,120,53490,2,0,B|102:90|102:90|158:106,1,76.999998164177
140,100,53790,2,0,B|200:90|200:90|232:142|304:110,1,153.999996328354
256,28,54690,6,0,B|256:136|256:136|204:136|184:200|204:256|232:276|232:276|256:276,1,307.999992656708
256,276,55440,1,0
256,276,55590,1,0
256,276,55890,1,0
256,44,56490,6,0,B|256:136,1,76.999998164177
256,121,56790,2,0,B|220:192,1,76.999998164177
256,121,57090,2,0,B|292:192,1,76.999998164177
256,260,57390,2,0,B|220:189,1,76.999998164177
256,260,57690,2,0,B|292:189,1,76.999998164177
256,192,57990,12,0,58590
