osu file format v11

[General]
AudioFilename: Sonic Syndicate - Denied.mp3
AudioLeadIn: 0
PreviewTime: 68498
Countdown: 0
SampleSet: Normal
StackLeniency: 0.7
Mode: 0
LetterboxInBreaks: 1

[Editor]
DistanceSpacing: 1.1
BeatDivisor: 4
GridSize: 4

[Metadata]
Title:Denied
TitleUnicode:Denied
Artist:Sonic Syndicate
ArtistUnicode:Sonic Syndicate
Creator:P o M u T a
Version:Normal
Source:
Tags:Only Inhuman Nuclear Blast Warner Sweden Tshemmp
BeatmapID:198925
BeatmapSetID:67895

[Difficulty]
HPDrainRate:4
CircleSize:3
OverallDifficulty:4
ApproachRate:5
SliderMultiplier:0.799999999999999
SliderTickRate:1

[Events]
//Background and Video events
0,0,"new_Sonic-Syndicate-55-6.jpg"
//Break Periods
2,87973,91373
2,174373,180173
//Storyboard Layer 0 (Background)
//Storyboard Layer 1 (Fail)
//Storyboard Layer 2 (Pass)
//Storyboard Layer 3 (Foreground)
//Storyboard Sound Samples
//Background Colour Transformations
3,100,163,162,255

[TimingPoints]
20573,300,4,1,1,60,1,0
30173,-100,4,1,1,65,0,0
39773,-100,4,1,1,70,0,0
49373,-100,4,1,1,80,0,0
68573,-100,4,1,1,80,0,1
87773,-100,4,1,1,80,0,0
92573,-100,4,1,1,65,0,0
97373,-100,4,1,1,70,0,0
106973,-100,4,1,1,75,0,0
116573,-100,4,1,1,80,0,1
135773,-100,4,1,1,70,0,0
164573,-100,4,1,1,75,0,0
183773,-100,4,1,1,80,0,1
202973,-100,4,1,1,80,0,0
222773,-100,4,1,1,40,0,0
223373,-100,4,1,1,30,0,0
223973,-100,4,1,1,20,0,0
224573,-100,4,1,1,5,0,0

[Colours]
Combo1 : 0,128,128
Combo2 : 255,98,98
Combo3 : 241,121,255

[HitObjects]
228,132,20573,2,0,P|308:108,2,79.9999999999999,4|8|0,0:0|0:0|0:0,0:0:0
96,248,21773,2,0,P|68:300|8:344,2,120,0|0|8,0:0|0:0|0:0,0:0:0
100,160,22973,5,0,0:0:0
132,80,23273,2,0,P|164:56|204:48,1,79.9999999999999,8|0,0:0|0:0,0:0:0
380,40,24173,2,0,P|504:40,2,120,0|0|8,0:0|0:0|0:0,0:0:0
300,76,25373,5,0,0:0:0
360,140,25673,2,0,P|396:160|416:192,1,79.9999999999999,8|0,0:0|0:0,0:0:0
292,316,26573,2,0,P|236:343|180:335,2,120,0|0|8,0:0|0:0|0:0,0:0:0
320,232,27773,6,0,P|320:148,1,79.9999999999999,0|8,0:0|0:0,0:0:0
232,152,28373,2,0,P|232:232,1,79.9999999999999,0|8,0:0|0:0,0:0:0
232,320,28973,2,0,P|176:344|116:352,2,120,0|0|8,0:0|0:0|0:0,0:0:0
284,248,30173,6,0,P|356:216|436:208,1,160,4|0,0:0|0:0,0:0:0
364,48,31373,2,0,P|312:72|248:80,2,120,0|0|8,0:0|0:0|0:0,0:0:0
448,28,32573,6,0,P|448:192,1,160
352,336,33773,2,0,P|292:316|236:308,2,120,0|0|8,0:0|0:0|0:0,0:0:0
388,256,34973,6,0,P|332:188|308:120,1,160,4|0,0:0|0:0,0:0:0
156,32,36173,2,0,P|32:32,2,120,0|0|8,0:0|0:0|0:0,0:0:0
232,76,37373,5,0,0:0:0
364,192,37973,1,0,0:0:0
232,308,38573,2,0,P|112:308,2,120,0|0|8,0:0|0:0|0:0,0:0:0
320,292,39773,6,0,P|396:264|444:204,1,160
356,52,40973,2,0,P|248:108,2,120,0|0|8,0:0|0:0|0:0,0:0:0
436,88,42173,6,0,P|396:152|396:236,1,160
220,260,43373,2,0,P|240:312|296:356,2,120,0|0|8,0:0|0:0|0:0,0:0:0
136,280,44573,6,0,P|108:208|52:148,1,160
192,40,45773,2,0,P|220:112|276:172,1,160
408,280,46973,5,0,0:0:0
408,104,47573,1,0,0:0:0
256,192,48173,2,0,P|132:192,2,120,0|0|8,0:0|0:0|0:0,0:0:0
336,228,49373,6,0,P|360:248|405:267,1,79.9999999999999,4|0,0:0|0:0,0:0:0
472,324,49973,2,0,P|496:292|496:252,1,79.9999999999999,8|0,0:0|0:0,0:0:0
448,180,50573,2,0,P|384:136|348:64,1,160,0|8,0:0|0:0,0:0:0
172,64,51773,6,0,P|136:136|72:180,2,160,0|8|0,0:0|0:0|0:0,0:0:0
256,216,53573,2,0,P|256:296,1,79.9999999999999,8|0,0:0|0:0,0:0:0
336,332,54173,6,0,P|368:256|424:204,1,160,0|8,0:0|0:0,0:0:0
260,140,55373,2,0,P|336:108|412:111,1,160,0|8,0:0|0:0,0:0:0
260,24,56573,6,0,P|220:20|180:24,1,79.9999999999999,0|0,0:0|0:0,0:0:0
120,88,57173,2,0,P|124:128|120:168,1,79.9999999999999,8|0,0:0|0:0,0:0:0
72,240,57773,2,0,P|48:272|12:292,2,79.9999999999999,0|0|8,0:0|0:0|0:0,0:0:0
160,240,58673,1,0,0:0:0
116,316,58973,6,0,P|192:332|272:316,1,160,4|8,0:0|0:0,0:0:0
396,192,60173,2,0,P|320:176|240:192,1,160,0|8,0:0|0:0,0:0:0
116,68,61373,6,0,P|192:84|272:64,2,160,0|8|0,0:0|0:0|0:0,0:0:0
60,236,63173,2,0,P|85:204|116:179,1,79.9999999999999,8|0,0:0|0:0,0:0:0
196,144,63773,6,0,P|276:152|356:144,2,160,0|8|0,0:0|0:0|0:0,0:0:0
132,84,65273,2,0,P|96:64|56:56,2,79.9999999999999,0|8|0,0:0|0:0|0:0,0:0:0
76,152,66173,6,0,P|88:228|148:280,1,160,0|8,0:0|0:0,0:0:0
312,212,67373,2,0,P|300:136|240:84,1,160,0|8,0:0|0:0,0:0:0
76,152,68573,6,0,P|88:228|148:280,1,160,4|8,0:0|0:0,0:0:0
224,236,69473,1,0,0:0:0
292,180,69773,2,0,P|412:180,2,120,0|0|8,0:0|0:0|0:0,0:0:0
204,180,70973,6,0,P|132:148|92:76,1,160
264,32,72173,2,0,P|304:28|344:32,1,79.9999999999999,0|8,0:0|0:0,0:0:0
428,56,72773,2,0,P|447:91|452:132,1,79.9999999999999,0|8,0:0|0:0,0:0:0
412,208,73373,6,0,P|364:240|312:304,2,120,0|0|8,0:0|0:0|0:0,0:0:0
364,136,74573,2,0,P|248:116|128:136,1,240,0|8,0:0|0:0,0:0:0
60,192,75773,6,0,P|36:224|32:264,1,79.9999999999999,0|8,0:0|0:0,0:0:0
92,328,76373,2,0,P|116:296|120:256,1,79.9999999999999,0|8,0:0|0:0,0:0:0
60,192,76973,2,0,P|60:148,2,40,0|0|8,0:0|0:0|0:0,0:0:0
120,256,77573,1,0,0:0:0
200,288,77873,1,8,0:0:0
288,272,78173,6,0,P|364:264|448:272,1,160,4|0,0:0|0:0,0:0:0
448,96,79373,2,0,P|372:104|288:96,1,160,0|0,0:0|0:0,0:0:0
120,48,80573,5,0,0:0:0
16,192,81173,1,0,0:0:0
120,336,81773,2,0,P|160:340|200:336,1,79.9999999999999,0|8,0:0|0:0,0:0:0
280,300,82373,2,0,P|312:228|372:172,1,160
260,36,83573,6,0,P|220:40|180:36,1,79.9999999999999,0|8,0:0|0:0,0:0:0
92,28,84173,2,0,P|76:100|20:164,1,160
92,216,85073,1,8,0:0:0
256,192,85373,12,4,87773,0:0:0
416,172,92573,6,0,P|372:236|300:276,1,160,4|0,0:0|0:0,0:0:0
140,204,93773,2,0,P|96:140|24:100,1,160
188,32,94973,5,0,0:0:0
256,192,95573,1,0,0:0:0
324,352,96173,2,0,P|384:360|444:352,2,120,0|0|8,0:0|0:0|0:0,0:0:0
256,296,97373,6,0,P|188:256|108:236,1,160,4|0,0:0|0:0,0:0:0
256,136,98573,2,0,P|304:100|360:80,2,120,0|0|8,0:0|0:0|0:0,0:0:0
256,224,99773,6,0,P|256:312,1,79.9999999999999,0|8,0:0|0:0,0:0:0
344,304,100373,2,0,P|344:216,1,79.9999999999999,0|8,0:0|0:0,0:0:0
300,148,100973,2,0,P|300:28,2,120,0|0|8,0:0|0:0|0:0,0:0:0
256,224,102173,5,0,0:0:0
80,224,102773,1,0,0:0:0
168,72,103373,2,0,P|168:192,2,120,0|0|8,0:0|0:0|0:0,0:0:0
248,40,104573,6,0,P|296:40,1,40
392,120,105173,2,0,P|352:120,1,40
248,204,105773,2,0,P|368:204,2,120,0|0|8,0:0|0:0|0:0,0:0:0
160,200,106973,6,0,P|96:236|124:304,1,160,4|8,0:0|0:0,0:0:0
296,328,108173,2,0,P|360:292|332:224,1,160,0|8,0:0|0:0,0:0:0
160,200,109373,6,0,P|84:148|52:88,2,160,0|8|0,0:0|0:0|0:0,0:0:0
332,156,111173,2,0,P|372:152|412:156,1,79.9999999999999,8|8,0:0|0:0,0:0:0
484,204,111773,6,0,P|436:264|368:312,2,160,0|8|0,0:0|0:0|0:0,0:0:0
468,116,113273,2,0,P|440:92|400:76,2,79.9999999999999,0|8|0,0:0|0:0|0:0,0:0:0
428,192,114173,6,0,P|352:192|320:260,1,160,0|8,0:0|0:0,0:0:0
144,260,115373,2,0,P|176:328|252:328,1,160,0|8,0:0|0:0,0:0:0
364,192,116573,6,0,P|332:124|256:124,1,160,4|0,0:0|0:0,0:0:0
200,192,117473,1,8,0:0:0
144,260,117773,2,0,P|84:268|24:260,2,120,0|0|8,0:0|0:0|0:0,0:0:0
200,192,118973,6,0,P|276:176|356:192,1,160
464,332,120173,2,0,P|428:340|388:324,1,79.9999999999999,0|8,0:0|0:0,0:0:0
340,252,120773,2,0,P|300:236|264:244,1,79.9999999999999,0|8,0:0|0:0,0:0:0
192,296,121373,6,0,P|144:324|84:344,2,120,0|0|8,0:0|0:0|0:0,0:0:0
220,212,122573,2,0,P|280:116|384:48,1,240,0|8,0:0|0:0,0:0:0
472,32,123773,6,0,P|472:116,1,79.9999999999999,0|8,0:0|0:0,0:0:0
472,200,124373,2,0,P|432:204|392:200,1,79.9999999999999,0|8,0:0|0:0,0:0:0
328,140,124973,2,0,P|328:100,2,40,0|0|8,0:0|0:0|0:0,0:0:0
272,208,125573,1,0,0:0:0
196,252,125873,1,8,0:0:0
116,288,126173,6,0,P|32:152,1,160,4|0,0:0|0:0,0:0:0
188,72,127373,2,0,P|272:208,1,160
388,340,128573,5,0,0:0:0
484,192,129173,1,0,0:0:0
388,44,129773,2,0,P|348:40|308:44,1,79.9999999999999,0|8,0:0|0:0,0:0:0
244,104,130373,2,0,P|196:164|124:204,1,160
256,324,131573,6,0,P|296:328|340:324,1,79.9999999999999,0|8,0:0|0:0,0:0:0
420,296,132173,2,0,P|452:220|452:144,1,160
420,60,133073,1,8,0:0:0
256,192,133373,12,4,135773,0:0:0
76,192,136973,6,0,P|76:236,1,40
380,192,138173,6,0,P|392:132|368:132|380:72,2,120,0|0|8,0:0|0:0|0:0,0:0:0
292,192,139373,2,0,P|280:252|304:252|292:312,2,120,0|0|8,0:0|0:0|0:0,0:0:0
204,192,140573,6,0,P|164:192,1,40
308,192,141773,2,0,P|348:192,1,40
40,192,142973,6,0,P|104:276|212:228,1,240,0|8,0:0|0:0,0:0:0
260,156,144173,2,0,P|324:72|432:120,1,240,0|8,0:0|0:0,0:0:0
476,196,145373,6,0,P|476:236,2,40
308,144,146273,1,8,0:0:0
264,68,146573,2,0,P|264:28,2,40
268,244,147473,1,8,0:0:0
192,288,147773,6,0,P|132:276|132:300|72:288,2,120,0|0|8,0:0|0:0|0:0,0:0:0
192,200,148973,2,0,P|132:188|132:212|72:200,2,120,0|0|8,0:0|0:0|0:0,0:0:0
268,244,150173,6,0,P|304:268,2,40
136,128,151073,1,8,0:0:0
213,83,151373,2,0,P|252:58,2,40
58,172,152273,1,8,0:0:0
256,192,152573,12,4,154973,0:0:0
476,256,156173,6,0,P|440:316|360:304,1,160,0|8,0:0|0:0,0:0:0
208,216,157373,2,0,P|268:252|256:332,2,160,0|8|0,0:0|0:0|0:0,0:0:0
44,152,159173,2,0,P|84:156|124:152,1,79.9999999999999,8|0,0:0|0:0,0:0:0
196,104,159773,6,0,P|264:72|348:68,1,160,0|8,0:0|0:0,0:0:0
464,200,160973,2,0,P|396:168|312:164,1,160,0|8,0:0|0:0,0:0:0
156,244,162173,6,0,P|124:260|80:264,2,79.9999999999999,0|0|8,0:0|0:0|0:0,0:0:0
212,176,163073,1,0,0:0:0
256,100,163373,2,0,P|312:43,1,79.9999999999999,0|0,0:0|0:0,0:0:0
371,108,163973,2,0,P|314:164,1,79.9999999999999,8|0,0:0|0:0,0:0:0
288,248,164573,6,0,P|344:300|424:320,1,160,4|8,0:0|0:0,0:0:0
436,144,165773,2,0,P|380:92|300:72,1,160,0|8,0:0|0:0,0:0:0
140,144,166973,6,0,P|68:164|40:96,2,160,0|8|0,0:0|0:0|0:0,0:0:0
276,32,168773,2,0,P|352:68,1,79.9999999999999,8|0,0:0|0:0,0:0:0
416,124,169373,6,0,P|384:192|420:264,2,160,0|8|0,0:0|0:0|0:0,0:0:0
348,66,170873,2,0,P|276:32,2,79.9999999999999,0|8|0,0:0|0:0|0:0,0:0:0
416,124,171773,6,0,P|476:168|476:248,1,160,0|8,0:0|0:0,0:0:0
312,312,172973,2,0,P|252:268|252:188,1,160,0|8,0:0|0:0,0:0:0
416,124,174173,5,4,0:0:0
256,192,181373,12,4,183173,0:0:0
312,112,183773,6,0,P|372:60,2,79.9999999999999,4|8|0,0:0|0:0|0:0,0:0:0
256,180,184673,1,8,0:0:0
288,260,184973,2,0,P|332:296|392:316,2,120,0|0|8,0:0|0:0|0:0,0:0:0
256,180,186173,6,0,P|212:116|140:72,1,160
316,40,187373,2,0,P|356:44|396:60,1,79.9999999999999,0|8,0:0|0:0,0:0:0
412,144,187973,2,0,P|372:140|332:124,1,79.9999999999999,0|8,0:0|0:0,0:0:0
316,40,188573,6,0,P|236:40,1,79.9999999999999,0|8,0:0|0:0,0:0:0
148,40,189173,2,0,P|124:72|104:112,1,79.9999999999999,0|8,0:0|0:0,0:0:0
132,192,189773,1,0,0:0:0
156,276,190073,1,8,0:0:0
240,252,190373,1,0,0:0:0
216,167,190673,1,8,0:0:0
256,88,190973,6,0,P|292:64|328:48,1,79.9999999999999,0|8,0:0|0:0,0:0:0
412,32,191573,2,0,P|436:68|452:104,1,79.9999999999999,0|8,0:0|0:0,0:0:0
464,188,192173,2,0,P|496:212,2,40,0|0|8,0:0|0:0|0:0,0:0:0
380,156,192773,1,0,0:0:0
320,220,193073,1,8,0:0:0
264,288,193373,6,0,P|184:308|104:312,1,160,4|0,0:0|0:0,0:0:0
8,168,194573,2,0,P|88:148|168:144,1,160
340,152,195773,6,0,P|336:192|320:228,1,79.9999999999999,0|8,0:0|0:0,0:0:0
236,252,196373,2,0,P|240:212|256:176,1,79.9999999999999,0|8,0:0|0:0,0:0:0
340,152,196973,1,0,0:0:0
424,180,197273,1,8,0:0:0
476,252,197573,2,0,P|416:300|336:328,1,160
164,292,198773,6,0,P|128:216,1,79.9999999999999,0|8,0:0|0:0,0:0:0
100,136,199373,2,0,P|160:80|232:52,1,160
320,48,200273,1,8,0:0:0
256,192,200573,12,4,202973,0:0:0
268,28,203873,5,0,0:0:0
180,36,204173,2,0,P|116:76|56:136,2,160,0|8|4,0:0|0:0|0:0,0:0:0
256,192,205973,1,8,0:0:0
332,348,206573,6,0,P|396:308|456:248,2,160,0|8|4,0:0|0:0|0:0,0:0:0
256,192,208373,1,8,0:0:0
104,104,208973,6,0,P|134:36|203:61,1,160,0|8,0:0|0:0,0:0:0
376,80,210173,2,0,P|345:147|276:122,1,160,4|8,0:0|0:0,0:0:0
104,104,211373,2,0,P|134:36|203:61,1,160,0|8,0:0|0:0,0:0:0
256,228,212573,5,4,0:0:0
412,148,213173,1,8,0:0:0
256,68,213773,2,0,P|172:44|100:36,2,160,0|8|0,0:0|0:0|0:0,0:0:0
412,148,215573,5,8,0:0:0
256,228,216173,1,0,0:0:0
412,308,216773,2,0,P|332:324|252:324,1,160,8|0,0:0|0:0,0:0:0
84,276,217973,6,0,P|44:204|40:128,2,160,8|0|8,0:0|0:0|0:0,0:0:0
260,276,219773,2,0,P|300:204|304:128,2,160,4|8|0,0:0|0:0|0:0,0:0:0
172,124,221573,1,8,0:0:0
172,212,221873,1,0,0:0:0
172,300,222173,1,4,0:0:0
256,192,222323,12,0,224573,2:0:0
