osu file format v11

[General]
AudioFilename: Sonic Syndicate - Denied.mp3
AudioLeadIn: 0
PreviewTime: 68498
Countdown: 0
SampleSet: Normal
StackLeniency: 0.7
Mode: 0
LetterboxInBreaks: 1

[Editor]
Bookmarks: 68910,17034,17289
DistanceSpacing: 0.8
BeatDivisor: 4
GridSize: 4

[Metadata]
Title:Denied
TitleUnicode:Denied
Artist:Sonic Syndicate
ArtistUnicode:Sonic Syndicate
Creator:P o M u T a
Version:Insane
Source:
Tags:Only Inhuman Nuclear Blast Warner Sweden Tshemmp
BeatmapID:196888
BeatmapSetID:67895

[Difficulty]
HPDrainRate:6
CircleSize:5
OverallDifficulty:8
ApproachRate:9
SliderMultiplier:2.1
SliderTickRate:2

[Events]
//Background and Video events
0,0,"new_Sonic-Syndicate-55-6.jpg"
//Break Periods
2,88123,91973
2,174373,180773
//Storyboard Layer 0 (Background)
//Storyboard Layer 1 (Fail)
//Storyboard Layer 2 (Pass)
//Storyboard Layer 3 (Foreground)
//Storyboard Sound Samples
//Background Colour Transformations
3,100,163,162,255

[TimingPoints]
20573,300,4,1,1,60,1,0
30173,-100,4,1,1,65,0,0
39923,-100,4,1,1,70,0,0
49373,-133.333333333333,4,1,1,75,0,0
68573,-90.9090909090909,4,1,1,80,0,1
87773,-100,4,1,1,80,0,0
92573,-100,4,1,1,65,0,0
97373,-100,4,1,1,70,0,0
106973,-133.333333333333,4,1,1,75,0,0
116573,-90.9090909090909,4,1,1,80,0,1
135773,-100,4,1,1,70,0,0
154973,-133.333333333333,4,1,1,70,0,0
164573,-133.333333333333,4,1,1,75,0,0
183773,-90.9090909090909,4,1,1,80,0,1
202973,-133.333333333333,4,1,1,80,0,0
222773,-133.333333333333,4,1,1,40,0,0
223373,-133.333333333333,4,1,1,30,0,0
223973,-133.333333333333,4,1,1,20,0,0
224573,-133.333333333333,4,1,1,5,0,0

[Colours]
Combo1 : 0,128,128
Combo2 : 255,98,98
Combo3 : 241,121,255

[HitObjects]
400,96,20573,1,4,0:0:0
356,260,20873,2,0,P|280:324|172:340,1,210,8|0,0:0|0:0,0:0:0
256,20,21773,1,0,0:0:0
256,20,21923,1,0,0:0:0
191,328,22223,2,0,P|256:260|320:328,1,210
320,328,22673,2,0,P|380:260|448:332,1,210,8|0,0:0|0:0,0:0:0
320,328,23273,6,0,P|256:260|192:332,1,210,8|0,0:0|0:0,0:0:0
256,20,24173,1,0,0:0:0
256,20,24323,1,0,0:0:0
88,44,24623,2,0,P|132:104|256:88,1,210
332,56,25073,2,0,P|440:56,1,105,8|0,0:0|0:0,0:0:0
488,124,25373,5,0,0:0:0
488,124,25523,1,0,0:0:0
488,124,25673,2,0,P|488:336,1,210,8|0,0:0|0:0,0:0:0
256,296,26273,2,0,P|256:184,1,105,8|0,0:0|0:0,0:0:0
200,132,26573,2,0,P|128:56,2,105,0|0|8,0:0|0:0|0:0,0:0:0
312,132,27023,2,0,P|384:56,2,105
256,192,27473,2,0,P|256:300,2,105,8|0|0,0:0|0:0|0:0,0:0:0
96,140,28073,6,0,P|72:88|96:52,1,105,8|0,0:0|0:0,0:0:0
96,140,28373,2,0,P|120:192|96:228,1,105
96,228,28673,2,0,P|72:280|96:316,1,105,8|0,0:0|0:0,0:0:0
176,296,28973,2,0,P|248:232|356:208,1,210,0|8,0:0|0:0,0:0:0
304,144,29423,2,0,P|368:216|392:324,1,210
349,325,29798,1,0,0:0:0
307,325,29873,1,8,0:0:0
144,284,30173,6,0,P|100:252|92:204,1,105,4|0,0:0|0:0,0:0:0
160,136,30473,2,0,P|264:140|320:60,1,210,8|0,0:0|0:0,0:0:0
232,28,30923,1,0,0:0:0
428,168,31073,2,0,P|415:214|368:247,2,105,8|0|0,0:0|0:0|0:0,0:0:0
440,88,31523,1,0,0:0:0
360,316,31673,1,8,0:0:0
360,316,31823,2,0,P|256:332|152:316,1,210,0|0,0:0|0:0,0:0:0
152,68,32273,2,0,P|256:52|360:68,1,210,8|0,0:0|0:0,0:0:0
360,316,32723,5,0,0:0:0
264,308,32873,2,0,P|173:256,1,105,8|0,0:0|0:0,0:0:0
347,223,33173,2,0,P|293:129,1,105
178,138,33473,2,0,P|254:214,1,105,8|0,0:0|0:0,0:0:0
360,316,33773,1,0,0:0:0
360,316,33923,2,0,P|404:292|432:244,1,105,0|8,0:0|0:0,0:0:0
328,88,34223,2,0,P|284:112|256:160,1,105
256,252,34523,1,0,0:0:0
256,252,34673,2,0,P|144:252,1,105,8|0,0:0|0:0,0:0:0
76,192,34973,5,0,0:0:0
136,116,35123,1,0,0:0:0
224,148,35273,2,0,P|312:188|416:156,1,210,8|0,0:0|0:0,0:0:0
396,64,35723,2,0,P|480:128,2,105,0|8|0,0:0|0:0|0:0,0:0:0
308,24,36173,1,0,0:0:0
308,24,36323,2,0,P|204:24,1,105,0|8,0:0|0:0,0:0:0
116,64,36623,2,0,P|32:128,2,105
203,24,37073,2,0,P|295:64|327:164,1,210,8|0,0:0|0:0,0:0:0
212,312,37673,6,0,P|320:312,1,105,8|0,0:0|0:0,0:0:0
425,124,37973,2,0,P|320:124,1,105
108,312,38273,2,0,P|216:312,1,105,8|0,0:0|0:0,0:0:0
308,312,38573,1,0,0:0:0
308,312,38723,1,0,0:0:0
480,232,39023,1,0,0:0:0
469,44,39323,1,0,0:0:0
269,162,39623,2,0,P|228:192|176:200,1,105,0|0,0:0|0:0,0:0:0
80,204,39923,5,0,0:0:0
124,292,40073,1,8,0:0:0
204,340,40223,1,0,0:0:0
256,260,40373,2,0,P|308:272|360:260,1,105
420,192,40673,2,0,P|368:180|316:192,1,105,8|0,0:0|0:0,0:0:0
256,260,40973,1,0,0:0:0
208,176,41123,1,0,0:0:0
160,93,41273,1,8,0:0:0
254,93,41423,2,0,P|362:93,2,105
160,93,41873,2,0,P|56:93,1,105,8|0,0:0|0:0,0:0:0
55,187,42173,5,0,0:0:0
55,187,42323,1,0,0:0:0
55,187,42473,2,0,P|108:260|220:300,1,210,8|0,0:0|0:0,0:0:0
296,248,42923,2,0,P|352:336,1,105,0|8,0:0|0:0,0:0:0
476,192,43373,5,0,0:0:0
476,192,43523,1,0,0:0:0
412,124,43673,2,0,P|336:44,1,105,8|0,0:0|0:0,0:0:0
272,116,43973,2,0,P|172:56,1,105
152,152,44273,2,0,P|44:132,1,105,8|0,0:0|0:0,0:0:0
56,228,44573,6,0,P|78:273|78:273|132:304,2,105,0|0|8,0:0|0:0|0:0,0:0:0
112,48,45173,2,0,P|148:84|200:104,1,105
400,48,45473,2,0,P|364:84|312:104,1,105,8|0,0:0|0:0,0:0:0
256,180,45773,1,0,0:0:0
348,192,45923,1,0,0:0:0
428,144,46073,1,8,0:0:0
288,260,46223,2,0,P|256:300|256:300|204:316,2,105
348,192,46673,2,0,P|348:144|348:144|316:96,1,105,8|0,0:0|0:0,0:0:0
256,24,46973,5,0,0:0:0
204,116,47123,1,0,0:0:0
100,140,47273,1,8,0:0:0
256,360,47573,1,0,0:0:0
308,268,47723,1,0,0:0:0
412,244,47873,1,8,0:0:0
204,116,48173,6,0,P|152:24,1,105
308,268,48473,2,0,P|360:360,1,105,8|0,0:0|0:0,0:0:0
308,116,48773,2,0,P|360:24,1,105
204,268,49073,2,0,P|152:360,1,105,8|0,0:0|0:0,0:0:0
256,192,49373,6,0,P|336:192,2,78.7500030040742,4|0|0,0:0|0:0|0:0,0:0:0
176,192,49823,1,0,0:0:0
96,192,49973,2,0,P|56:120,1,78.7500030040742,8|0,0:0|0:0,0:0:0
96,192,50273,2,0,P|57:260,1,78.7500030040742,0|0,0:0|0:0,0:0:0
124,304,50573,2,0,P|204:316|256:268,1,157.500006008148,0|0,0:0|0:0,0:0:0
256,108,51173,2,0,P|308:60|388:72,1,157.500006008148,8|0,0:0|0:0,0:0:0
400,228,51773,6,0,P|320:108|160:84,1,315.000012016297,0|8,0:0|0:0,0:0:0
80,220,52673,1,0,0:0:0
160,220,52823,2,0,P|248:220|248:220|304:260,1,157.500006008148
328,196,53273,2,0,P|272:156|272:156|184:156,1,157.500006008148,0|8,0:0|0:0,0:0:0
104,156,53723,2,0,P|25:156,2,78.7500030040742,0|0|0,0:0|0:0|0:0,0:0:0
184,156,54173,5,0,0:0:0
256,100,54323,2,0,P|256:16,2,78.7500030040742,0|0|0,0:0|0:0|0:0,0:0:0
256,180,54773,1,8,0:0:0
280,256,54923,1,0,0:0:0
344,304,55073,1,0,0:0:0
280,256,55223,1,0,0:0:0
204,236,55373,2,0,P|128:232|64:280,1,157.500006008148,0|0,0:0|0:0,0:0:0
84,356,55823,2,0,P|160:360|224:312,1,157.500006008148
280,256,56273,2,0,P|360:256,1,78.7500030040742,0|0,0:0|0:0,0:0:0
432,228,56573,6,0,P|456:196|456:156,1,78.7500030040742
368,28,56873,2,0,P|367:65|343:97,1,78.7500030040742,0|0,0:0|0:0,0:0:0
144,84,57173,1,8,0:0:0
284,152,57323,1,0,0:0:0
136,100,57473,1,0,0:0:0
292,136,57623,1,0,0:0:0
76,176,57773,6,0,P|68:212|76:252,1,78.7500030040742
204,348,58073,2,0,P|212:312|204:272,1,78.7500030040742,0|0,0:0|0:0,0:0:0
152,220,58373,1,8,0:0:0
296,296,58523,1,0,0:0:0
128,300,58673,1,0,0:0:0
260,216,58823,1,8,0:0:0
76,176,58973,6,0,P|52:140|48:104,2,78.7500030040742,0|0|0,0:0|0:0|0:0,0:0:0
152,220,59423,1,0,0:0:0
174,138,59573,2,0,P|218:70,1,78.7500030040742,8|0,0:0|0:0,0:0:0
296,72,59873,2,0,P|338:138,1,78.7500030040742,0|0,0:0|0:0,0:0:0
412,166,60173,2,0,P|344:196|336:272,1,157.500006008148,0|0,0:0|0:0,0:0:0
412,244,60623,1,0,0:0:0
288,148,60773,2,0,P|220:104,1,78.7500030040742,8|0,0:0|0:0,0:0:0
172,168,61073,2,0,P|240:212,1,78.7500030040742,0|0,0:0|0:0,0:0:0
316,220,61373,6,0,P|236:340|76:364,1,315.000012016297,0|8,0:0|0:0,0:0:0
28,212,62273,1,0,0:0:0
84,268,62423,2,0,P|163:256|204:196,1,157.500006008148
428,268,62873,2,0,P|348:256|307:196,1,157.500006008148,0|8,0:0|0:0,0:0:0
256,136,63323,2,0,P|256:57,2,78.7500030040742,0|0|0,0:0|0:0|0:0,0:0:0
256,248,63773,6,0,P|256:327,2,78.7500030040742,0|0|0,0:0|0:0|0:0,0:0:0
256,168,64223,1,0,0:0:0
212,104,64373,1,8,0:0:0
140,72,64523,1,0,0:0:0
212,104,64673,1,0,0:0:0
288,84,64823,1,0,0:0:0
356,48,64973,2,0,P|424:16|512:28,1,157.500006008148
512,104,65423,2,0,P|444:136|356:124,1,157.500006008148
288,84,65873,2,0,P|288:168,1,78.7500030040742,0|0,0:0|0:0,0:0:0
244,228,66173,6,0,P|224:260|188:280,1,78.7500030040742
72,160,66473,2,0,P|92:128|128:108,1,78.7500030040742,0|0,0:0|0:0,0:0:0
232,128,66773,1,8,0:0:0
92,240,66923,1,0,0:0:0
280,224,67073,1,0,0:0:0
188,279,67223,1,0,0:0:0
340,268,67373,2,0,P|340:352,1,78.7500030040742
424,212,67673,2,0,P|424:128,1,78.7500030040742,0|0,0:0|0:0,0:0:0
300,28,67973,2,0,P|372:64,1,78.7500030040742,8|0,0:0|0:0,0:0:0
236,160,68273,2,0,P|308:124,1,78.7500030040742,0|8,0:0|0:0,0:0:0
196,88,68573,6,0,P|140:180|140:180|192:212|236:260,1,231.000007049561,4|8,0:0|0:0,0:0:0
312,276,69023,2,0,P|364:296|412:336,2,115.50000352478
256,336,69473,1,8,0:0:0
256,336,69773,2,0,P|256:212,1,115.50000352478
256,140,70073,2,0,P|304:100|356:84,2,115.50000352478,8|0|0,0:0|0:0|0:0,0:0:0
184,104,70523,1,0,0:0:0
240,48,70673,1,8,0:0:0
144,176,70973,6,0,P|96:208|76:260,1,115.50000352478
156,260,71273,1,8,0:0:0
236,260,71423,2,0,P|216:312|168:344,2,115.50000352478
272,332,71873,2,0,P|332:336|392:332,1,115.50000352478,8|0,0:0|0:0,0:0:0
424,260,72173,1,0,0:0:0
444,180,72323,1,0,0:0:0
456,100,72473,2,0,P|420:140|420:140|356:148,1,115.50000352478,8|0,0:0|0:0,0:0:0
284,124,72773,1,0,0:0:0
208,96,72923,1,0,0:0:0
132,68,73073,2,0,P|92:112|92:112|72:168,1,115.50000352478,8|0,0:0|0:0,0:0:0
128,320,73373,6,0,P|168:276|168:276|188:220,1,115.50000352478
112,192,73673,1,8,0:0:0
64,264,73823,1,0,0:0:0
220,332,73973,2,0,P|272:352|272:352|332:348,1,115.50000352478
396,296,74273,2,0,P|344:276|344:276|284:280,1,115.50000352478,8|0,0:0|0:0,0:0:0
220,228,74573,1,0,0:0:0
220,228,74723,1,0,0:0:0
180,72,74873,1,8,0:0:0
180,72,75023,1,0,0:0:0
336,120,75173,1,0,0:0:0
336,120,75323,1,0,0:0:0
220,228,75473,2,0,P|248:276|248:276|296:312,1,115.50000352478,8|0,0:0|0:0,0:0:0
368,348,75773,6,0,P|484:348,1,115.50000352478
484,192,76073,2,0,P|368:192,1,115.50000352478,8|0,0:0|0:0,0:0:0
368,270,76373,2,0,P|488:270,1,115.50000352478
484,114,76673,2,0,P|368:114,1,115.50000352478,8|0,0:0|0:0,0:0:0
300,69,76973,1,0,0:0:0
140,44,77123,1,0,0:0:0
24,152,77273,1,8,0:0:0
24,152,77348,1,0,0:0:0
24,152,77423,1,0,0:0:0
140,268,77573,1,0,0:0:0
256,152,77723,1,0,0:0:0
372,268,77873,1,8,0:0:0
256,152,78023,1,0,0:0:0
200,92,78173,5,4,0:0:0
140,44,78323,2,0,P|100:84|76:140,2,115.50000352478,0|8|0,0:0|0:0|0:0,0:0:0
76,192,78773,2,0,P|132:176|188:192,1,115.50000352478
228,260,79073,1,8,0:0:0
256,336,79223,1,0,0:0:0
320,288,79373,2,0,P|340:208|464:224,1,231.000007049561,0|8,0:0|0:0,0:0:0
464,224,79823,1,0,0:0:0
464,224,79973,2,0,P|464:108,1,115.50000352478
304,144,80273,2,0,P|304:28,1,115.50000352478,8|0,0:0|0:0,0:0:0
224,28,80573,5,0,0:0:0
148,56,80723,1,0,0:0:0
84,108,80873,1,8,0:0:0
160,136,81023,1,0,0:0:0
148,56,81173,1,0,0:0:0
84,108,81323,1,0,0:0:0
60,184,81473,2,0,P|64:244|80:296,1,115.50000352478,8|0,0:0|0:0,0:0:0
300,324,81773,2,0,P|296:264|280:212,1,115.50000352478
348,164,82073,1,8,0:0:0
372,240,82223,2,0,P|408:288|452:272,1,115.50000352478
480,196,82523,1,0,0:0:0
464,116,82673,1,8,0:0:0
428,44,82823,1,0,0:0:0
348,32,82973,6,0,P|288:28|236:48,1,115.50000352478
348,164,83273,2,0,P|288:168|236:148,1,115.50000352478,8|0,0:0|0:0,0:0:0
173,98,83573,1,0,0:0:0
173,98,83873,2,0,P|230:98|290:98,1,115.50000352478,8|0,0:0|0:0,0:0:0
348,164,84173,2,0,P|396:196|416:248,1,115.50000352478
336,248,84473,1,8,0:0:0
324,332,84623,2,0,P|276:300|256:248,1,115.50000352478
244,348,84923,2,0,P|128:348,2,115.50000352478,0|8|0,0:0|0:0|0:0,0:0:0
324,332,85373,6,0,P|372:300|404:252,1,115.50000352478
484,240,85673,2,0,P|429:221|386:183,1,115.50000352478,8|0,0:0|0:0,0:0:0
396,104,85973,1,0,0:0:0
456,156,86123,1,0,0:0:0
328,248,86273,2,0,P|272:252|212:248,1,115.50000352478,8|0,0:0|0:0,0:0:0
156,192,86573,1,0,0:0:0
256,64,86723,1,0,0:0:0
356,192,86873,1,8,0:0:0
356,192,86948,1,0,0:0:0
356,192,87023,1,0,0:0:0
312,272,87173,1,0,0:0:0
240,328,87323,1,0,0:0:0
148,328,87473,1,8,0:0:0
76,272,87623,1,0,0:0:0
32,192,87773,5,4,0:0:0
32,192,87923,1,0,0:0:0
76,104,92573,5,4,0:0:0
152,160,92723,1,0,0:0:0
228,104,92873,2,0,P|320:64|428:72,1,210,8|0,0:0|0:0,0:0:0
376,152,93323,2,0,P|348:192|364:248,2,105,0|8|0,0:0|0:0|0:0,0:0:0
428,232,93773,1,0,0:0:0
428,232,93923,2,0,P|348:300,1,105,0|8,0:0|0:0,0:0:0
264,344,94223,2,0,P|216:328|200:280,1,105
196,184,94523,2,0,P|172:140|120:124,2,105,0|8|0,0:0|0:0|0:0,0:0:0
256,132,94973,1,0,0:0:0
256,132,95123,1,0,0:0:0
256,32,95273,6,0,P|152:32,1,105,8|0,0:0|0:0,0:0:0
256,132,95573,2,0,P|368:132,1,105
256,232,95873,2,0,P|152:232,1,105,8|0,0:0|0:0,0:0:0
56,232,96173,1,0,0:0:0
56,232,96323,1,0,0:0:0
352,232,96623,1,0,0:0:0
256,32,96923,1,0,0:0:0
160,232,97223,2,0,P|140:280|156:328,1,105
336,320,97523,5,0,0:0:0
336,320,97673,1,8,0:0:0
483,279,97823,1,0,0:0:0
340,224,97973,1,0,0:3:0
423,352,98123,1,0,0:0:0
432,200,98273,2,0,P|440:144|432:96,1,105,8|0,0:0|0:0,0:0:0
348,52,98573,2,0,P|246:24,2,105,0|0|8,0:0|0:0|0:0,0:0:0
392,136,99023,2,0,P|496:108,2,105
296,136,99473,2,0,P|256:112|196:108,1,105,8|0,0:0|0:0,0:0:0
212,16,99773,6,0,P|224:116|184:220,1,210,0|8,0:0|0:0,0:0:0
116,152,100223,1,0,0:0:0
244,196,100373,2,0,P|348:196,1,105
388,280,100673,2,0,P|492:280,1,105,8|0,0:0|0:0,0:0:0
388,280,100973,2,0,P|284:280,1,105
244,196,101273,2,0,P|140:196,1,105,8|0,0:0|0:0,0:0:0
44,196,101573,2,0,P|148:172|204:92,1,210,0|8,0:0|0:0,0:0:0
284,36,102023,2,0,P|389:36,1,105
496,192,102473,5,8,0:0:0
408,160,102623,1,0,0:0:0
428,252,102773,2,0,P|336:296|228:312,1,210,0|8,0:0|0:0,0:0:0
144,272,103223,1,0,0:0:0
52,300,103373,2,0,P|84:340|140:356,1,105
232,244,103673,2,0,P|200:204|144:188,1,105,8|0,0:0|0:0,0:0:0
60,212,103973,1,0,0:0:0
100,128,104123,1,0,0:0:0
192,112,104273,1,8,0:0:0
272,160,104423,1,0,0:0:0
340,224,104573,6,0,P|448:224,1,105
220,52,105173,2,0,P|332:52,1,105
172,292,105773,2,0,P|276:292,1,105
356,96,106073,2,0,P|464:96,1,105,8|0,0:0|0:0,0:0:0
256,192,106523,1,0,0:0:0
256,192,106673,2,0,P|361:192,1,105,8|0,0:0|0:0,0:0:0
256,192,106973,6,0,P|176:192,2,78.7500030040742,4|0|0,0:0|0:0|0:0,0:0:0
336,192,107423,1,0,0:0:0
416,192,107573,2,0,P|432:112,1,78.7500030040742,8|0,0:0|0:0,0:0:0
416,192,107873,2,0,P|432:272,1,78.7500030040742,0|0,0:0|0:0,0:0:0
388,336,108173,2,0,P|312:312|256:260,1,157.500006008148,0|0,0:0|0:0,0:0:0
212,324,108623,1,0,0:0:0
256,260,108773,2,0,P|256:176,1,78.7500030040742,8|0,0:0|0:0,0:0:0
332,40,109073,2,0,P|332:118,1,78.7500030040742,0|0,0:0|0:0,0:0:0
332,276,109373,6,0,P|168:248|40:312,1,315.000012016297,0|8,0:0|0:0,0:0:0
256,108,110273,1,0,0:0:0
152,144,110423,2,0,P|132:192|144:236|144:236|208:236,1,157.500006008148
360,144,110873,2,0,P|380:192|368:236|368:236|304:236,1,157.500006008148,0|8,0:0|0:0,0:0:0
256,300,111323,2,0,P|256:380,2,78.7500030040742,0|0|0,0:0|0:0|0:0,0:0:0
284,224,111773,5,0,0:0:0
300,148,111923,1,0,0:0:0
256,84,112073,1,0,0:0:0
184,52,112223,1,0,0:0:0
339,84,112373,2,0,P|416:63,1,78.7500030040742,8|0,0:0|0:0,0:0:0
436,140,112673,2,0,P|358:160,1,78.7500030040742,0|0,0:0|0:0,0:0:0
284,184,112973,2,0,P|204:184|152:132,1,157.500006008148,0|0,0:0|0:0,0:0:0
120,60,113423,2,0,P|120:140|68:192,1,157.500006008148
120,60,113873,2,0,P|200:60,1,78.7500030040742,0|0,0:0|0:0,0:0:0
276,40,114173,5,0,0:0:0
398,14,114323,1,0,0:0:0
420,138,114473,1,0,0:0:0
295,160,114623,1,0,0:0:0
249,120,114773,5,8,0:0:0
373,96,114923,1,0,0:0:0
395,220,115073,1,0,0:0:0
269,241,115223,1,0,0:0:0
227,195,115373,6,0,P|186:199|149:215,1,78.7500030040742,0|0,0:0|0:0,0:0:0
52,140,115673,2,0,P|92:135|129:119,1,78.7500030040742,0|0,0:0|0:0,0:0:0
204,72,115973,1,8,0:0:0
244,52,116048,1,0,0:0:0
288,44,116123,1,0,0:0:0
332,44,116198,1,0,0:0:0
376,56,116273,1,0,0:0:0
412,80,116348,1,0,0:0:0
444,108,116423,1,8,0:0:0
468,144,116498,1,0,0:0:0
480,176,116573,6,0,P|404:228|380:292|380:292|304:300,1,231.000007049561,4|8,0:0|0:0,0:0:0
208,300,117023,2,0,P|152:288|152:288|104:252,2,115.50000352478
256,192,117473,1,8,0:0:0
256,192,117773,2,0,P|256:72,1,115.50000352478
168,48,118073,2,0,P|112:52|112:52|60:84,2,115.50000352478,8|0|0,0:0|0:0|0:0,0:0:0
140,136,118523,1,0,0:0:0
48,156,118673,1,8,0:0:0
312,72,118973,6,0,P|372:84|372:84|412:120,1,115.50000352478
328,156,119273,1,8,0:0:0
420,16,119423,2,0,P|465:56|465:56|482:107,1,115.50000352478
332,180,119723,1,0,0:0:0
464,212,119873,2,0,P|436:264|436:264|380:272,1,115.50000352478,8|0,0:0|0:0,0:0:0
288,280,120173,1,0,0:0:0
196,288,120323,1,0,0:0:0
104,276,120473,2,0,P|104:220|104:220|140:172,1,115.50000352478,8|0,0:0|0:0,0:0:0
48,172,120773,1,0,0:0:0
56,328,120923,2,0,P|100:360|100:360|160:372,1,115.50000352478,0|8,0:0|0:0,0:0:0
196,288,121223,1,0,0:0:0
268,228,121373,6,0,P|316:196|316:196|376:192,1,115.50000352478
468,184,121673,1,8,0:0:0
416,260,121823,1,0,0:0:0
296,164,121973,2,0,P|195:106,1,115.50000352478
241,26,122273,2,0,P|341:84,1,115.50000352478,8|0,0:0|0:0,0:0:0
296,164,122573,5,0,0:0:0
136,196,122723,1,0,0:0:0
300,196,122873,1,8,0:0:0
140,164,123023,1,0,0:0:0
284,88,123173,5,0,0:0:0
136,24,123323,1,0,0:0:0
256,192,123473,1,8,0:0:0
241,26,123623,1,0,0:0:0
380,108,123773,6,0,P|500:108,1,115.50000352478
496,200,124073,2,0,P|376:200,1,115.50000352478,8|0,0:0|0:0,0:0:0
380,292,124373,2,0,P|496:292,1,115.50000352478
380,292,124673,2,0,P|264:292,1,115.50000352478,8|0,0:0|0:0,0:0:0
176,264,124973,1,0,0:0:0
32,192,125123,1,0,0:0:0
176,120,125273,1,8,0:0:0
176,120,125348,1,0,0:0:0
176,120,125423,1,0,0:0:0
320,44,125573,1,0,0:0:0
176,120,125723,1,0,0:0:0
320,192,125873,1,8,0:0:0
176,120,126023,1,0,0:0:0
60,44,126173,5,4,0:0:0
60,43,126323,2,0,P|18:81|18:81|18:140,2,115.50000352478,0|8|0,0:0|0:0|0:0,0:0:0
176,120,126773,2,0,P|176:176|176:176|132:216,1,115.50000352478
212,328,127073,2,0,P|212:272|212:272|256:232,1,115.50000352478,8|0,0:0|0:0,0:0:0
328,292,127373,2,0,P|284:204|384:168,1,231.000007049561,0|8,0:0|0:0,0:0:0
296,140,127823,1,0,0:0:0
296,140,127973,2,0,P|192:88,1,115.50000352478
100,84,128273,2,0,P|156:68|184:20,1,115.50000352478,8|0,0:0|0:0,0:0:0
276,24,128573,5,0,0:0:0
364,52,128723,1,0,0:0:0
452,24,128873,1,8,0:0:0
452,148,129023,1,0,0:0:0
364,120,129173,1,0,0:0:0
276,148,129323,1,0,0:0:0
200,200,129473,2,0,P|220:252|220:252|276:276,1,115.50000352478,8|0,0:0|0:0,0:0:0
368,284,129773,2,0,P|348:336|348:336|292:360,1,115.50000352478
200,340,130073,1,8,0:0:0
112,312,130223,2,0,P|60:272|60:224,1,115.50000352478
111,151,130523,1,0,0:0:0
182,95,130673,1,8,0:0:0
256,40,130823,1,0,0:0:0
348,24,130973,6,0,P|404:24|460:48,1,115.50000352478
428,132,131273,2,0,P|372:132|316:108,1,115.50000352478,8|0,0:0|0:0,0:0:0
256,40,131573,1,0,0:0:0
256,344,131873,2,0,P|256:224,1,115.50000352478,8|0,0:0|0:0,0:0:0
320,224,132173,2,0,P|396:312,1,115.50000352478
192,224,132473,2,0,P|116:312,1,115.50000352478,8|0,0:0|0:0,0:0:0
352,140,132773,2,0,P|463:269,1,115.50000352478
164,140,133073,2,0,P|52:269,1,115.50000352478,8|0,0:0|0:0,0:0:0
256,40,133373,6,0,P|136:40,1,115.50000352478
256,40,133673,2,0,P|376:40,1,115.50000352478,8|0,0:0|0:0,0:0:0
200,192,133973,2,0,P|80:192,1,115.50000352478
312,192,134273,2,0,P|432:192,1,115.50000352478,8|0,0:0|0:0,0:0:0
256,344,134573,1,0,0:0:0
256,344,134723,1,0,0:0:0
256,248,134873,1,8,0:0:0
256,220,134948,1,0,0:0:0
256,192,135023,1,0,0:0:0
256,100,135173,1,0,0:0:0
192,32,135323,1,0,0:0:0
100,48,135473,1,8,0:0:0
72,136,135623,1,0,0:0:0
72,228,135773,5,4,0:0:0
72,228,135923,1,0,0:0:0
256,192,136973,5,0,0:0:0
256,192,137123,1,0,0:0:0
440,228,138173,6,0,P|344:272|276:348,1,210,0|8,0:0|0:0,0:0:0
275,348,138623,1,0,0:0:0
172,348,138773,1,0,0:0:0
224,256,138923,1,0,0:0:0
224,256,138998,1,0,0:0:0
224,256,139073,1,8,0:0:0
168,168,139223,2,0,P|104:84,1,105
208,108,139523,2,0,P|272:24,1,105,0|8,0:0|0:0,0:0:0
376,24,139823,2,0,P|440:108,2,105
324,116,140273,1,8,0:0:0
324,116,140423,1,0,0:0:0
324,116,140573,6,0,P|324:224,1,105
188,268,141773,6,0,P|188:160,1,105
360,64,142973,6,0,P|412:80|444:120,1,105
436,224,143273,2,0,P|384:208|352:168,1,105,8|0,0:0|0:0,0:0:0
260,124,143573,2,0,P|152:124,1,105
123,48,143873,2,0,P|228:48,1,105,8|0,0:0|0:0,0:0:0
16,157,144173,2,0,P|16:52,1,105
100,215,144473,2,0,P|100:320,1,105,8|0,0:0|0:0,0:0:0
184,157,144773,2,0,P|184:52,1,105
268,215,145073,2,0,P|268:320,1,105,8|0,0:0|0:0,0:0:0
340,132,145373,6,0,P|448:132,2,105,0|0|8,0:0|0:0|0:0,0:0:0
160,24,145973,2,0,P|116:56|108:104,1,105
92,208,146273,2,0,P|48:176|40:128,1,105,8|0,0:0|0:0,0:0:0
24,232,146573,1,0,0:0:0
40,336,146723,1,0,0:0:0
132,288,146873,1,8,0:0:0
256,120,147173,2,0,P|308:112|360:120,1,105
360,224,147473,2,0,P|412:232|464:224,1,105,8|0,0:0|0:0,0:0:0
464,224,147773,6,0,P|448:288|340:304|340:304|308:348,1,210,0|8,0:0|0:0,0:0:0
204,348,148223,1,0,0:0:0
256,256,148373,1,0,0:0:0
152,256,148523,2,0,P|100:256,2,52.5,0|0|8,0:0|0:0|0:0,0:0:0
204,164,148823,2,0,P|268:80,1,105
204,164,149123,2,0,P|96:164,2,105,0|8|0,0:0|0:0|0:0,0:0:0
312,164,149573,1,0,0:0:0
340,164,149648,1,0,0:0:0
368,164,149723,1,0,0:0:0
396,164,149798,1,0,0:0:0
424,164,149873,1,8,0:0:0
256,32,150173,5,0,0:0:0
256,32,150323,1,0,0:0:0
156,64,150473,1,8,0:0:0
92,148,150623,1,0,0:0:0
56,248,150773,2,0,P|60:292|28:348,1,105
136,360,151073,2,0,P|132:316|164:260,1,105,8|0,0:0|0:0,0:0:0
264,256,151373,2,0,P|217:228|194:178,2,105,0|0|8,0:0|0:0|0:0,0:0:0
364,288,151823,1,0,0:0:0
428,372,151973,2,0,P|472:344|496:296,1,105
356,140,152273,2,0,P|312:168|288:216,1,105,8|0,0:0|0:0,0:0:0
256,316,152573,5,0,0:0:0
156,284,152723,1,0,0:0:0
64,232,152873,2,0,P|40:180|40:132,1,105,8|0,0:0|0:0,0:0:0
100,44,153173,1,0,0:0:0
256,192,153323,1,0,0:0:0
256,192,153398,1,0,0:0:0
256,192,153473,1,8,0:0:0
412,44,153623,1,0,0:0:0
256,316,153773,5,0,0:0:0
256,316,153923,1,0,0:0:0
256,316,154073,2,0,P|312:312|356:292,1,105,8|0,0:0|0:0,0:0:0
456,216,154373,1,0,0:0:0
456,188,154448,1,0,0:0:0
456,160,154523,1,0,0:0:0
456,132,154598,1,0,0:0:0
456,104,154673,1,8,0:0:0
256,32,154973,6,0,P|176:32,2,78.7500030040742,4|0|0,0:0|0:0|0:0,0:0:0
256,112,155423,1,0,0:0:0
256,192,155573,2,0,P|196:248,1,78.7500030040742,8|0,0:0|0:0,0:0:0
256,192,155873,2,0,P|316:248,1,78.7500030040742,0|0,0:0|0:0,0:0:0
364,308,156173,2,0,P|360:236|424:188,1,157.500006008148,0|0,0:0|0:0,0:0:0
148,76,156773,2,0,P|152:148|88:196,1,157.500006008148,8|0,0:0|0:0,0:0:0
277,340,157373,6,0,P|257:188|149:76,1,315.000012016297,0|8,0:0|0:0,0:0:0
296,156,158273,1,0,0:0:0
368,112,158423,2,0,P|372:188|372:188|440:232,1,157.500006008148,0|0,0:0|0:0,0:0:0
368,276,158873,2,0,P|300:232|300:232|296:156,1,157.500006008148,0|8,0:0|0:0,0:0:0
204,156,159323,1,0,0:0:0
204,156,159473,2,0,P|243:224,2,78.7500030040742,0|0|0,0:0|0:0|0:0,0:0:0
204,156,159923,6,0,P|243:88,2,78.7500030040742,0|0|0,0:0|0:0|0:0,0:0:0
144,208,160373,1,8,0:0:0
68,228,160523,1,0,0:0:0
124,284,160673,1,0,0:0:0
144,208,160823,1,0,0:0:0
84,156,160973,2,0,P|24:104|48:40,1,157.500006008148,0|0,0:0|0:0,0:0:0
128,28,161423,2,0,P|188:80|164:144,1,157.500006008148
224,196,161873,2,0,P|304:184,1,78.7500030040742,0|0,0:0|0:0,0:0:0
376,156,162173,6,0,P|332:88,1,78.7500030040742
368,244,162473,2,0,P|412:312,1,78.7500030040742,0|0,0:0|0:0,0:0:0
452,244,162773,1,8,0:0:0
300,204,162923,1,0,0:0:0
452,164,163073,1,0,0:0:0
300,124,163223,1,0,0:0:0
448,84,163373,6,0,P|380:36,1,78.7500030040742
300,124,163673,2,0,P|232:76,1,78.7500030040742,0|0,0:0|0:0,0:0:0
124,36,163973,1,8,0:0:0
164,148,164123,1,0,0:0:0
124,260,164273,1,0,0:0:0
164,372,164423,1,8,0:0:0
256,300,164573,6,0,P|336:300,2,78.7500030040742,0|0|0,0:0|0:0|0:0,0:0:0
256,220,165023,1,0,0:0:0
256,140,165173,2,0,P|220:136|216:140|177:140,1,78.7500030040742,8|0,0:0|0:0,0:0:0
256,140,165473,2,0,P|292:136|296:140|334:140,1,78.7500030040742,0|0,0:0|0:0,0:0:0
408,112,165773,2,0,P|352:160|396:212,1,157.500006008148,0|0,0:0|0:0,0:0:0
460,168,166223,1,0,0:0:0
328,80,166373,2,0,P|256:40,1,78.7500030040742,8|0,0:0|0:0,0:0:0
256,120,166673,2,0,P|328:160,1,78.7500030040742,0|0,0:0|0:0,0:0:0
384,212,166973,6,0,P|284:304|112:308,1,315.000012016297,0|8,0:0|0:0,0:0:0
100,152,167873,1,0,0:0:0
144,88,168023,2,0,P|180:152|256:180,1,157.500006008148
368,88,168473,2,0,P|332:152|256:180,1,157.500006008148,0|8,0:0|0:0,0:0:0
256,100,168923,2,0,P|256:16,2,78.7500030040742,0|0|0,0:0|0:0|0:0,0:0:0
256,180,169373,6,0,P|256:264,2,78.7500030040742,0|0|0,0:0|0:0|0:0,0:0:0
324,220,169823,1,0,0:0:0
372,280,169973,1,8,0:0:0
424,220,170123,1,0,0:0:0
492,180,170273,2,0,P|492:96,1,78.7500030040742,0|0,0:0|0:0,0:0:0
440,44,170573,2,0,P|356:52|292:16,1,157.500006008148,0|0,0:0|0:0,0:0:0
216,28,171023,2,0,P|72:96,1,157.500006008148
36,164,171473,2,0,P|40:200|76:228,1,78.7500030040742,0|0,0:0|0:0,0:0:0
140,264,171773,5,0,0:0:0
256,160,171923,1,0,0:0:0
160,284,172073,1,0,0:0:0
240,148,172223,1,0,0:0:0
256,304,172373,5,8,0:0:0
156,192,172523,1,0,0:0:0
236,320,172673,1,0,0:0:0
176,176,172823,1,0,0:0:0
232,75,172973,5,0,0:0:0
371,168,173123,1,0,0:0:0
278,308,173273,1,0,0:0:0
138,214,173423,1,0,0:0:0
273,64,173573,5,8,0:0:0
381,211,173723,1,0,0:0:0
234,319,173873,1,0,0:0:0
127,172,174023,1,8,0:0:0
256,192,174173,5,4,0:0:0
256,192,181373,5,8,0:0:0
256,192,181448,1,0,0:0:0
256,192,181523,1,0,0:0:0
256,192,181598,1,0,0:0:0
256,192,181673,1,0,0:0:0
384,132,181823,5,8,0:0:0
384,132,181898,1,0,0:0:0
384,132,181973,1,0,0:0:0
384,132,182048,1,0,0:0:0
384,132,182123,1,0,0:0:0
256,68,182273,5,8,0:0:0
256,68,182348,1,0,0:0:0
256,68,182423,1,0,0:0:0
256,68,182498,1,0,0:0:0
256,68,182573,1,0,0:0:0
128,132,182723,5,8,0:0:0
128,132,182798,1,0,0:0:0
128,132,182873,1,0,0:0:0
128,132,182948,1,0,0:0:0
128,132,183023,1,0,0:0:0
256,316,183173,5,8,0:0:0
256,68,183773,6,0,P|216:168|216:168|168:176|112:232,1,231.000007049561,4|8,0:0|0:0,0:0:0
32,280,184223,2,0,P|68:324|120:348,2,115.50000352478
32,188,184673,1,8,0:0:0
480,188,184973,2,0,P|420:184|360:188,1,115.50000352478
276,208,185273,2,0,P|216:212|160:208,2,115.50000352478,8|0|0,0:0|0:0|0:0,0:0:0
304,144,185723,1,0,0:0:0
304,284,185873,1,8,0:0:0
304,284,186173,6,0,P|360:292|420:284,1,115.50000352478
189,283,186473,2,0,P|248:276|304:284,1,115.50000352478,8|0,0:0|0:0,0:0:0
76,284,186773,2,0,P|132:292|190:284,1,115.50000352478
104,204,187073,1,8,0:0:0
20,124,187223,1,0,0:0:0
20,124,187373,2,0,P|56:80|108:56,1,115.50000352478
8,40,187673,1,8,0:0:0
92,144,187823,2,0,P|132:176|196:192,1,115.50000352478
256,124,188123,1,0,0:0:0
256,32,188273,1,8,0:0:0
335,78,188423,1,0,0:0:0
420,112,188573,6,0,P|472:136|472:188,1,115.50000352478
404,252,188873,1,8,0:0:0
324,296,189023,1,0,0:0:0
236,328,189173,2,0,P|184:356|184:356|128:372,1,115.50000352478
68,280,189473,2,0,P|120:252|120:252|176:236,1,115.50000352478,8|0,0:0|0:0,0:0:0
340,148,189773,1,0,0:0:0
340,148,189923,1,0,0:0:0
176,44,190073,1,8,0:0:0
176,44,190223,1,0,0:0:0
340,44,190373,1,0,0:0:0
340,44,190523,1,0,0:0:0
172,148,190673,2,0,P|120:180|120:180|64:188,1,115.50000352478,8|0,0:0|0:0,0:0:0
68,280,190973,6,0,P|108:316|108:316|168:328,1,115.50000352478
444,280,191273,2,0,P|404:316|404:316|344:328,1,115.50000352478,8|0,0:0|0:0,0:0:0
62,288,191573,6,0,P|102:324|102:324|162:336,1,115.50000352478
448,288,191873,2,0,P|408:324|408:324|348:336,1,115.50000352478,8|0,0:0|0:0,0:0:0
256,252,192173,5,0,0:0:0
104,192,192323,1,0,0:0:0
256,132,192473,1,8,0:0:0
256,132,192548,1,0,0:0:0
256,132,192623,1,0,0:0:0
408,192,192773,1,0,0:0:0
408,32,192923,1,0,0:0:0
408,192,193073,1,8,0:0:0
408,32,193223,1,0,0:0:0
288,32,193373,5,4,0:0:0
164,32,193523,2,0,P|108:52|108:52|68:92,2,115.50000352478,0|8|0,0:0|0:0|0:0,0:0:0
84,172,193973,2,0,P|140:152|140:152|180:112,1,115.50000352478
264,152,194273,2,0,P|208:172|208:172|168:212,1,115.50000352478,8|0,0:0|0:0,0:0:0
84,172,194573,2,0,P|152:252|84:336,1,231.000007049561,0|8,0:0|0:0,0:0:0
200,336,195023,1,0,0:0:0
200,336,195173,2,0,P|316:336,1,115.50000352478
316,272,195473,2,0,P|200:272,1,115.50000352478,8|0,0:0|0:0,0:0:0
316,336,195773,5,0,0:0:0
404,304,195923,1,0,0:0:0
492,336,196073,1,8,0:0:0
404,304,196223,1,0,0:0:0
404,212,196373,2,0,P|404:92,1,115.50000352478
108,96,196673,2,0,P|108:212,1,115.50000352478,8|0,0:0|0:0,0:0:0
328,212,196973,2,0,P|328:96,1,115.50000352478
184,96,197273,2,0,P|184:212,1,115.50000352478,8|0,0:0|0:0,0:0:0
256,288,197573,1,0,0:0:0
256,196,197723,1,0,0:0:0
256,104,197873,1,8,0:0:0
256,12,198023,1,0,0:0:0
336,58,198173,6,0,P|452:58,1,115.50000352478
452,150,198473,2,0,P|336:150,1,115.50000352478,8|0,0:0|0:0,0:0:0
256,104,198773,1,0,0:0:0
256,104,199073,2,0,P|200:124|200:124|164:168,1,115.50000352478,8|0,0:0|0:0,0:0:0
232,236,199373,2,0,P|288:216|288:216|324:172,1,115.50000352478
164,168,199673,2,0,P|108:188|108:188|72:232,1,115.50000352478,8|0,0:0|0:0,0:0:0
140,300,199973,2,0,P|196:280|196:280|232:236,1,115.50000352478
72,231,200273,1,8,0:0:0
72,231,200423,1,0,0:0:0
72,231,200573,6,0,P|72:112,1,115.50000352478
176,24,200873,2,0,P|176:139,1,115.50000352478,8|0,0:0|0:0,0:0:0
336,139,201173,2,0,P|336:24,1,115.50000352478
440,115,201473,2,0,P|440:231,1,115.50000352478,8|0,0:0|0:0,0:0:0
368,292,201773,1,0,0:0:0
256,176,201923,1,0,0:0:0
144,292,202073,1,8,0:0:0
144,292,202148,1,0,0:0:0
144,292,202223,1,0,0:0:0
256,176,202373,1,0,0:0:0
368,292,202523,1,0,0:0:0
256,176,202673,1,8,0:0:0
144,296,202823,1,0,0:0:0
256,176,202973,6,0,P|228:100|256:32,1,157.500006008148,4|0,0:0|0:0,0:0:0
364,32,203423,2,0,P|392:108|364:176,1,157.500006008148
310,234,203873,1,0,0:0:0
310,234,204173,2,0,P|244:276|204:343,1,157.500006008148,0|0,0:0|0:0,0:0:0
120,272,204623,2,0,P|186:230|226:163,1,157.500006008148
232,84,205073,1,0,0:0:0
232,84,205373,6,0,P|152:84,2,78.7500030040742,0|0|0,0:0|0:0|0:0,0:0:0
300,44,205823,1,0,0:0:0
368,84,205973,2,0,P|452:84,1,78.7500030040742,8|0,0:0|0:0,0:0:0
448,164,206273,2,0,P|368:164,1,78.7500030040742,0|0,0:0|0:0,0:0:0
300,204,206573,2,0,P|236:288|128:248,1,236.250009012223
96,176,207173,2,0,P|36:116,2,78.7500030040742,8|0|0,0:0|0:0|0:0,0:0:0
176,176,207623,1,0,0:0:0
176,176,207773,6,0,P|236:116,1,78.7500030040742,0|0,0:0|0:0,0:0:0
283,60,208073,1,0,0:0:0
357,32,208223,1,0,0:0:0
384,106,208373,2,0,P|308:132,1,78.7500030040742,8|0,0:0|0:0,0:0:0
337,205,208673,2,0,P|413:179,1,78.7500030040742,0|0,0:0|0:0,0:0:0
300,268,208973,2,0,P|368:248|412:312,1,157.500006008148,0|0,0:0|0:0,0:0:0
212,268,209573,2,0,P|144:248|100:312,1,157.500006008148,8|0,0:0|0:0,0:0:0
212,116,210173,6,0,P|144:136|100:72,1,157.500006008148,0|0,0:0|0:0,0:0:0
300,116,210773,2,0,P|368:136|412:72,1,157.500006008148,8|0,0:0|0:0,0:0:0
256,288,211373,2,0,P|192:288,2,52.5000020027161
256,256,211673,2,0,P|308:256,2,52.5000020027161,0|0|0,0:0|0:0|0:0,0:0:0
256,224,211973,2,0,P|192:224,2,52.5000020027161,8|0|0,0:0|0:0|0:0,0:0:0
256,192,212273,2,0,P|312:192,2,52.5000020027161,0|0|0,0:0|0:0|0:0,0:0:0
256,160,212573,5,4,0:0:0
256,80,212873,2,0,P|176:88|144:28,1,157.500006008148,0|8,0:0|0:0,0:0:0
64,28,213323,1,0,0:0:0
116,176,213623,1,0,0:0:0
116,176,213698,1,0,0:0:0
116,176,213773,1,0,0:0:0
184,220,213923,1,0,0:0:0
184,220,214223,2,0,P|164:256|132:280,1,78.7500030040742,0|8,0:0|0:0,0:0:0
204,344,214523,2,0,P|224:308|256:284,1,78.7500030040742,0|0,0:0|0:0,0:0:0
288,356,214823,1,0,0:0:0
336,296,214973,5,0,0:0:0
336,296,215123,1,0,0:0:0
456,192,215423,1,0,0:0:0
408,132,215573,1,8,0:0:0
408,132,215723,1,0,0:0:0
224,28,216023,1,0,0:0:0
176,88,216173,1,0,0:0:0
176,88,216323,1,0,0:0:0
56,192,216623,1,0,0:0:0
104,252,216773,1,8,0:0:0
104,252,216923,1,0,0:0:0
152,192,217073,2,0,P|152:100,1,78.7500030040742
360,192,217373,6,0,P|360:272,1,78.7500030040742
360,112,217823,1,0,0:0:0
292,152,217973,1,8,0:0:0
292,152,218123,1,0,0:0:0
160,64,218423,1,0,0:0:0
80,64,218573,2,0,P|24:64,2,39.3750015020371
40,216,219023,2,0,P|88:284,1,78.7500030040742,0|8,0:0|0:0,0:0:0
164,288,219323,2,0,P|116:356,1,78.7500030040742,0|0,0:0|0:0,0:0:0
392,192,219773,6,0,P|392:112,1,78.7500030040742
120,192,220223,2,0,P|120:272,1,78.7500030040742,0|8,0:0|0:0,0:0:0
256,328,220673,1,0,0:0:0
256,80,220973,2,0,P|192:80,2,52.5000020027161
256,112,221273,2,0,P|308:112,2,52.5000020027161,0|0|0,0:0|0:0|0:0,0:0:0
256,144,221573,2,0,P|192:144,2,52.5000020027161,8|0|0,0:0|0:0|0:0,0:0:0
256,176,221873,2,0,P|312:176,2,52.5000020027161,0|0|0,0:0|0:0|0:0,0:0:0
256,208,222173,5,4,0:0:0
256,192,222248,12,0,224573,2:0:0
