osu file format v5

[General]
AudioFilename: SONIC CLANG-E1M1.mp3
AudioLeadIn: 0
PreviewTime: -1
Countdown: 1
SampleSet: Normal
StackLeniency: 0.7
Mode: 0
LetterboxInBreaks: 1

[Metadata]
Title:E1M1
Artist:Sonic Clang
Creator:Doomsday93
Version:Easy
Source:
Tags:

[Difficulty]
HPDrainRate:4
CircleSize:3
OverallDifficulty:4
SliderMultiplier:1.4
SliderTickRate:2

[Events]
//Background and Video events
0,0,"untitled.JPG"
//Break Periods
2,52417,59844
//Storyboard Layer 0 (Background)
//Storyboard Layer 1 (Failing)
//Storyboard Layer 2 (Passing)
//Storyboard Layer 3 (Foreground)
//Storyboard Sound Samples
//Background Colour Transformations
3,100,255,0,0

[TimingPoints]
2333,542.230141852949,4,1,0,100,1

[HitObjects]
80,64,9110,1,8
192,64,9653,1,8
304,64,10195,1,8
416,64,10737,1,8
416,176,11279,1,8
304,176,11822,1,8
192,176,12364,1,8
80,176,12906,1,8
80,288,13448,5,8
192,288,13990,1,8
304,288,14533,1,8
416,288,15075,1,8
416,176,15617,1,8
304,176,16159,1,8
240,176,16498,2,4,B|32:176,1,192.5
64,64,17786,5,8
176,64,18328,1,8
288,64,18871,1,8
400,64,19413,1,8
400,176,19955,1,8
288,176,20497,1,8
176,176,21039,1,8
64,176,21582,1,8
64,288,22124,5,8
176,288,22666,1,8
288,288,23208,1,8
400,288,23751,1,8
400,176,24293,1,8
288,176,24835,1,8
224,176,25106,2,8,B|112:176|80:96|80:48,1,210
192,64,26462,5,8
304,64,27004,1,8
416,64,27546,1,8
432,176,28088,1,8
320,176,28631,1,8
208,176,29173,1,8
96,176,29715,1,8
64,288,30257,1,8
176,288,30800,5,8
288,288,31342,1,8
400,288,31884,1,8
432,176,32426,1,8
320,176,32969,1,8
208,176,33511,1,8
144,176,33782,2,2,C|16:160|64:240,1,210
64,240,35137,5,8
176,240,35680,1,8
288,240,36222,1,8
400,240,36764,1,8
400,128,37306,1,8
288,128,37849,1,8
176,128,38391,1,8
64,128,38933,1,8
48,240,39475,5,8
160,240,40017,1,8
272,240,40560,1,8
384,240,41102,1,8
384,128,41644,1,8
272,128,42186,1,8
160,128,42729,1,8
48,128,43271,1,8
48,240,43813,5,8
160,240,44355,1,8
272,240,44898,1,8
384,240,45440,1,8
384,352,45982,1,8
272,352,46524,1,8
160,352,47066,1,8
48,352,47609,1,8
48,240,48151,5,8
160,240,48693,1,8
272,240,49235,1,8
384,240,49778,1,8
400,128,50320,1,8
288,128,50862,1,8
224,128,51133,2,2,B|80:176|32:240|32:320,1,280
64,304,61164,5,8
176,304,61707,1,12
288,304,62249,1,8
400,304,62791,1,12
400,192,63333,1,8
288,192,63876,1,12
176,192,64418,1,8
64,192,64960,1,12
64,80,65502,5,8
176,80,66045,1,12
288,80,66587,1,8
400,80,67129,1,12
416,192,67671,1,8
304,192,68213,1,12
240,192,68485,2,6,B|112:192|80:80,1,210
64,96,69840,5,8
176,96,70382,1,12
288,96,70925,1,8
400,96,71467,1,12
416,208,72009,1,8
304,208,72551,1,12
192,208,73094,1,8
80,208,73636,1,12
48,320,74178,5,8
160,320,74720,1,12
272,320,75262,1,8
384,320,75805,1,12
416,208,76347,1,8
304,208,76889,1,12
240,208,77160,2,6,C|160:208|160:272|96:272,1,210
208,272,78516,5,8
320,272,79058,1,12
432,272,79600,1,8
432,160,80143,1,12
320,160,80685,1,8
208,160,81227,1,12
96,160,81769,1,8
96,48,82311,1,12
208,48,82854,5,8
320,48,83396,1,12
432,48,83938,1,8
432,160,84480,1,12
320,160,85023,1,8
208,160,85565,1,12
96,160,86107,1,8
96,272,86649,1,12
208,272,87192,5,8
320,272,87734,1,12
432,272,88276,1,8
432,160,88818,1,12
320,160,89360,1,8
208,160,89903,1,12
96,160,90445,1,8
96,48,90987,1,12
224,48,91597,5,8
320,48,92072,1,12
432,48,92614,1,8
432,160,93156,1,8
320,160,93698,1,8
208,160,94241,1,12
144,160,94512,2,6,C|80:208,1,70
88,202,95054,2,6,C|80:288,1,70
