osu file format v12

[General]
AudioFilename: Song Riders - Be.mp3
AudioLeadIn: 0
PreviewTime: 133306
Countdown: 0
SampleSet: Soft
StackLeniency: 0.7
Mode: 0
LetterboxInBreaks: 0
WidescreenStoryboard: 0

[Editor]
Bookmarks: 22511,77051,89324,94783,165693,176602,241374
DistanceSpacing: 1.7
BeatDivisor: 4
GridSize: 4

[Metadata]
Title:Be
TitleUnicode:Be
Artist:Song Riders
ArtistUnicode:Song Riders
Creator:Yasora
Version:Hard
Source:DEVIL SURVIVOR2 the ANIMATION
Tags:ending Shin Megami Tensei Trauma Atlus shikyu Niva Nivalis
BeatmapID:265234
BeatmapSetID:99832

[Difficulty]
HPDrainRate:6
CircleSize:4
OverallDifficulty:5
ApproachRate:7
SliderMultiplier:1.7
SliderTickRate:1

[Events]
//Background and Video events
0,0,"au.jpg",0,0
//Break Periods
2,89524,93878
2,165886,175696
//Storyboard Layer 0 (Background)
//Storyboard Layer 1 (Fail)
//Storyboard Layer 2 (Pass)
//Storyboard Layer 3 (Foreground)
//Storyboard Sound Samples
//Background Colour Transformations
3,100,163,162,255

[TimingPoints]
688.05771195097,681.818181818182,4,2,0,40,1,0
27960,-100,4,2,0,60,0,0
33415,-100,4,2,0,40,0,0
38188,-100,4,2,0,60,0,0
44324,-100,4,2,0,40,0,0
54210,-100,4,2,0,60,0,0
55233,-100,4,2,0,80,0,1
66142,-100,4,2,0,80,0,0
75688,-100,4,3,0,50,0,0
75858,-100,4,2,0,80,0,0
89324,681.818181818182,4,2,0,40,1,0
94778,-100,4,2,0,60,0,0
100233,-100,4,2,0,40,0,0
104153,-100,4,2,0,60,0,0
111483,-100,4,2,0,40,0,0
132960,-100,4,2,0,80,0,1
143869,-100,4,2,0,80,0,0
176596,-100,4,2,0,40,0,0
188187,-100,4,2,0,50,0,0
197051,-100,4,1,0,70,0,0
198414,-100,4,2,0,80,0,1
219551,-100,4,2,0,80,0,0
220233,-100,4,2,0,80,0,1
220403,-100,4,2,0,70,0,0
241369,-100,4,2,0,30,0,0

[Colours]
Combo1 : 0,128,255
Combo2 : 255,128,128
Combo3 : 192,192,192
Combo4 : 128,128,255

[HitObjects]
256,192,19778,12,0,22506,0:0:0:0:
120,172,22847,6,0,P|152:136|204:128,1,85
264,192,23528,1,0,0:0:0:0:
308,284,23869,2,0,P|360:240|344:144,1,170
292,60,24892,2,0,L|240:56,1,42.5
200,56,25233,6,0,P|152:108|160:208,1,170
248,252,26256,1,0,0:0:0:0:
356,248,26597,2,0,P|312:164|240:144,1,170
248,252,27619,1,0,0:0:0:0:
416,312,27960,6,0,P|436:272|432:224,2,85,4|0|0,0:0|0:0|1:0,0:0:0:0:
316,324,28983,2,0,L|340:376,2,42.5,2|0|0,0:0|0:0|0:0,0:0:0:0:
220,360,29665,1,2,0:0:0:0:
124,324,30006,2,0,P|100:292|100:240,1,85,0|0,1:0|0:0,0:0:0:0:
160,148,30688,6,0,P|208:144|240:112,1,85,2|0,0:0|0:0,0:0:0:0:
336,120,31369,1,0,1:0:0:0:
284,32,31710,2,0,P|264:24|228:16,1,42.5,2|0,0:0|1:0,0:0:0:0:
144,40,32222,2,0,P|128:56|112:84,2,42.5,0|0|0,1:0|1:0|1:0,0:0:0:0:
188,64,32733,2,0,P|200:92|256:148,1,85,0|0,1:0|0:0,0:0:0:0:
196,228,33415,5,4,0:0:0:0:
292,264,33756,2,0,P|320:228|364:208,1,85
448,172,34438,2,0,P|424:132|420:92,1,85
324,60,35119,1,0,0:0:0:0:
244,124,35460,1,0,0:0:0:0:
192,212,35801,1,0,0:0:0:0:
192,212,35972,6,0,B|152:180|104:192|104:192|72:148,1,127.5
76,64,36824,1,0,0:0:0:0:
176,76,37165,2,0,P|232:60|336:104,1,170
392,184,38188,2,0,P|388:216|400:244,1,42.5,0|0,1:0|0:0,0:0:0:0:
413,271,38528,2,0,P|417:295|405:323,1,42.5,0|0,1:0|0:0,0:0:0:0:
372,344,38869,6,0,P|300:316|204:320,1,170,4|0,0:0|1:0,0:0:0:0:
136,248,39892,2,0,P|172:228|188:180,1,85,0|2,0:0|0:0,0:0:0:0:
292,192,40574,2,0,P|308:231|344:251,1,85,0|0,0:0|1:0,0:0:0:0:
380,156,41256,1,0,0:0:0:0:
380,156,41426,1,0,0:0:0:0:
380,156,41597,6,0,P|388:92|400:64,1,85,2|0,0:0|0:0,0:0:0:0:
440,48,42108,2,0,P|464:36|484:12,1,42.5,0|0,0:0|1:0,0:0:0:0:
484,128,42619,1,2,0:0:0:0:
472,180,42790,2,0,L|464:228,2,42.5,0|2|0,0:0|0:0|0:0,0:0:0:0:
484,128,43301,1,0,0:0:0:0:
380,128,43642,2,0,L|276:128,1,85,0|0,1:0|0:0,0:0:0:0:
192,132,44324,6,0,P|196:196|276:272,2,170,4|4|4,0:0|3:0|3:0,0:0:0:0:
92,108,46028,2,0,P|84:156|92:220,2,85,0|4|0,0:0|3:0|0:0,0:0:0:0:
192,40,47051,2,0,P|280:24|364:44,2,170,4|4|4,3:0|3:0|3:0,0:0:0:0:
148,132,48756,2,0,P|168:164|212:188,1,85,0|4,0:0|3:0,0:0:0:0:
320,172,49438,5,0,0:0:0:0:
320,172,49778,2,0,P|300:256|216:292,2,170,4|4|4,3:0|3:0|3:0,0:0:0:0:
256,80,51483,2,0,P|296:40|332:36,1,85,0|4,0:0|3:0,0:0:0:0:
408,104,52165,1,0,0:0:0:0:
408,104,52506,6,0,P|412:180|460:268,2,170,4|0|0,3:0|0:0|0:0,0:0:0:0:
304,176,54210,1,0,1:0:0:0:
204,232,54551,2,0,L|188:184,1,42.5,0|0,1:0|0:0,0:0:0:0:
180,140,54892,2,0,P|196:116|204:96,1,42.5,0|0,1:0|1:0,0:0:0:0:
252,88,55233,6,0,P|308:104|388:188,1,170,4|0,0:0|1:0,0:0:0:0:
448,304,56256,1,2,0:0:0:0:
376,304,56426,2,0,P|336:320|288:320,1,85,0|0,0:0|1:0,0:0:0:0:
228,296,56938,1,2,0:0:0:0:
96,328,57278,1,0,1:0:0:0:
132,196,57619,1,0,0:0:0:0:
132,196,57960,6,0,B|108:168|108:120|108:120|116:76|84:28,2,170,2|0|2,0:0|1:0|0:0,0:0:0:0:
184,248,59494,1,0,1:0:0:0:
240,200,59665,2,0,P|280:168|336:164,1,85,2|0,0:0|1:0,0:0:0:0:
436,216,60347,1,0,1:0:0:0:
436,216,60517,1,0,1:0:0:0:
436,216,60688,6,0,P|452:152|436:48,2,170,4|0|2,0:0|1:0|0:0,0:0:0:0:
368,244,62222,2,0,L|316:224,1,42.5,0|2,1:0|0:0,0:0:0:0:
200,184,62733,1,0,1:0:0:0:
304,96,63074,1,2,0:0:0:0:
352,148,63244,1,0,0:0:0:0:
404,96,63415,6,0,P|448:88|500:128,1,85,2|0,0:0|0:0,0:0:0:0:
420,228,64097,1,0,1:0:0:0:
356,348,64438,2,0,P|392:368|436:364,2,85,2|0|0,0:0|1:0|1:0,0:0:0:0:
352,276,65290,1,0,1:0:0:0:
288,240,65460,2,0,L|240:264,1,42.5,2|0,0:0|1:0,0:0:0:0:
200,312,65801,2,0,L|236:336,1,42.5,0|0,1:0|1:0,0:0:0:0:
308,340,66142,5,4,0:0:0:0:
308,340,66483,1,0,0:0:0:0:
404,244,66824,2,0,P|439:228|459:188,1,85,0|2,1:0|0:0,0:0:0:0:
372,80,67506,2,0,P|336:88|308:132,1,85,2|2,0:0|0:0,0:0:0:0:
284,200,68017,1,0,0:0:0:0:
284,200,68188,2,0,P|280:248|304:292,1,85,4|0,0:0|0:0,0:0:0:0:
424,224,68869,5,4,0:0:0:0:
464,96,69210,2,0,L|504:72,2,42.5,0|2|0,0:0|0:0|1:0,0:0:0:0:
344,160,69892,1,2,0:0:0:0:
280,192,70063,2,0,L|240:212,2,42.5,0|0|0,0:0|1:0|0:0,0:0:0:0:
280,120,70574,1,2,0:0:0:0:
416,116,70915,2,0,P|424:160|412:212,1,85,4|0,0:0|0:0,0:0:0:0:
344,316,71597,5,4,0:0:0:0:
344,316,71938,1,2,0:0:0:0:
232,224,72278,1,0,1:0:0:0:
144,328,72619,2,0,P|104:316|72:272,2,85,2|0|2,0:0|1:0|0:0,0:0:0:0:
212,312,73472,2,0,P|236:300|276:300,1,42.5,0|4,0:0|0:0,0:0:0:0:
332,188,73983,1,2,0:0:0:0:
256,76,74324,6,0,B|212:52|176:76|176:76|140:96|92:68,2,170,4|2|4,0:0|0:0|3:0,0:0:0:0:
312,120,75858,2,0,L|328:172,1,42.5,0|0,0:0|1:0,0:0:0:0:
384,200,76199,2,0,L|400:248,2,42.5,0|0|0,0:0|1:0|0:0,0:0:0:0:
416,136,76710,2,0,L|396:84,1,42.5,0|0,1:0|1:0,0:0:0:0:
336,68,77051,6,0,P|260:88|172:72,1,170,4|0,0:0|1:0,0:0:0:0:
60,152,78074,1,2,0:0:0:0:
40,288,78415,2,0,P|64:292|92:284,1,42.5,2|0,0:0|1:0,0:0:0:0:
140,248,78756,2,0,P|192:228|228:224,1,85,2|0,0:0|1:0,0:0:0:0:
352,268,79438,1,2,0:0:0:0:
352,268,79778,6,0,P|384:228|400:188,1,85,0|2,0:0|0:0,0:0:0:0:
388,124,80290,1,0,0:0:0:0:
336,72,80460,2,0,L|352:8,2,42.5,0|0|2,1:0|0:0|0:0,0:0:0:0:
272,108,80972,2,0,P|228:104|168:124,1,85,0|0,0:0|1:0,0:0:0:0:
116,104,81483,2,0,P|124:152|152:180,1,85,2|0,0:0|1:0,0:0:0:0:
256,268,82165,1,0,1:0:0:0:
320,236,82335,1,0,1:0:0:0:
376,284,82506,6,0,P|412:264|436:228,1,85,4|2,0:0|0:0,0:0:0:0:
420,156,83017,1,0,0:0:0:0:
376,100,83188,2,0,L|404:32,2,42.5,0|0|2,1:0|0:0|0:0,0:0:0:0:
304,116,83699,2,0,P|264:132|216:132,1,85,0|0,0:0|1:0,0:0:0:0:
152,152,84210,2,0,P|116:100|108:76,2,85,2|0|2,0:0|1:0|0:0,0:0:0:0:
216,280,85233,6,0,L|268:280,1,42.5,2|0,0:0|1:0,0:0:0:0:
332,272,85574,2,0,P|328:228|310:191,1,85,2|0,0:0|1:0,0:0:0:0:
236,68,86256,1,0,1:0:0:0:
104,100,86597,1,0,1:0:0:0:
128,236,86938,1,0,1:0:0:0:
260,212,87278,2,0,L|272:256,1,42.5,0|0,1:0|1:0,0:0:0:0:
332,288,87619,2,0,L|332:336,1,42.5,0|0,1:0|1:0,0:0:0:0:
256,192,87960,12,4,89324,0:0:0:0:
132,196,94778,5,4,0:0:0:0:
236,196,95119,1,0,0:0:0:0:
236,92,95460,1,0,1:0:0:0:
132,92,95801,1,0,0:0:0:0:
132,196,96142,6,0,P|160:248|200:280,1,85,2|0,0:0|0:0,0:0:0:0:
256,332,96824,1,0,1:0:0:0:
352,276,97164,1,0,0:0:0:0:
360,224,97335,2,0,P|352:204|344:160,1,42.5,0|2,0:0|0:0,0:0:0:0:
388,92,97846,1,0,0:0:0:0:
304,32,98187,1,0,1:0:0:0:
304,32,98528,2,0,L|280:88,1,42.5,2|0,0:0|1:0,0:0:0:0:
188,56,99039,6,0,P|176:80|184:124,1,42.5,0|0,1:0|1:0,0:0:0:0:
168,144,99380,2,0,L|224:164,1,42.5,0|0,1:0|1:0,0:0:0:0:
236,200,99721,2,0,P|244:260|256:272,1,42.5,0|0,1:0|1:0,0:0:0:0:
452,232,100233,6,0,B|412:184|412:184|360:236|296:212,2,170,4|2|0,0:0|0:0|0:0,0:0:0:0:
440,328,101937,1,2,0:0:0:0:
344,356,102278,1,0,0:0:0:0:
252,312,102619,2,0,L|252:212,2,85,2|0|2,0:0|0:0|0:0,0:0:0:0:
156,276,103642,2,0,P|148:336|164:372,1,85,2|0,0:0|0:0,0:0:0:0:
208,360,104153,6,0,P|256:344|308:352,1,85,2|0,0:0|0:0,0:0:0:0:
340,348,104664,2,0,P|384:344|412:316,1,85,2|0,0:0|1:0,0:0:0:0:
448,280,105176,1,0,1:0:0:0:
464,232,105346,1,0,1:0:0:0:
444,184,105517,1,0,1:0:0:0:
400,156,105687,6,0,P|336:164|228:132,1,170,4|0,0:0|1:0,0:0:0:0:
128,116,106710,1,0,0:0:0:0:
64,196,107051,2,0,P|108:244|144:344,2,170,2|0|2,0:0|1:0|0:0,0:0:0:0:
24,164,108585,5,0,1:0:0:0:
256,92,109096,1,0,1:0:0:0:
332,160,109437,1,0,1:0:0:0:
268,236,109778,2,0,P|224:228|180:192,1,85,0|0,1:0|1:0,0:0:0:0:
148,176,110289,1,0,1:0:0:0:
140,276,110630,2,0,P|196:316|260:324,1,127.5,0|4,0:0|0:0,0:0:0:0:
396,280,111483,6,0,L|424:180,1,85,0|0,0:0|1:0,0:0:0:0:
368,84,112164,2,0,L|344:176,1,85,0|4,0:0|3:0,0:0:0:0:
248,144,112846,1,0,0:0:0:0:
148,120,113187,1,0,1:0:0:0:
60,172,113528,2,0,P|60:220|96:264,1,85,0|4,0:0|3:0,0:0:0:0:
168,296,114210,2,0,P|204:264|244:252,1,85,0|0,0:0|1:0,0:0:0:0:
328,204,114892,5,0,0:0:0:0:
408,268,115233,2,0,P|416:312|404:360,1,85,4|0,3:0|0:0,0:0:0:0:
356,352,115744,1,0,0:0:0:0:
304,352,115914,2,0,L|216:352,2,85,0|0|4,1:0|0:0|3:0,0:0:0:0:
260,260,116937,2,0,L|236:188,1,42.5
244,168,117278,2,0,P|288:160|328:164,1,85,0|0,1:0|0:0,0:0:0:0:
424,196,117960,5,4,3:0:0:0:
464,292,118301,2,0,P|424:304|376:292,1,85,0|0,0:0|1:0,0:0:0:0:
292,344,118983,1,0,0:0:0:0:
192,364,119324,2,0,P|172:332|176:284,1,85,4|0,3:0|0:0,0:0:0:0:
192,184,120005,2,0,P|200:144|184:100,1,85,0|0,1:0|0:0,0:0:0:0:
136,104,120517,1,0,0:0:0:0:
84,108,120687,6,0,P|70:148|78:188,1,85,4|2,3:0|0:0,0:0:0:0:
96,236,121199,1,0,0:0:0:0:
132,272,121369,2,0,P|172:284|220:264,1,85,0|2,1:0|0:0,0:0:0:0:
312,288,122051,1,4,0:0:0:0:
392,228,122392,6,0,L|376:152,1,42.5
360,140,122733,2,0,P|312:144|280:168,1,85,0|0,1:0|0:0,0:0:0:0:
216,244,123414,2,0,P|176:256|128:240,1,85,4|0,3:0|0:0,0:0:0:0:
184,156,124096,2,0,L|232:132,2,42.5,0|0|0,1:0|0:0|0:0,0:0:0:0:
136,68,124778,2,0,P|92:60|48:72,1,85,4|0,3:0|0:0,0:0:0:0:
16,180,125460,6,0,P|20:204|8:232,2,42.5,0|0|0,1:0|0:0|0:0,0:0:0:0:
104,264,126142,2,0,P|144:256|184:224,1,85
216,196,126653,1,0,0:0:0:0:
268,196,126824,2,0,P|312:196|348:176,1,85,0|0,1:0|0:0,0:0:0:0:
284,96,127505,2,0,P|216:56|120:68,1,170,4|0,3:0|1:0,0:0:0:0:
60,140,128528,2,0,P|60:180|68:196,1,42.5
100,216,128869,6,0,P|172:260|256:252,1,170,4|0,3:0|1:0,0:0:0:0:
356,268,129892,1,0,0:0:0:0:
440,208,130233,2,0,P|436:156|416:120,1,85,2|0,0:0|0:0,0:0:0:0:
296,104,130914,2,0,P|344:80|360:44,1,85,2|0,0:0|0:0,0:0:0:0:
292,32,131426,2,0,P|232:72|232:136,1,127.5,2|0,0:0|1:0,0:0:0:0:
344,168,132278,2,0,L|312:216,1,42.5,0|0,1:0|1:0,0:0:0:0:
288,244,132619,2,0,P|272:260|252:268,1,42.5,0|0,1:0|1:0,0:0:0:0:
208,240,132960,6,0,P|148:188|56:204,1,170,4|0,0:0|1:0,0:0:0:0:
32,320,133983,1,2,0:0:0:0:
96,356,134153,1,0,0:0:0:0:
160,320,134324,2,0,P|176:300|196:288,1,42.5,0|0,0:0|1:0,0:0:0:0:
224,356,134664,2,0,B|280:368|312:336,1,85,2|0,0:0|1:0,0:0:0:0:
380,220,135346,6,0,P|356:172|348:132,2,85,2|0|2,0:0|0:0|0:0,0:0:0:0:
432,348,136369,2,0,P|388:356|344:348,1,85,0|2,1:0|0:0,0:0:0:0:
292,304,136880,1,0,0:0:0:0:
256,240,137051,2,0,L|248:180,2,42.5,0|0|2,0:0|1:0|0:0,0:0:0:0:
152,328,137733,1,0,1:0:0:0:
280,376,138074,5,0,1:0:0:0:
292,304,138244,1,0,1:0:0:0:
328,240,138414,1,4,0:0:0:0:
280,112,138755,2,0,L|184:112,1,85,2|0,0:0|1:0,0:0:0:0:
60,116,139437,1,2,0:0:0:0:
132,232,139778,6,0,L|180:284,2,42.5,0|0|2,0:0|1:0|0:0,0:0:0:0:
132,368,140460,2,0,P|172:376|228:360,1,85,0|2,1:0|0:0,0:0:0:0:
224,296,140971,1,0,0:0:0:0:
248,228,141142,2,0,P|228:184|224:132,2,85,0|2|0,0:0|0:0|1:0,0:0:0:0:
320,216,141994,1,0,0:0:0:0:
384,248,142164,2,0,P|396:272|396:304,1,42.5,2|0,0:0|0:0,0:0:0:0:
360,348,142505,6,0,B|320:360|264:348,1,85,0|0,1:0|1:0,0:0:0:0:
224,300,143017,2,0,L|184:280,1,42.5,0|2,1:0|0:0,0:0:0:0:
156,216,143358,2,0,L|92:176,2,42.5,0|0|0,1:0|1:0|1:0,0:0:0:0:
216,176,143869,5,4,0:0:0:0:
216,176,144210,1,2,0:0:0:0:
332,100,144551,2,0,P|372:56|412:36,2,85,0|2|0,1:0|0:0|0:0,0:0:0:0:
316,172,145403,2,0,P|320:200|308:232,1,42.5,0|2,1:0|0:0,0:0:0:0:
272,268,145744,2,0,P|264:292|272:316,1,42.5,0|4,0:0|0:0,0:0:0:0:
420,244,146255,2,0,P|432:284|420:324,1,85,2|4,0:0|0:0,0:0:0:0:
288,360,146937,1,2,0:0:0:0:
300,224,147278,6,0,L|240:148,1,85,0|2,1:0|0:0,0:0:0:0:
180,128,147789,2,0,L|128:164,1,42.5,0|0,0:0|1:0,0:0:0:0:
140,224,148130,2,0,L|172:264,1,42.5,0|2,0:0|0:0,0:0:0:0:
296,292,148642,1,4,0:0:0:0:
428,256,148983,2,0,P|468:248|496:204,1,85,2|4,0:0|0:0,0:0:0:0:
388,128,149664,1,2,0:0:0:0:
260,80,150005,6,0,P|208:96|172:136,1,85,0|2,1:0|0:0,0:0:0:0:
168,252,150687,2,0,P|172:284|184:308,2,42.5,0|0|2,0:0|1:0|0:0,0:0:0:0:
120,204,151199,2,0,P|116:176|104:152,1,42.5,0|4,0:0|0:0,0:0:0:0:
28,56,151710,5,2,0:0:0:0:
28,192,152051,2,0,P|28:268|112:332,1,170,4|0,0:0|0:0,0:0:0:0:
232,332,153074,2,0,P|252:336|280:328,1,42.5,0|0,0:0|1:0,0:0:0:0:
252,264,153414,6,0,L|252:200,1,42.5,2|0,0:0|1:0,0:0:0:0:
292,160,153755,2,0,P|336:164|372:136,1,85,2|0,0:0|1:0,0:0:0:0:
316,92,154267,1,0,1:0:0:0:
372,44,154437,1,0,1:0:0:0:
440,68,154608,1,0,1:0:0:0:
440,140,154778,6,0,P|488:192|496:292,1,170,4|0,0:0|1:0,0:0:0:0:
368,328,155801,1,2,0:0:0:0:
368,328,156142,2,0,P|324:312|300:296,1,42.5,2|0,0:0|1:0,0:0:0:0:
272,268,156483,2,0,P|256:320|272:360,1,85,0|0,0:0|1:0,0:0:0:0:
152,272,157164,2,0,P|168:232|132:188,1,85,2|0,0:0|0:0,0:0:0:0:
148,60,157846,2,0,L|224:56,1,42.5,2|0,0:0|0:0,0:0:0:0:
264,52,158187,6,0,P|264:88|292:132,1,85,0|2,1:0|0:0,0:0:0:0:
348,172,158699,2,0,P|376:200|388:248,1,85,0|0,0:0|1:0,0:0:0:0:
352,304,159210,1,2,0:0:0:0:
224,352,159551,1,0,1:0:0:0:
96,304,159892,2,0,L|52:316,2,42.5,2|0|4,0:0|1:0|0:0,0:0:0:0:
208,56,160914,6,0,P|248:40|304:32,1,85,0|0,1:0|0:0,0:0:0:0:
316,100,161426,2,0,P|360:92|408:68,1,85,2|0,0:0|1:0,0:0:0:0:
468,80,161937,1,2,0:0:0:0:
480,152,162108,2,0,L|484:216,1,42.5,0|0,0:0|1:0,0:0:0:0:
384,288,162619,1,2,0:0:0:0:
248,280,162960,2,0,P|180:228|80:232,1,170,0|0,0:0|1:0,0:0:0:0:
100,88,163983,1,2,0:0:0:0:
100,88,164153,6,0,P|156:96|220:68,1,127.5,0|0,1:0|1:0,0:0:0:0:
292,64,164835,1,0,1:0:0:0:
356,100,165005,2,0,L|400:164,1,42.5,0|0,0:0|1:0,0:0:0:0:
452,140,165346,2,0,P|448:160|428:188,2,42.5,0|0|4,1:0|0:0|0:0,0:0:0:0:
420,104,176596,6,0,P|372:172|288:208,1,170,2|2,0:0|0:0,0:0:0:0:
184,188,177619,1,0,0:0:0:0:
184,188,177789,1,2,0:0:0:0:
124,96,178130,2,0,L|168:36,1,42.5,0|0,0:0|0:0,0:0:0:0:
260,72,178642,2,0,L|360:40,2,85,2|0|2,0:0|0:0|0:0,0:0:0:0:
296,180,179664,6,0,P|356:228|384:232,1,85,0|2,0:0|0:0,0:0:0:0:
472,224,180346,2,0,L|500:272,1,42.5,0|2,0:0|0:0,0:0:0:0:
392,312,180858,2,0,L|416:356,1,42.5,0|2,0:0|0:0,0:0:0:0:
400,240,181369,1,2,0:0:0:0:
296,272,181710,1,0,0:0:0:0:
204,336,182051,6,0,B|176:280|200:228|200:228|164:236|136:208,1,170,2|2,0:0|0:0,0:0:0:0:
72,132,183074,1,0,0:0:0:0:
72,132,183244,1,2,0:0:0:0:
160,64,183585,2,0,L|232:92,1,42.5,0|2,0:0|0:0,0:0:0:0:
304,120,184096,1,2,0:0:0:0:
352,220,184437,1,0,0:0:0:0:
336,272,184608,1,0,0:0:0:0:
296,308,184778,6,0,P|236:296|136:236,1,170,2|0,0:0|0:0,0:0:0:0:
80,152,185801,1,0,0:0:0:0:
80,152,185971,1,2,0:0:0:0:
136,56,186312,2,0,L|192:56,1,42.5,0|2,0:0|0:0,0:0:0:0:
256,136,186824,1,0,0:0:0:0:
356,92,187164,1,2,0:0:0:0:
428,176,187505,1,0,0:0:0:0:
272,320,188187,6,0,P|208:316|168:292,1,85,2|0,0:0|0:0,0:0:0:0:
96,252,188869,2,0,P|64:192|36:168,1,85,2|0,0:0|0:0,0:0:0:0:
56,68,189551,1,2,0:0:0:0:
160,104,189892,1,0,0:0:0:0:
260,56,190233,2,0,P|304:32|352:32,2,85,2|0|2,0:0|0:0|0:0,0:0:0:0:
332,140,191255,1,0,0:0:0:0:
416,212,191596,6,0,P|464:256|472:296,1,85,2|0,0:0|0:0,0:0:0:0:
364,304,192278,1,2,0:0:0:0:
252,292,192619,2,0,P|212:312|152:300,2,85,0|2|0,0:0|0:0|0:0,0:0:0:0:
192,200,193642,1,2,0:0:0:0:
108,128,193983,2,0,P|148:96|168:96,1,42.5
184,72,194324,5,2,0:0:0:0:
276,136,194664,2,0,P|296:184|292:220,1,85,0|2,0:0|0:0,0:0:0:0:
308,324,195346,1,0,0:0:0:0:
308,324,195517,1,0,0:0:0:0:
308,324,195687,2,0,P|368:284|488:280,1,170,2|2,0:0|0:0,0:0:0:0:
472,164,196710,1,0,0:0:0:0:
372,180,197051,6,0,P|352:184|320:176,2,42.5
412,124,197562,2,0,P|412:108|404:80,1,42.5
336,80,197903,2,0,P|320:72|280:72,1,42.5
228,68,198244,1,0,0:0:0:0:
180,116,198414,5,4,0:0:0:0:
180,116,198755,1,2,0:0:0:0:
72,196,199096,2,0,P|60:240|72:276,1,85,0|2,1:0|0:0,0:0:0:0:
204,312,199778,2,0,L|252:284,1,42.5,0|0,0:0|1:0,0:0:0:0:
304,256,200119,2,0,P|332:300|332:344,1,85,2|4,0:0|0:0,0:0:0:0:
440,244,200801,2,0,L|472:136,1,85,2|4,0:0|0:0,0:0:0:0:
344,96,201483,6,0,P|312:128|268:140,1,85,0|0,0:0|1:0,0:0:0:0:
208,108,201994,1,0,0:0:0:0:
144,144,202164,2,0,P|126:135|110:119,1,42.5,2|0,0:0|0:0,0:0:0:0:
44,148,202505,6,0,P|48:176|36:208,1,42.5,0|0,1:0|0:0,0:0:0:0:
24,260,202846,1,2,0:0:0:0:
104,372,203187,2,0,P|136:296|216:300,1,170,4|4,0:0|0:0,0:0:0:0:
344,332,204210,1,2,0:0:0:0:
424,224,204551,2,0,P|436:204|436:176,2,42.5,0|0|2,1:0|0:0|0:0,0:0:0:0:
352,204,205062,6,0,L|260:176,1,85,0|0,1:0|0:0,0:0:0:0:
200,200,205574,2,0,P|196:228|172:244,2,42.5,2|0|4,0:0|0:0|0:0,0:0:0:0:
64,184,206255,1,2,0:0:0:0:
152,80,206596,2,0,P|220:48|312:84,1,170,4|0,0:0|0:0,0:0:0:0:
428,140,207619,1,2,0:0:0:0:
400,208,207789,1,0,1:0:0:0:
444,264,207960,6,0,L|460:308,2,42.5,0|0|2,1:0|1:0|0:0,0:0:0:0:
400,208,208471,1,0,0:0:0:0:
356,152,208642,2,0,L|340:104,2,42.5,0|0|2,1:0|1:0|0:0,0:0:0:0:
268,256,209324,6,0,P|200:292|120:252,1,170,4|0,0:0|1:0,0:0:0:0:
36,148,210346,2,0,L|112:76,1,85,2|0,0:0|0:0,0:0:0:0:
164,64,210858,1,0,1:0:0:0:
216,112,211028,2,0,P|256:156|300:160,1,85,2|0,0:0|1:0,0:0:0:0:
412,132,211710,1,2,0:0:0:0:
412,132,212051,6,0,P|428:216|428:248,1,85,0|2,0:0|0:0,0:0:0:0:
392,276,212562,1,0,0:0:0:0:
324,304,212733,2,0,L|216:336,1,85,0|0,1:0|0:0,0:0:0:0:
172,320,213244,6,0,P|140:296|116:248,1,85,2|0,0:0|1:0,0:0:0:0:
156,196,213755,2,0,P|176:160|176:100,1,85,2|0,0:0|1:0,0:0:0:0:
304,152,214437,1,0,1:0:0:0:
368,116,214608,1,0,1:0:0:0:
372,44,214778,1,4,0:0:0:0:
372,44,215460,6,0,B|440:56|440:124|440:124|488:164,2,170,0|2|0,1:0|0:0|1:0,0:0:0:0:
256,116,217164,1,2,0:0:0:0:
120,96,217505,2,0,P|116:120|136:164,1,42.5,0|0,0:0|1:0,0:0:0:0:
168,192,217846,1,2,0:0:0:0:
156,328,218187,5,0,1:0:0:0:
288,360,218528,1,0,1:0:0:0:
288,360,218699,1,0,1:0:0:0:
288,360,218869,2,0,P|360:308|464:308,1,170,2|0,0:0|0:0,0:0:0:0:
460,60,220233,5,4,0:0:0:0:
408,276,220914,2,0,P|412:304|428:328,2,42.5,0|0|2,1:0|0:0|0:0,0:0:0:0:
372,212,221426,2,0,P|316:184|260:212,1,127.5,0|2,1:0|0:0,0:0:0:0:
180,288,222278,2,0,P|156:308|124:316,2,42.5,0|0|2,0:0|1:0|0:0,0:0:0:0:
104,208,222960,6,0,P|92:136|156:52,1,170,0|0,1:0|0:0,0:0:0:0:
208,148,223983,1,0,1:0:0:0:
208,148,224153,2,0,P|220:212|296:248,1,127.5,2|0,0:0|0:0,0:0:0:0:
380,256,225005,1,0,1:0:0:0:
456,176,225346,1,2,0:0:0:0:
404,80,225687,6,0,P|320:64|236:80,1,170,4|0,0:0|1:0,0:0:0:0:
172,104,226539,1,0,0:0:0:0:
144,168,226710,2,0,P|148:192|140:224,1,42.5,2|0,0:0|1:0,0:0:0:0:
72,292,227221,1,0,1:0:0:0:
72,292,227392,2,0,P|116:292|168:328,1,85,2|0,0:0|1:0,0:0:0:0:
212,348,227903,2,0,P|232:364|272:356,1,42.5,0|2,0:0|0:0,0:0:0:0:
348,320,228414,2,0,L|396:256,1,42.5,2|0,0:0|1:0,0:0:0:0:
360,216,228755,2,0,P|404:220|440:264,2,85,0|0|0,0:0|1:0|1:0,0:0:0:0:
288,216,229608,6,0,P|232:240|148:232,1,127.5,0|0,1:0|1:0,0:0:0:0:
28,252,230460,2,0,P|24:272|16:292,2,42.5,0|0|0,1:0|1:0|1:0,0:0:0:0:
68,192,230971,1,0,0:0:0:0:
104,128,231142,2,0,P|144:92|168:60,1,85,4|2,0:0|0:0,0:0:0:0:
276,144,231824,2,0,L|316:192,2,42.5,0|0|2,1:0|0:0|0:0,0:0:0:0:
304,76,232335,2,0,P|352:76|392:96,1,85,0|0,1:0|1:0,0:0:0:0:
424,152,232846,6,0,L|464:256,2,85,2|0|2,0:0|1:0|0:0,0:0:0:0:
312,160,233869,2,0,L|296:224,2,42.5,0|0|2,0:0|1:0|0:0,0:0:0:0:
208,124,234551,1,0,1:0:0:0:
148,216,234892,1,0,0:0:0:0:
148,216,235062,6,0,P|184:272|216:288,1,85,2|0,0:0|1:0,0:0:0:0:
272,284,235574,1,2,0:0:0:0:
380,256,235914,1,0,1:0:0:0:
408,148,236255,2,0,L|424:96,2,42.5,0|0|0,1:0|1:0|0:0,0:0:0:0:
380,256,236937,5,2,0:0:0:0:
320,216,237108,1,0,0:0:0:0:
248,204,237278,2,0,P|204:228|164:236,1,85,0|2,1:0|0:0,0:0:0:0:
108,196,237789,1,0,0:0:0:0:
76,132,237960,6,0,P|64:112|60:92,2,42.5,0|0|2,0:0|1:0|0:0,0:0:0:0:
20,228,238642,2,0,P|64:300|144:328,1,170,0|2,1:0|0:0,0:0:0:0:
252,312,239664,1,0,0:0:0:0:
252,312,239835,2,0,L|284:264,1,42.5,0|0,0:0|1:0,0:0:0:0:
348,196,240346,2,0,L|296:164,1,42.5,2|0,0:0|0:0,0:0:0:0:
248,84,240858,1,0,0:0:0:0:
248,84,241028,2,0,B|220:136|220:136|192:152,1,85,2|0,0:0|0:0,0:0:0:0:
