osu file format v7

[General]
AudioFilename: Digimon Xros Wars - Opening - Never Give Up [www.keepvid.com].mp3
AudioLeadIn: 0
PreviewTime: 43124
Countdown: 0
SampleSet: Soft
StackLeniency: 0.7
Mode: 0
LetterboxInBreaks: 1

[Editor]
Bookmarks: 26,6786,20307,33828,44392,57913,71434,77983
DistanceSpacing: 0.800000011920929
BeatDivisor: 2
GridSize: 8

[Metadata]
Title:Never Give Up (TV Size)
Artist:Sonar Pocket
Creator:Ekaru
Version:Normal
Source:Digimon Xros Wars
Tags:Cross Krisom dejimon kurosu woozu uoozu sonaa poketto sona poke xxheroxx

[Difficulty]
HPDrainRate:4
CircleSize:4
OverallDifficulty:4
SliderMultiplier:1.5
SliderTickRate:2

[Events]
//Background and Video events
0,0,"Background.png"
Video,0,"Digimon Xros Wars - Opening - Never Give Up.avi"
//Break Periods
//Storyboard Layer 0 (Background)
//Storyboard Layer 1 (Fail)
//Storyboard Layer 2 (Pass)
//Storyboard Layer 3 (Foreground)
//Storyboard Sound Samples
//Background Colour Transformations
3,100,163,162,255

[TimingPoints]
40,422.535211267606,4,2,0,80,1,0
13138,-100,4,2,0,100,0,0
20532,-100,4,1,0,80,0,0
44406,422.535211267606,4,1,0,80,1,1
69758,-100,4,1,0,80,0,0

[Colours]
Combo1 : 252,86,86
Combo2 : 255,255,155
Combo3 : 106,160,251

[HitObjects]
24,192,6378,5,0
56,80,6800,1,8
128,80,7011,1,0
200,80,7223,1,0
160,192,7645,1,0
160,312,8068,1,8
264,248,8490,2,2,B|432:248,1,150
104,56,10180,5,0
224,64,10603,1,0
344,72,11025,1,8
416,80,11237,1,0
488,88,11448,1,0
432,192,11870,2,2,B|400:352,1,150
168,64,13561,5,0
288,64,13983,1,0
408,64,14406,1,2
368,304,15251,5,0
248,304,15673,1,0
128,304,16096,1,2
176,72,16941,5,0
224,184,17363,1,0
296,88,17786,2,2,B|456:88,1,150
416,200,18631,5,0
328,280,19054,1,0
216,240,19476,2,0,B|152:176|82:244,1,150,0|4
256,72,20744,5,0
296,184,21166,1,8
368,184,21378,1,0
440,184,21589,1,0
368,280,22011,1,4
256,328,22434,5,0
216,216,22856,1,8
144,216,23068,1,0
72,216,23279,1,0
144,120,23701,1,4
256,40,25392,5,0
256,112,25603,1,0
256,184,25814,1,0
256,256,26025,1,0
256,328,26237,1,0
32,56,27082,5,0
120,56,27399,1,2
232,152,27927,5,0
144,152,28244,1,2
224,280,28772,5,0
312,280,29089,1,2
424,176,29617,5,0
336,176,29934,1,2
256,48,30462,6,0,B|256:216,1,150
120,304,32152,6,0,B|120:56,2,225,0|0|0
240,328,33842,5,0
344,272,34265,1,0
240,216,34687,1,8
168,216,34899,1,0
96,216,35110,1,0
48,104,35532,5,0
152,48,35955,1,8
224,48,36166,2,0,B|456:48,1,225
432,168,37223,5,4
256,336,38068,1,4
80,168,38913,1,4
160,344,40603,6,0,B|320:344,1,150,0|2
352,288,41237,1,8
312,232,41448,2,0,B|152:232,1,150,0|2
120,176,42082,1,8
256,192,42293,12,0,43561
16,192,44406,5,0
16,72,44828,1,0
112,144,45251,1,0
224,72,45673,1,0
181,192,46096,2,2,B|417:192,1,225
256,40,47786,5,0
168,120,48208,1,8
168,192,48420,1,0
168,264,48631,1,0
264,192,49053,1,0
360,264,49476,2,2,B|360:96,1,150
360,40,50110,1,0
64,320,51166,5,0
112,208,51589,2,2,B|208:208,1,75
264,208,52011,1,0
384,208,52434,1,4
352,96,52856,5,0
256,24,53279,2,2,B|192:88,1,75
152,128,53701,1,0
64,216,54124,1,4
168,272,54546,1,0
256,192,56236,5,4
488,192,57927,5,0
368,192,58349,1,0
248,192,58772,1,8
176,192,58983,1,0
104,192,59194,1,0
176,288,59617,1,2
360,288,60251,1,2
216,24,61307,5,0
136,112,61729,1,0
136,232,62152,1,0
216,320,62575,1,0
304,232,62997,1,8
304,160,63208,1,0
304,88,63420,1,0
456,96,63842,2,2,B|456:264,1,150
376,336,64687,5,0
288,248,65110,2,2,B|200:272,1,75
144,288,65532,1,0
176,176,65955,1,0
208,56,66377,5,0
320,88,66800,2,2,B|344:168,1,75
368,232,67222,1,0
280,312,67645,1,8
208,312,67856,1,0
136,312,68067,1,0
106,73,68913,6,0,B|410:73,1,300
256,360,71448,5,0
144,320,71870,1,0
144,200,72293,1,0
216,200,72504,1,0
288,200,72715,1,0
216,104,73138,5,0
320,48,73560,1,0
424,104,73983,1,0
456,216,74406,1,0
456,288,74617,1,0
384,288,74828,1,0
304,200,75251,5,0
184,200,75673,1,0
248,96,76096,1,0
256,192,76518,12,4,77997
